#TITLE:ねねねねねねねね!大爆走;
#SUBTITLE:;
#ARTIST:桃鈴ねね produced by ヒゲドライバー;
#TITLETRANSLIT:NENENENENENENENE DAIBAKUSOU;
#SUBTITLETRANSLIT:;
#ARTISTTRANSLIT:Momosuzu Nene produced by Hige driver;
#GENRE:hololive/holostars;
#CREDIT:;
#BANNER:;
#BACKGROUND:;
#LYRICSPATH:;
#CDTITLE:;
#MUSIC:NENENENENENENENE DAIBAKUSOU.ogg;
#OFFSET:0.240000;
#SAMPLESTART:80.439766;
#SAMPLELENGTH:15.000000;
#SELECTABLE:YES;
#BPMS:0.000000=150.000000
,56.000000=170.000000
,288.000000=169.699936
,296.000000=170.000000
;
#STOPS:
;
#BGCHANGES:;
#KEYSOUNDS:;
#ATTACKS:;

//---------------dance-single - ----------------
#NOTES:
     dance-single:
     :
     Hard:
     13:
     0.578682,0.615304,0.393597,0.131199,0.081999,494.000000,446.000000,48.000000,16.000000,0.000000,0.000000,0.578682,0.615304,0.393597,0.131199,0.081999,494.000000,446.000000,48.000000,16.000000,0.000000,0.000000:
// measure 0
0000
0000
0000
0000
,  // measure 1
0000
0000
0000
0000
,  // measure 2
0000
0000
0000
0000
,  // measure 3
0000
0000
0000
0000
,  // measure 4
0000
0000
0000
0000
,  // measure 5
0000
0000
0000
0000
,  // measure 6
0000
0000
0000
0000
,  // measure 7
0000
0000
0000
0000
,  // measure 8
0001
0000
0000
0001
0000
0001
0100
0000
0000
1000
0000
0000
,  // measure 9
1000
0000
1000
0100
0000
0000
0100
0000
0000
0100
0000
0100
,  // measure 10
0010
0000
0000
0001
0000
0000
0001
0000
0001
0010
0000
0000
,  // measure 11
0100
0000
0000
0100
0000
0010
0100
0000
0000
1000
0000
0000
,  // measure 12
1000
0000
0001
1000
0000
0000
0010
0000
0000
0010
0000
0100
,  // measure 13
0010
0000
0000
0001
0000
0000
0001
0000
1000
0001
0000
0000
,  // measure 14
2002
0000
0000
3003
,  // measure 15
0200
0000
0000
0310
,  // measure 16
1000
0100
0010
0100
1000
0100
0010
0100
,  // measure 17
0001
0010
0100
0010
0001
0010
0100
0010
,  // measure 18
0100
1000
0100
0001
0100
1000
0100
0001
,  // measure 19
0010
1000
0010
0001
0010
1000
0010
0001
,  // measure 20
0100
0001
0100
0001
0100
0010
0100
0010
,  // measure 21
1000
0010
1000
0010
1000
0001
1000
0001
,  // measure 22
1000
0001
0010
1000
0100
0010
0001
0100
,  // measure 23
0010
1000
0100
0010
0001
0100
0010
1000
,  // measure 24
0001
0000
1000
0002
0000
0000
0000
0000
1000
0000
0000
0000
1003
0000
0000
0000
,  // measure 25
0010
1000
0100
0010
0001
0100
0010
0000
,  // measure 26
0001
1000
0001
1000
0010
0100
0010
0100
,  // measure 27
0001
0010
0100
1000
1001
0000
1000
0100
,  // measure 28
0010
0100
0001
0100
0010
0100
0110
0000
,  // measure 29
0100
0010
1000
0010
0100
0010
0110
0000
,  // measure 30
1100
0000
0000
0000
0110
0000
0000
0000
0011
0000
0000
0010
0000
0000
0110
0000
,  // measure 31
0000
0000
0010
0000
0000
0001
0000
0000
2002
0000
0000
0000
3003
0000
0000
0000
,  // measure 32
0001
1000
0010
1000
0001
1000
0010
0000
,  // measure 33
1000
0001
0100
0001
1000
0001
0100
0000
,  // measure 34
0001
1000
0010
0100
0001
1000
0010
0100
,  // measure 35
0000
1100
0000
0101
0000
0001
0100
0010
,  // measure 36
0000
0010
1000
0100
0001
0000
1001
0000
,  // measure 37
0001
0010
0100
1000
0001
0000
1001
0000
,  // measure 38
1000
0100
0010
0100
0001
0010
0100
1000
,  // measure 39
0010
1000
0001
0100
0010
0000
1001
0000
,  // measure 40
0010
0000
0000
1000
0000
0000
1010
0000
0001
0000
0000
0100
0000
0000
0101
0000
,  // measure 41
0010
0000
0000
0100
0000
0000
0110
0000
0110
0000
0000
0000
1001
0000
0000
0000
,  // measure 42
1000
0000
0000
0100
0000
0000
1100
0000
0001
0000
0000
0010
0000
0000
0011
0000
,  // measure 43
0010
0000
0000
0110
0000
0000
0001
0000
1001
0000
0000
0000
0110
0000
0000
0000
,  // measure 44
1000
0100
0010
0000
0001
0010
0100
1000
,  // measure 45
0001
0000
1000
0000
0001
1000
0010
0000
,  // measure 46
1000
0001
0100
0010
1000
0000
1001
0000
,  // measure 47
1000
0100
0010
0000
0001
0010
0100
1000
,  // measure 48
0010
0100
0001
0000
1001
0000
0000
1100
,  // measure 49
0000
0000
0101
0000
0000
1001
0000
0000
,  // measure 50
0001
1000
0010
0000
0010
1000
0001
0000
,  // measure 51
0001
1000
0100
0000
0100
1000
0001
0000
,  // measure 52
0001
1000
0001
1000
0010
0100
0010
0100
,  // measure 53
0001
0010
0100
1000
0001
0010
0100
1000
,  // measure 54
0002
0000
1000
0000
,  // measure 55
1000
0000
1000
0000
1000
0000
1003
0100
,  // measure 56
0000
0100
0100
0100
0100
0100
0100
0100
,  // measure 57
0000
0100
0100
0100
0100
0100
0100
0100
,  // measure 58
0000
0100
0100
0100
0100
0100
0100
0100
,  // measure 59
0000
0000
1001
0000
1001
0000
0001
0001
,  // measure 60
0000
0001
0001
0001
0001
0000
1001
1000
,  // measure 61
0000
1000
1000
1000
1000
0000
1001
0000
,  // measure 62
0010
0010
0010
0010
0010
0010
0010
0010
,  // measure 63
0000
0000
0110
0000
0110
0000
0001
0010
,  // measure 64
0000
1000
0100
0010
0001
0010
0100
1000
,  // measure 65
0000
0001
0010
0100
1000
0100
0010
0001
,  // measure 66
0000
0001
0010
1000
0010
0001
0010
1000
,  // measure 67
0000
0010
1000
0001
0000
0001
1001
0000
,  // measure 68
0001
0100
1000
0100
0001
0100
1001
0000
,  // measure 69
0001
0010
1000
0010
0001
0010
1001
0000
,  // measure 70
0001
1000
0100
0001
0100
1000
0010
0001
,  // measure 71
0010
1000
0010
0100
0001
1000
1001
0000
,  // measure 72
1200
0301
0201
1300
,  // measure 73
1020
0031
0021
1030
,  // measure 74
0012
0100
0100
0013
,  // measure 75
0010
1000
0001
0100
0010
1000
0001
0100
,  // measure 76
0020
0100
0100
0130
,  // measure 77
2000
0001
0001
3001
,  // measure 78
0010
1000
0001
0000
0001
1000
0010
0000
,  // measure 79
1000
0001
0100
0000
0100
0001
1000
0000
,  // measure 80
1000
0000
0000
0100
0000
0000
1100
0000
0100
0000
0000
0001
0000
0000
0101
0000
,  // measure 81
0001
0000
0000
0010
0000
0000
0011
0000
0010
0000
1000
0000
0001
0000
0100
0000
,  // measure 82
0000
0000
2002
0000
,  // measure 83
0000
0000
0000
3003
0000
0000
0000
0000
;

//---------------dance-single - ----------------
#NOTES:
     dance-single:
     :
     Medium:
     10:
     0.474426,0.546936,0.368998,0.139399,0.049200,405.000000,360.000000,45.000000,17.000000,0.000000,0.000000,0.474426,0.546936,0.368998,0.139399,0.049200,405.000000,360.000000,45.000000,17.000000,0.000000,0.000000:
// measure 0
0000
0000
0000
0000
,  // measure 1
0000
0000
0000
0000
,  // measure 2
0000
0000
0000
0000
,  // measure 3
0000
0000
0000
0000
,  // measure 4
0000
0000
0000
0000
,  // measure 5
0000
0000
0000
0000
,  // measure 6
0000
0000
0000
0000
,  // measure 7
0000
0000
0000
0000
,  // measure 8
0001
0100
0101
1000
,  // measure 9
0100
1100
0001
0010
,  // measure 10
0011
1000
0010
1010
,  // measure 11
0001
1000
1001
0010
,  // measure 12
0100
0110
1000
0100
,  // measure 13
1100
0001
0100
0101
,  // measure 14
2001
0000
0001
0000
,  // measure 15
0001
0001
3001
0110
,  // measure 16
1000
0100
0010
0000
0001
0000
1001
0000
,  // measure 17
0001
0010
0100
0000
1000
0000
1001
0000
,  // measure 18
1000
0100
0010
0100
0001
0100
0010
0000
,  // measure 19
0001
0100
0010
0100
1000
0100
0010
0000
,  // measure 20
0001
1000
0010
0000
1000
0000
1001
0000
,  // measure 21
1000
0010
0100
0000
0001
0000
1001
0000
,  // measure 22
0001
0100
1000
0000
1000
0010
0001
0000
,  // measure 23
0001
1000
0001
1000
0010
0100
0010
0000
,  // measure 24
1000
0000
0001
1000
0000
0000
0000
0000
0000
0000
0000
0000
0000
0000
0000
0000
,  // measure 25
0100
0100
0010
0010
,  // measure 26
0001
1000
0001
1000
,  // measure 27
0010
0000
0100
0010
0110
0000
0001
0000
,  // measure 28
0100
1000
0010
1010
,  // measure 29
1000
0010
0001
0101
,  // measure 30
0100
0000
0000
0000
1000
0000
0000
0000
0001
0000
0000
1000
0000
0000
0001
0000
,  // measure 31
0000
0000
0100
0000
0000
0010
0000
0000
0110
0000
0000
0000
0000
0000
0000
0000
,  // measure 32
0001
0100
0001
0000
1000
0000
1100
0000
,  // measure 33
1000
0100
1000
0000
0001
0000
1001
0000
,  // measure 34
0001
0000
0100
0000
0010
0000
1000
0001
,  // measure 35
0000
1000
0000
0001
0000
1000
0001
0000
,  // measure 36
0010
1000
0001
0000
1001
0000
0110
0000
,  // measure 37
0001
0100
0010
0000
1000
0000
1001
0000
,  // measure 38
1000
0100
0001
0000
0001
0100
1000
0000
,  // measure 39
0010
0000
0100
0000
0010
0100
0010
0000
,  // measure 40
1000
0000
0000
0100
0000
0000
1000
0000
0001
0000
0000
0100
0000
0000
0001
0000
,  // measure 41
1000
0000
0000
0001
0000
0000
1000
0000
0001
0000
0000
0000
1001
0000
0000
0000
,  // measure 42
0001
0000
0000
0010
0000
0000
0001
0000
1000
0000
0000
0010
0000
0000
1000
0000
,  // measure 43
0001
0000
0000
1000
0000
0000
0001
0000
1000
0000
0000
0000
1001
0000
0000
0000
,  // measure 44
2000
0100
3100
0002
,  // measure 45
0100
0103
2000
0010
,  // measure 46
3010
0002
0010
0013
,  // measure 47
0001
0100
1000
0000
1001
0000
1000
0010
,  // measure 48
0001
0000
1001
0000
1100
0000
0000
0101
,  // measure 49
0000
0000
0011
0000
0000
1010
0000
0000
,  // measure 50
1000
0001
1000
0000
0010
0100
0010
0000
,  // measure 51
0001
0000
0100
0000
0010
0100
0010
0000
,  // measure 52
1000
0001
1000
0000
0010
0100
0010
0000
,  // measure 53
1000
0000
0010
0000
0100
0010
0100
0000
,  // measure 54
2002
3003
2002
3003
,  // measure 55
0010
0000
0010
0000
0010
0000
0010
0100
,  // measure 56
0000
0100
0000
0100
0100
0000
0100
0100
,  // measure 57
0000
0100
0000
0100
0100
0000
0100
0100
,  // measure 58
0000
0100
0000
0100
0100
0000
0100
0100
,  // measure 59
0000
0100
0000
0100
0100
0000
0010
0010
,  // measure 60
0000
0010
0000
0010
0010
0000
0010
0001
,  // measure 61
0000
0001
0000
0001
0001
0000
0001
1000
,  // measure 62
0000
1000
0000
1000
1000
0000
1000
0001
,  // measure 63
0000
0000
0001
0000
1001
0000
0001
0100
,  // measure 64
0000
1000
0100
0000
0001
0000
0001
0010
,  // measure 65
0000
1000
0010
0000
1000
0000
0100
1000
,  // measure 66
0000
0001
0010
0000
1000
0000
0001
1000
,  // measure 67
0000
1000
0001
0000
1001
0000
0110
0000
,  // measure 68
0001
0100
0001
0000
1001
0000
1010
0000
,  // measure 69
1000
0010
1000
0000
1001
0000
0101
0000
,  // measure 70
0001
0100
1000
0000
1000
0010
0001
0000
,  // measure 71
0001
1000
0001
0000
0010
0100
0010
0000
,  // measure 72
1200
1300
0021
0031
,  // measure 73
2010
3010
0102
0103
,  // measure 74
2000
0100
0010
3100
,  // measure 75
0002
0010
0100
0013
,  // measure 76
1000
0010
1000
0000
0001
1000
0001
0000
,  // measure 77
0100
0001
0100
0000
0001
0010
0001
0000
,  // measure 78
0100
0010
0100
0010
0001
1000
0001
0000
,  // measure 79
0010
0100
0010
0100
1000
0001
1000
0000
,  // measure 80
0100
0000
0000
1000
0000
0000
0100
0000
0010
0000
0000
0001
0000
0000
0010
0000
,  // measure 81
0100
0000
0000
1000
0000
0000
0100
0000
0010
0000
0001
0000
0100
0000
1000
0000
,  // measure 82
0000
0000
2002
0000
,  // measure 83
0000
0000
0000
3003
0000
0000
0000
0000
;

//---------------dance-single - ----------------
#NOTES:
     dance-single:
     :
     Easy:
     6:
     0.361969,0.478569,0.352598,0.352598,0.000000,309.000000,266.000000,43.000000,43.000000,0.000000,0.000000,0.361969,0.478569,0.352598,0.352598,0.000000,309.000000,266.000000,43.000000,43.000000,0.000000,0.000000:
0000
0000
0000
0000
,
0000
0000
0000
0000
,
0000
0000
0000
0000
,
0000
0000
0000
0000
,
0000
0000
0000
0000
,
0000
0000
0000
0000
,
0000
0000
0000
0000
,
0000
0000
0000
0000
,
0001
0001
1000
0100
,
0100
0010
1000
1000
,
0001
0010
0010
0100
,
1000
0100
1000
0001
,
0010
0001
1000
0001
,
1000
0010
0100
0010
,
0220
0000
0000
0330
,
0002
0000
0000
1003
,
1000
0100
0010
0110
,
0001
0010
0100
0110
,
1000
0100
0001
0010
,
1000
0001
1000
1001
,
0001
0100
0001
0101
,
1000
0100
1000
1100
,
0001
0010
0001
0011
,
1000
0010
1000
1010
,
2002
0000
3003
0000
,
0001
0100
1000
0010
,
1000
1000
0001
0001
,
0100
0010
0220
0330
,
0001
0100
1000
0010
,
1000
0100
0001
0010
,
0200
0000
0320
0000
,
2030
0000
3002
0000
,
1003
0100
0010
0110
,
0001
0010
0100
0110
,
1000
0100
0001
0010
,
1000
0001
2002
3003
,
0001
0100
1000
1100
,
1000
0100
0001
0101
,
0001
0010
0100
0010
,
1000
0100
0010
0100
,
1000
1100
0001
0101
,
0001
0011
1000
1010
,
0001
0011
0001
0101
,
1000
1100
1000
1010
,
0002
0100
0103
2000
,
0000
3010
2000
0100
,
3100
0002
0000
0013
,
2000
0001
3001
0002
,
1000
0000
1003
0000
0200
0000
0000
2300
,
0000
0000
3020
0000
0000
0032
0000
0000
,
1003
1000
0100
0100
,
0001
0001
0010
0010
,
1000
0001
1000
0001
,
0100
0010
0100
0010
,
1001
0000
1001
0000
,
0100
0100
0100
0010
,
0200
0000
0010
0310
,
0020
0000
0100
0130
,
2000
0000
0001
3001
,
0002
0000
1000
1003
,
0100
0100
0100
0110
,
0100
0100
0100
0110
,
0100
0100
0100
0100
,
0110
0110
0110
0000
,
0001
0100
1000
1001
,
1000
0010
0001
1001
,
0100
1000
0010
0001
,
0100
0010
0110
0100
,
1000
0100
2200
3300
,
0001
0100
0202
0303
,
0001
1000
0010
0100
,
0001
1000
0010
0100
,
2200
3300
0202
0303
,
0022
0033
2020
3030
,
1002
1000
1000
1003
,
0100
0010
0100
0110
,
1000
0100
1000
0010
,
0001
0100
0001
0010
,
1000
0001
1000
0001
,
0100
0010
0100
0010
,
2001
0001
0001
0001
,
0001
0001
0001
3001
,
0000
0000
0220
0000
,
0000
0000
0000
0330
0000
0000
0000
0000
;

//---------------dance-single - ----------------
#NOTES:
     dance-single:
     :
     Beginner:
     3:
     0.148770,0.338248,0.147599,0.213199,0.000000,127.000000,109.000000,18.000000,26.000000,0.000000,0.000000,0.148770,0.338248,0.147599,0.213199,0.000000,127.000000,109.000000,18.000000,26.000000,0.000000,0.000000:
0000
0000
0000
0000
,
0000
0000
0000
0000
,
0000
0000
0000
0000
,
0000
0000
0000
0000
,
0000
0000
0000
0000
,
0000
0000
0000
0000
,
0000
0000
0000
0000
,
0000
0000
0000
0000
,
0000
0000
0000
0000
,
0000
0000
0000
0000
,
0000
0000
0000
0000
,
0000
0000
0000
0000
,
0000
0000
0000
0000
,
0000
0000
0000
0000
,
0210
0000
0000
0000
,
0310
0000
0000
0110
,
0001
0000
0001
0000
,
1000
0000
1000
0000
,
0010
0000
0010
0000
,
0100
0000
0100
0000
,
1000
0000
1000
0000
,
0001
0000
0001
0000
,
0100
0000
0100
0000
,
0010
0000
0010
0000
,
2001
0000
0000
0000
,
3001
0000
0000
0000
,
0100
0000
0000
0000
,
0010
0000
0000
0000
,
1001
0000
0000
0000
,
0010
0000
0000
0000
,
0100
0000
0100
0000
,
0210
0000
0000
0000
,
0310
0000
0000
0000
,
1000
0000
0000
0000
,
0001
0000
0000
0000
,
0010
0000
0010
0000
,
0010
0000
0000
0000
,
0100
0000
0000
0000
,
1000
0000
1000
0000
,
0001
0000
0001
0000
,
2002
0000
3003
0000
,
2002
0000
3003
0000
,
0220
0000
0330
0000
,
0220
0000
0330
0000
,
2000
0000
3000
0002
,
0000
0003
2000
0000
,
3000
0002
0000
0003
,
0200
0000
0300
0020
,
0000
0030
0200
0000
,
0000
0000
0000
0000
,
0310
0000
0010
0000
,
0100
0000
0100
0000
,
0001
0000
0001
0000
,
1000
0000
1000
0000
,
2002
0000
0000
0000
,
3003
0000
0000
0000
,
0100
0000
0100
0000
,
0100
0100
0100
0000
,
0100
0000
0100
0000
,
0100
0100
0100
0000
,
0010
0000
0010
0000
,
0010
0010
0010
0000
,
0010
0000
0010
0000
,
0010
0010
0010
0000
,
1000
0000
0001
0000
,
1000
0000
0001
0000
,
0100
0000
0010
0000
,
0100
0000
0010
0000
,
0001
0000
1000
0000
,
0010
0000
0100
0000
,
0001
0000
1000
0000
,
0010
0000
0100
0000
,
1001
0000
1001
0000
,
1001
0000
1001
0000
,
2002
0000
0000
3003
,
0100
0000
0100
0000
,
0220
0000
0000
0000
,
0000
0000
0000
0330
,
0001
0000
0001
0000
,
1000
0000
1000
0000
,
2002
0000
0000
0000
,
0000
0000
0000
3003
,
0000
0000
0110
0000
;
