#TITLE:Myths You Forgot;
#SUBTITLE:;
#ARTIST:かめりあ feat. toby fox;
#TITLETRANSLIT:;
#SUBTITLETRANSLIT:;
#ARTISTTRANSLIT:;
#GENRE:Japanese Pops;
#CREDIT:;
#BANNER:;
#BACKGROUND:;
#LYRICSPATH:;
#CDTITLE:;
#MUSIC:Myths You Forgot.ogg;
#OFFSET:0.595000;
#SAMPLESTART:82.609863;
#SAMPLELENGTH:15.000000;
#SELECTABLE:YES;
#BPMS:0.000000=150.000000
;
#STOPS:
;
#BGCHANGES:;
#KEYSOUNDS:;
#ATTACKS:;

//---------------dance-single - ----------------
#NOTES:
     dance-single:
     :
     Hard:
     14:
     0.590569,0.648088,0.165072,0.100479,0.401915,576.000000,553.000000,23.000000,14.000000,0.000000,0.000000,0.590569,0.648088,0.165072,0.100479,0.401915,576.000000,553.000000,23.000000,14.000000,0.000000,0.000000:
0000
0000
0000
0000
,
0000
0000
0000
0000
,
0000
0000
0000
0000
,
0000
0000
0000
0000
,
0000
0000
0000
0000
,
1000
0000
0000
0100
0000
0000
1000
0000
0000
0100
0000
0000
1000
0000
0000
0000
,
0001
0000
0000
0100
0000
0000
0001
0000
0000
0100
0000
0000
0001
0000
0000
0000
,
1000
0000
0000
0010
0000
0000
1000
0000
0000
0010
0000
0000
1000
0000
0000
0000
,
0001
0000
0000
0010
0000
0000
0001
0000
0000
0010
0000
0000
0001
0000
0100
0000
,
1000
0000
0010
0100
0001
0000
0100
0010
,
0100
0000
0000
0001
0000
0000
1000
0000
0001
0000
0000
0000
0100
0000
0001
0000
,
0010
0000
1000
0000
0100
0000
0010
0000
0001
0000
0000
0100
0000
0000
1000
0000
,
0000
0000
1000
0000
0000
0001
0000
0000
0100
0000
0000
0010
0000
0000
1000
0000
,
0000
0110
0000
1001
0000
0100
0000
0010
,
0000
0000
1000
0000
0000
0010
0000
0000
0100
0000
0001
0000
0000
0000
0100
1000
,
0000
0000
0010
1000
0100
0000
0001
0100
,
0000
1000
1010
0000
0011
0000
1001
0000
,
0001
0000
1000
0000
0000
0100
0000
0000
0010
0000
0000
0001
0000
0000
0100
0000
,
0000
0000
0010
0000
0000
0000
1000
0000
0001
0000
0000
0000
0010
1000
0010
1000
,
0010
0000
0000
0000
1010
0000
0000
0000
0001
0000
0000
0000
0100
0001
0100
0001
,
0100
0000
0000
0000
0101
0000
0000
0000
1000
0000
0000
0010
0000
0000
0100
0000
,
1001
0000
0000
0010
0000
0000
1001
0000
0000
0000
0000
0000
0010
0000
0000
0000
,
1001
0000
0000
0100
0000
0000
1001
0000
0000
0000
0000
0000
0010
0000
0200
0000
,
0010
0000
1000
0000
,
0310
0000
0110
0000
0001
1000
0010
0100
,
0002
0100
1000
0013
,
2000
0001
0100
3010
,
0020
1000
0100
0031
,
0200
0001
0010
1300
,
0010
1000
0100
0000
0010
0001
0100
0000
,
0100
1000
0010
0000
0010
0001
0100
0000
,
0100
1000
0100
0001
0100
1000
0100
0001
,
0010
1000
0010
0001
0010
1000
0010
0001
,
1000
0000
0000
0010
1000
0000
0010
0000
0100
0000
0001
0000
1000
0000
0000
0000
,
0001
0000
0000
0100
0001
0000
1000
0000
0010
0000
0100
0000
0001
0000
0000
0000
,
1000
0000
0000
0001
1000
0000
0010
0000
0100
0000
0001
0000
1000
0000
0000
0000
,
0010
0000
0000
0100
0010
0000
0100
0000
0001
0000
1000
0000
0010
0000
0100
0000
,
0001
0000
1000
0001
0000
1000
0001
0000
1000
0000
0010
0000
0100
0000
0001
0000
,
1000
0000
0010
0100
0000
0010
0100
0000
0001
0000
1000
0000
0010
0000
0100
0000
,
0001
0100
1000
0100
0001
0100
1000
0100
,
0001
0010
1000
0010
0001
0010
1000
0010
,
0001
0000
0100
0001
0100
0000
0001
0000
1000
0000
0100
0000
0001
0000
0010
0000
,
1000
0000
0010
1000
0010
0000
1000
0000
0001
0000
0100
0000
0010
0000
1000
0000
,
0001
0100
1000
0100
0001
0100
1000
0100
,
0001
0010
1000
0010
0001
0010
1000
0010
,
0001
0000
0100
0001
0000
0100
0001
0000
0100
0001
0100
0000
0010
0000
1000
0000
,
0100
0000
1000
0010
0000
1000
0010
0000
1000
0010
1000
0000
0001
0000
0100
0000
,
0010
1000
0001
0100
0010
1000
0001
0100
,
0010
0100
0001
0100
0010
1000
0010
0100
,
0001
1000
0100
0010
0001
0100
1000
0010
,
0200
0000
0000
0310
,
0001
0000
0000
0100
0000
0000
1000
0000
2002
0000
0000
0000
3003
0000
0000
0000
,
0010
0000
0000
1000
0000
0000
0001
0000
1000
0000
0000
0000
0001
1000
0001
1000
,
0001
0000
0000
0100
0000
0000
0010
0000
0100
0000
0000
0000
0100
0010
0100
0010
,
0100
0000
0000
0001
0000
0000
1000
0000
0001
0000
0000
0000
0001
1000
0001
1000
,
0000
1001
0000
0100
0010
1000
0001
0100
,
1010
0000
0000
0001
0000
0000
0101
0000
0000
0000
0000
0000
0001
0000
1000
0000
,
0000
0000
0010
0001
1000
0000
1001
0000
0000
0000
0010
0000
0100
0000
0001
0000
,
0010
0000
0000
0100
0000
0000
1000
0000
0001
0000
0000
0000
1000
0000
0000
0000
,
0010
0000
0100
0000
1000
0000
0001
0000
0100
0000
0000
0010
0000
0000
0001
0000
,
1000
0010
1000
0010
0000
1000
0000
0001
1000
0000
0100
0000
0010
0000
1000
0000
,
0001
1000
0001
1000
0000
0001
0000
0100
0010
0000
1000
0000
0001
0000
0000
0000
,
0010
0000
0000
0100
0000
0000
0010
0000
0000
0100
0000
0000
0000
0000
0000
0001
0000
0000
1000
0000
0000
0000
0000
0000
0010
0000
0000
0000
0100
0000
0000
0000
0001
0000
0000
0000
1000
0000
0000
0000
0000
0000
0100
0000
0000
0000
0000
0000
,
0010
1000
0100
0001
0010
0100
0110
0000
,
0001
0000
0100
1000
0000
0100
0001
0000
0100
0000
1000
0000
0100
0000
0000
0000
,
0010
0000
1000
0010
0000
0001
0010
0000
1000
0000
0010
0000
0001
0000
0010
0000
,
2000
0000
0001
0000
0001
0000
3001
1000
0001
0100
0010
0100
,
1000
0000
0000
0001
1000
0000
1000
0001
1000
0000
0100
0000
1001
0000
0000
0000
,
1000
0000
0010
1000
0000
0000
0001
0000
0100
0001
0000
0000
0010
0000
0100
0000
,
0010
0000
1000
0001
0000
0000
1000
0000
0010
0100
0000
0000
0001
0000
0100
0000
,
0010
0000
1000
0001
0000
0000
0100
0000
0001
1000
0000
0000
0010
0000
1000
0000
,
0100
0000
0001
0010
0000
0000
1000
0000
0100
1000
0000
0000
0001
0000
0100
0000
,
0010
0000
0000
1010
0000
0000
0001
0000
1000
0000
0000
0000
0010
0000
0100
0000
,
0001
0000
1000
0000
0000
0000
0010
0000
0100
0000
0000
0000
0001
0100
0001
0100
,
0001
0000
0000
1000
0000
0000
0010
0000
0000
0000
1000
0000
0001
0000
0100
0000
,
1000
0100
0000
0100
0001
0000
0001
0010
0000
0010
1000
0000
1010
0000
0000
0000
,
1000
0000
0001
1000
0000
0000
1000
0000
0010
0100
0000
0000
0001
0000
1000
0000
,
0010
0000
0100
0001
0000
0000
0001
0000
0100
1000
0000
0000
0001
0000
1000
0000
,
0010
0000
0100
0001
0000
0000
0100
0000
1000
0010
0000
0000
0001
0000
0100
0000
,
0010
0000
1000
0001
0000
1000
0001
0000
0100
0010
0000
0100
0010
0000
0001
0000
,
1000
0000
0100
0001
0000
1000
0010
0000
0100
0000
0001
0000
1000
0000
0010
0000
,
0100
0000
0000
0000
0000
0000
0001
0000
0000
0100
0000
0000
0000
0000
0000
1000
0000
0000
0010
0000
0000
0000
0000
0000
1000
0000
0000
0000
0001
0000
0000
0000
1000
0000
0000
0000
0010
0000
0000
0000
0100
0000
0000
0000
0010
0000
0000
0000
,
0002
1003
2000
3001
,
0200
0010
1000
0310
,
0001
0100
1000
0100
0001
0100
1100
0000
,
0220
0000
0000
0000
,
0330
0000
0000
0000
;

//---------------dance-single - ----------------
#NOTES:
     dance-single:
     :
     Medium:
     11:
     0.500343,0.524642,0.236843,0.086125,0.071771,488.000000,455.000000,33.000000,12.000000,0.000000,0.000000,0.500343,0.524642,0.236843,0.086125,0.071771,488.000000,455.000000,33.000000,12.000000,0.000000,0.000000:
0000
0000
0000
0000
,
0000
0000
0000
0000
,
0000
0000
0000
0000
,
0000
0000
0000
0000
,
0000
0000
0000
0000
,
1000
0000
0000
0100
0000
0000
1000
0000
0000
0000
0000
0000
0010
0000
0100
0000
,
0010
0000
0000
0100
0000
0000
0010
0000
0000
0000
0000
0000
0010
0000
0001
0000
,
0010
0000
0000
0001
0000
0000
0010
0000
0000
0000
0000
0000
0001
0000
1000
0000
,
0001
0000
0000
1000
0000
0000
0001
0000
1000
0000
0000
0000
0001
0000
0000
0000
,
1000
0000
0010
0100
0010
0000
0001
0000
,
1001
0000
0010
0100
0010
0000
1000
0000
,
1100
0000
1000
0010
0100
0000
0001
0000
,
0011
0000
0001
0100
0010
1000
0100
0000
,
1100
0000
1000
0010
0100
0001
1000
0000
,
1001
0000
0001
0100
0010
1000
0100
0000
,
1100
0000
0010
0100
0001
1000
0001
0000
,
0011
0000
0001
0100
0010
1000
0010
0000
,
0100
0000
1000
0000
0000
0010
0000
0000
0100
0000
0000
0001
0000
0000
1000
0000
,
0010
0100
0001
1000
0010
0100
1001
0000
,
0001
0000
0000
0100
0000
0000
0010
0000
1000
0000
0000
0000
0010
0000
1000
0000
,
0001
0100
0010
1000
0001
0100
1001
0000
,
0100
0000
0000
1000
0000
0000
0010
0000
0100
0000
0001
0000
0100
0000
0000
0000
,
0001
0000
0000
0010
0000
0000
1000
0000
0100
0000
1000
0000
0010
0000
0000
0000
,
0001
1000
0010
0000
0010
1000
0001
0000
,
0100
1000
0001
0000
0001
1000
0010
0000
,
0200
1000
0010
0301
,
0020
0001
0100
1030
,
0200
1000
0001
1300
,
0020
0001
1000
0031
,
0110
0100
0001
0000
1000
0000
0010
0000
,
0110
0010
1000
0000
0001
0000
1000
0000
,
0001
0100
0010
0000
1000
0010
0100
0000
,
0002
0100
1000
0013
,
1000
0010
0100
0001
1000
0000
1001
0000
,
0001
0100
0010
1000
0100
0000
1001
0000
,
0100
1000
0010
0000
0010
0001
0100
0000
,
0100
1000
0010
0000
0010
0001
0100
0000
,
0100
1000
0100
0001
0100
0000
1001
0000
,
0010
0001
0010
1000
0010
0000
1001
0000
,
0100
1000
0010
0000
0010
0001
0100
0000
,
0100
1000
0010
0000
0010
0001
0100
0000
,
0100
1000
0100
0001
0100
1000
0100
0000
,
0010
0001
0010
1000
0010
0001
0010
0000
,
1000
0010
0100
0000
0001
0100
0010
0000
,
1000
0010
0100
0000
0001
0100
0010
0000
,
1000
0100
0001
0100
1000
0100
0001
0100
,
1000
0010
0001
0010
1000
0010
0001
0010
,
1000
0010
0100
0001
0100
0010
1000
0000
,
0001
0100
0010
1000
0010
0100
0001
0000
,
0100
1000
0010
0001
0100
1000
0010
0001
,
2000
0000
0001
3001
,
0010
0000
0000
1000
0000
0000
0001
0000
0100
0000
0000
0000
0110
0000
0000
0000
,
0001
0000
0000
0100
0000
0000
1000
0000
0100
0000
0000
0000
1000
0000
0010
0000
,
0100
0000
0000
0001
0000
0000
0010
0000
0100
0000
0000
0000
0001
0000
1000
0000
,
0010
0000
0000
0001
0000
0000
1000
0000
0100
0000
0000
0000
0010
0000
0100
0000
,
0000
1000
0001
0100
0010
0000
0110
0000
,
0001
0000
0000
0100
0000
0000
1000
0000
0010
0000
0000
0000
0001
0000
0000
0000
,
1000
0000
0000
0010
0000
0000
0001
0000
0100
0000
0000
0000
1000
0000
0010
0000
,
0100
0000
0000
0001
0000
0000
0100
0000
1000
0000
0000
0000
0010
0000
1000
0000
,
0000
0001
1000
0010
0100
0000
1001
0000
,
0100
0000
0000
1000
0000
0000
0010
0000
0100
0000
0000
0000
0110
0000
0000
0000
,
0010
0000
0000
0001
0000
0000
0100
0000
0010
0000
0000
0000
0110
0000
0000
0000
,
0100
0000
0000
1000
0000
0000
0001
0000
0010
0000
0000
0000
1001
0000
0000
0000
,
0010
0000
0000
0001
0000
0000
1000
0000
0100
0000
0000
0000
1001
0000
0000
0000
,
0100
1000
0010
0000
0010
0001
0100
0000
,
0100
1000
0001
1000
0010
0100
0001
0000
,
1000
0010
0001
0000
0001
0100
1000
0000
,
0010
0100
0001
1000
0010
0000
1001
0000
,
0100
1000
0010
0100
0001
0000
1001
0000
,
0001
0100
0010
1000
0100
0000
1100
0000
,
1000
0010
0100
0001
0010
0000
0011
0000
,
0001
0100
1000
0010
0001
0000
1001
0000
,
0100
1000
0010
0000
0010
0001
0100
0000
,
0100
1000
0001
0000
0001
0010
1000
0000
,
1000
0010
0100
0001
1000
0000
1001
0000
,
0001
0100
0010
1000
0001
0000
1001
0000
,
0100
1000
0010
0000
0010
0001
0100
0000
,
0100
1000
0001
0000
0001
1000
0010
0000
,
0010
1000
0001
0000
0001
0100
1000
0000
,
1000
0100
0001
0000
0001
0010
1000
0000
,
0010
1000
0001
0100
0010
0000
0110
0000
,
0010
1000
0001
0100
0010
0000
0110
0000
,
2000
3100
0002
0013
,
2002
0000
0000
0003
,
0100
0010
0001
3001
,
0220
0000
0000
0000
,
0330
0000
0000
0000
;

//---------------dance-single - ----------------
#NOTES:
     dance-single:
     :
     Easy:
     7:
     0.338347,0.432058,0.208134,0.186603,0.000000,330.000000,301.000000,29.000000,26.000000,0.000000,0.000000,0.338347,0.432058,0.208134,0.186603,0.000000,330.000000,301.000000,29.000000,26.000000,0.000000,0.000000:
0000
0000
0000
0000
,
0000
0000
0000
0000
,
0000
0000
0000
0000
,
0000
0000
0000
0000
,
0000
0000
0000
0000
,
2000
0000
3100
0000
,
0002
0000
0103
0000
,
2000
0000
3010
0000
,
0002
0000
0013
0000
,
1000
0010
0100
0001
,
0100
0001
1000
0010
,
0001
0100
0010
1000
,
0010
0100
0001
1000
,
0100
0010
0001
0011
,
0001
0100
0010
1000
,
0010
0100
1000
1100
,
1000
0100
0001
0010
,
0200
1000
0010
0301
,
0010
1000
0001
1001
,
0020
0001
0100
1030
,
0100
0001
1000
1001
,
0200
1000
0010
0301
,
0020
0001
0100
1030
,
0001
1000
0010
0110
,
0010
0100
0001
1001
,
0200
0000
1000
0000
,
1000
0000
0001
0000
,
0302
0000
0010
0000
,
0010
0000
0100
0000
,
0203
0000
0010
0000
,
0010
0000
1000
0000
,
1300
0010
0001
0100
,
0001
0010
1000
0100
,
1000
0010
0100
0001
,
0001
0100
0010
1000
,
1000
0100
0010
0001
,
0001
0010
0100
1000
,
0100
0010
1000
1010
,
0010
0001
0100
0101
,
0200
1000
0010
0301
,
0020
0001
0100
1030
,
0001
1000
0010
0110
,
1000
0001
0100
0110
,
0100
1000
0001
1001
,
0010
0100
1000
1001
,
0200
1000
0010
1300
,
0020
0100
0001
0130
,
0001
0100
0010
0110
,
1000
0010
0100
0110
,
0200
1000
0001
0310
,
0220
0000
0000
0330
,
0001
0000
1000
0001
0000
0000
0000
0000
,
1001
0000
0100
0010
0000
0000
0000
0000
,
1001
0000
0010
0100
0000
0000
0000
0000
,
1000
0000
0100
0010
0000
0000
0001
0000
,
0010
0000
0001
0010
0000
0000
0100
0000
,
1000
0000
0010
0100
0000
0000
0001
0000
,
1000
0000
0001
1000
0000
0000
0100
0000
,
0010
0000
1000
0010
0000
0000
0100
0000
,
0001
1000
0001
1001
,
0100
0000
1000
0000
0010
0010
0010
0000
,
0001
0000
1000
0000
0100
0100
0100
0000
,
1000
0000
0010
0000
0001
0001
0001
0000
,
0010
0000
0001
0000
1000
1000
1000
0000
,
0200
1000
0010
0301
,
0020
0001
0100
1030
,
0100
1000
0010
0001
,
0100
0001
1000
1001
,
0100
1000
0100
0000
0010
0000
0110
0000
,
0010
0001
0010
0000
0100
0000
0110
0000
,
0100
1000
0001
0000
1001
0000
0010
0000
,
0001
0010
0001
0000
1000
0000
1001
0000
,
0200
0000
0310
0010
,
1000
0001
1000
0000
0100
0000
0100
0000
,
0010
0100
0010
0000
0001
0000
0001
0000
,
0200
1000
0010
0301
,
0010
0000
1000
0000
0001
0001
0001
0000
,
0010
0000
0001
0000
1000
1000
1000
0000
,
0100
0000
1000
0000
0010
0010
0010
0000
,
0100
0000
0001
0000
0010
0010
0100
0000
,
1000
0100
0010
1001
,
0010
0001
0100
1001
,
1100
0010
0011
0100
,
0220
0000
0000
0000
,
0000
0000
0000
0330
,
2002
0000
0000
0000
,
3003
0000
0000
0000
;

//---------------dance-single - ----------------
#NOTES:
     dance-single:
     :
     Beginner:
     3:
     0.134313,0.213517,0.035885,0.071771,0.000000,131.000000,126.000000,5.000000,10.000000,0.000000,0.000000,0.134313,0.213517,0.035885,0.071771,0.000000,131.000000,126.000000,5.000000,10.000000,0.000000,0.000000:
// measure 0
0000
0000
0000
0000
,  // measure 1
0000
0000
0000
0000
,  // measure 2
0000
0000
0000
0000
,  // measure 3
0000
0000
0000
0000
,  // measure 4
0000
0000
0000
0000
,  // measure 5
1001
0000
0000
0000
,  // measure 6
1001
0000
0000
0000
,  // measure 7
0110
0000
0000
0000
,  // measure 8
0110
0000
0000
0000
,  // measure 9
2000
0000
3100
0000
,  // measure 10
0002
0000
0103
0000
,  // measure 11
1000
0000
0001
0000
,  // measure 12
1000
0000
0000
0000
,  // measure 13
0002
0000
0013
0000
,  // measure 14
2000
0000
3010
0000
,  // measure 15
0001
0000
1000
0000
,  // measure 16
0001
0000
0000
0000
,  // measure 17
1000
0000
0100
0000
,  // measure 18
0010
0000
0010
0000
,  // measure 19
0001
0000
0010
0000
,  // measure 20
0200
0000
0300
0000
,  // measure 21
0001
0000
0010
0000
,  // measure 22
0100
0000
0100
0000
,  // measure 23
1000
0000
0100
0000
,  // measure 24
0020
0000
0030
0000
,  // measure 25
1000
0000
0100
0000
,  // measure 26
1000
0000
0000
0000
,  // measure 27
0001
0000
0010
0000
,  // measure 28
0001
0000
0000
0000
,  // measure 29
1000
0000
0001
0000
,  // measure 30
1000
0000
0000
0000
,  // measure 31
0001
0000
1000
0000
,  // measure 32
0001
0000
0000
0000
,  // measure 33
1000
0000
0100
0000
,  // measure 34
0010
0000
0000
0000
,  // measure 35
0001
0000
0010
0000
,  // measure 36
0100
0000
0000
0000
,  // measure 37
1000
0000
0100
0000
,  // measure 38
0001
0000
0000
0000
,  // measure 39
0001
0000
0010
0000
,  // measure 40
1000
0000
0000
0000
,  // measure 41
0100
0000
1000
0000
,  // measure 42
0010
0000
0010
0000
,  // measure 43
0010
0000
0001
0000
,  // measure 44
0100
0000
0100
0000
,  // measure 45
0100
0000
1000
0000
,  // measure 46
0010
0010
0010
0000
,  // measure 47
0010
0000
0001
0000
,  // measure 48
0100
0100
0100
0000
,  // measure 49
2002
0000
0000
0000
,  // measure 50
3003
0000
0000
0000
,  // measure 51
0200
0000
0000
0000
,  // measure 52
0310
0000
0010
0000
,  // measure 53
0010
0000
0000
0000
,  // measure 54
1000
0000
1000
0000
,  // measure 55
1000
0000
0000
0000
,  // measure 56
0001
0000
0001
0000
,  // measure 57
0001
0000
0000
0000
,  // measure 58
0100
0000
0100
0000
,  // measure 59
0100
0000
0000
0000
,  // measure 60
1000
0000
0100
0000
,  // measure 61
0010
0000
0000
0000
,  // measure 62
0001
0000
0010
0000
,  // measure 63
0100
0000
0000
0000
,  // measure 64
1000
0000
0100
0000
,  // measure 65
0001
0000
0000
0000
,  // measure 66
0001
0000
0010
0000
,  // measure 67
1000
0000
0000
0000
,  // measure 68
0100
0000
1000
0000
,  // measure 69
0010
0000
0000
0000
,  // measure 70
0010
0000
0001
0000
,  // measure 71
0100
0000
0000
0000
,  // measure 72
1000
0000
0100
0000
,  // measure 73
0001
0000
0000
0000
,  // measure 74
0001
0000
0010
0000
,  // measure 75
1000
1000
1000
0000
,  // measure 76
1000
0000
0100
0000
,  // measure 77
0010
0000
0000
0000
,  // measure 78
0001
0000
0010
0000
,  // measure 79
0100
0000
0000
0000
,  // measure 80
1000
0000
0001
0000
,  // measure 81
0100
0000
0000
0000
,  // measure 82
0001
0000
1000
0000
,  // measure 83
0020
0000
0000
0000
,  // measure 84
0000
0000
0000
0000
,  // measure 85
0030
0000
0000
0000
;
