#TITLE:My Babe Bee;
#SUBTITLE:;
#ARTIST:Another Infinity feat. Mayumi Morinaga;
#TITLETRANSLIT:;
#SUBTITLETRANSLIT:;
#ARTISTTRANSLIT:;
#GENRE:DDR;
#CREDIT:;
#BANNER:;
#BACKGROUND:;
#LYRICSPATH:;
#CDTITLE:;
#MUSIC:My Babe Bee.ogg;
#OFFSET:-0.700001;
#SAMPLESTART:99.819801;
#SAMPLELENGTH:15.000000;
#SELECTABLE:YES;
#BPMS:0.000000=138.000000
;
#STOPS:
;
#BGCHANGES:;
#KEYSOUNDS:;
#ATTACKS:;

//---------------dance-single - ----------------
#NOTES:
     dance-single:
     :
     Hard:
     11:
     0.542525,0.558143,0.276194,0.053704,0.061377,495.000000,459.000000,36.000000,7.000000,0.000000,0.000000,0.542525,0.558143,0.276194,0.053704,0.061377,495.000000,459.000000,36.000000,7.000000,0.000000,0.000000:
0000
0000
0000
0000
,
0000
0000
0000
0000
,
0000
0000
0000
0000
,
0000
0000
0000
0000
,
0000
0000
0000
0000
,
1000
0100
0010
0001
1000
0000
1001
0000
,
0001
0100
1000
0001
0000
0001
0100
1000
,
0010
0100
1000
0010
0100
0001
0100
0010
,
2000
0001
0001
3001
,
0001
0100
1000
0010
0110
0000
1001
0000
,
1000
0100
0010
0001
0000
1000
0100
0010
,
0001
0100
0010
1000
0001
0000
1001
0000
,
0001
0100
1000
0010
0100
0001
1001
0000
,
0010
1000
0010
0100
0001
0100
1000
0000
,
1000
0100
0010
1001
0000
0001
0010
0100
,
1000
0010
0100
0001
0010
1000
0100
0010
,
0002
1000
1000
1003
,
0010
0000
0010
0000
0010
0000
0100
0010
0100
0000
0001
0000
1000
0000
0000
0000
,
0100
0000
0100
0000
0100
0000
0010
0100
0010
0000
1000
0000
0001
0000
0000
0000
,
0001
0000
0001
0000
0001
0000
1000
0001
1000
0000
0010
0000
0100
0000
0000
0000
,
1000
0000
1000
0000
1000
0000
0001
1000
0001
0000
0100
0000
0010
0000
0000
0000
,
1000
0000
0100
0000
1000
0000
0100
1000
0100
0000
1000
0000
0010
0000
0000
0000
,
0001
0000
0010
0000
0001
0000
0010
0001
0010
0000
0001
0000
0100
0000
0000
0000
,
1000
0000
0100
0000
1000
0000
0001
1000
0001
0000
1000
0000
1001
0000
0000
0000
,
0001
0000
0010
0000
0001
0000
0100
0010
0100
0000
0010
0000
0110
0000
0000
0000
,
1000
0100
0101
0000
0001
0100
1000
0000
,
1000
0010
0001
0010
1000
0001
1001
0000
,
1000
0100
0110
0000
0001
0010
0100
0000
,
1000
0001
0100
0010
1000
0001
1001
0000
,
0001
0100
0110
0000
1000
0100
0001
0000
,
0001
0100
1000
0010
0100
0001
1001
0000
,
0200
0010
1000
0310
,
0020
0100
0001
0130
,
1000
0010
0100
0001
1000
0000
1001
0000
,
0001
0100
0010
1000
0001
0000
1001
0000
,
1000
0100
0001
0000
1000
0010
0001
0000
,
1000
0010
0100
0001
1000
0001
1001
0000
,
0001
0100
1000
0000
0010
0000
0110
0000
,
0001
0010
1000
0000
0001
0000
1001
0000
,
1000
0100
0010
0100
0001
0010
0100
0010
,
1000
0100
0001
0100
0010
1000
1001
0000
,
1000
0100
0010
0001
1001
0000
0110
0000
,
0001
0100
1000
1100
0000
1000
0100
0001
,
0010
0100
1000
0010
0100
0001
1001
0000
,
1000
0100
0010
0100
0001
0010
0100
0010
,
1000
0100
0010
0100
0001
1000
1001
0000
,
0001
0100
1000
0010
0000
0010
1000
0010
,
0100
0001
0010
0100
1000
0010
0100
0001
,
2000
0001
0001
3001
,
1000
0000
0100
0000
0001
0000
0100
0010
0100
0000
0010
0000
0100
0000
0000
0000
,
0001
0000
0010
0000
1000
0000
0010
0100
0010
0000
0100
0000
0010
0000
0000
0000
,
1000
0000
0001
0000
0100
0000
0001
1000
0001
0000
1000
0000
0100
0000
0000
0000
,
0001
0000
1000
0000
0010
0000
1000
0001
1000
0000
0001
0000
0010
0000
0000
0000
,
1000
0000
0010
0000
0001
0000
0100
0001
1000
0000
0010
0000
0010
0000
0000
0000
,
0001
0000
0100
0000
1000
0000
0010
1000
0001
0000
0100
0000
0100
0000
0000
0000
,
1000
0000
0100
0000
1000
0000
0010
0100
0001
0000
1000
0000
1001
0000
0000
0000
,
0001
0000
0010
0000
0001
0000
0100
0010
1000
0000
0001
0000
1001
0000
0000
0000
,
0010
1000
0100
0010
0001
0000
0110
0000
,
0001
0100
1000
1001
0000
1000
0010
0001
,
1000
0010
0100
0001
1000
0000
1001
0000
,
0001
0100
1000
0010
0001
0100
1000
0000
,
0001
0010
0100
1000
0001
0000
1001
0000
,
1000
0010
0001
1000
0000
1000
0010
0001
,
0100
0010
0001
0100
0010
1000
0010
0100
,
0002
1000
1000
1003
,
1000
0010
0001
0100
0110
0000
1001
0000
,
0001
0010
0100
1000
0000
0001
0010
0100
,
1000
0010
0100
0001
1000
0000
1001
0000
,
1000
0010
0001
0100
0010
1000
1001
0000
,
0100
0001
0100
0010
1000
0010
0001
0000
,
0001
0010
0100
1001
0000
1000
0100
0010
,
0001
0100
0010
1000
0100
0001
0010
0100
,
2000
0001
0001
3001
;

//---------------dance-single - ----------------
#NOTES:
     dance-single:
     :
     Medium:
     8:
     0.377027,0.390700,0.222490,0.130425,0.000000,344.000000,315.000000,29.000000,17.000000,0.000000,0.000000,0.377027,0.390700,0.222490,0.130425,0.000000,344.000000,315.000000,29.000000,17.000000,0.000000,0.000000:
0000
0000
0000
0000
,
0000
0000
0000
0000
,
0000
0000
0000
0000
,
0000
0000
0000
0000
,
0000
0000
0000
0000
,
1000
0010
0100
0001
,
0000
0100
0010
1000
0000
0001
0100
0010
,
1000
0100
0010
1000
,
0002
1000
1000
1003
,
0010
0100
0001
1001
,
0000
1000
0100
0010
0000
0100
0010
0001
,
0100
0010
1000
0001
,
0200
0010
1000
0310
,
0001
0100
0010
1001
,
0000
0001
0100
0010
0000
0100
0010
1000
,
0010
0100
0001
1000
,
0020
0100
0100
0130
,
0001
0001
0100
0000
0010
0000
1000
0000
,
0100
0100
1000
0000
0010
0000
0100
0000
,
1000
1000
0100
0000
0010
0000
1000
0000
,
0010
0010
0001
0000
0001
0000
0110
0000
,
0001
1000
0010
0000
0100
0000
1001
0000
,
0100
0001
1000
0000
0010
0000
0110
0000
,
0001
0100
1000
0000
0010
0000
0110
0000
,
1000
0010
0001
0000
0100
0000
1001
0000
,
0002
0103
1000
0010
,
2000
3100
0010
1000
,
0002
0103
2000
3100
,
0020
0100
0001
0130
,
0001
0100
0010
1010
,
1000
0010
0100
0101
,
0010
0100
1000
0001
,
0200
0010
0010
0310
,
0001
0100
0001
0000
1000
0000
1001
0000
,
1000
0100
1000
0000
0001
0000
1001
0000
,
0020
0100
1000
0031
,
0200
0010
0001
1300
,
0010
0100
0001
0000
1000
0000
1001
0000
,
1000
0010
0100
0000
0001
0000
1001
0000
,
0200
1000
0320
0001
,
0130
1000
0010
1001
,
0100
1000
0100
0000
0001
0000
1001
0000
,
0001
0010
0001
0000
1000
0000
1001
0000
,
0100
1000
0010
1001
,
0100
1000
0010
0000
0100
0001
0010
0000
,
1000
0010
1001
0110
,
0001
0100
0010
0000
1000
0010
0100
0000
,
0001
0100
1000
0000
0010
0000
0110
0000
,
2000
0001
0100
3010
,
1000
1000
0010
0000
0100
0000
0001
0000
,
0010
0010
0001
0000
0100
0000
0010
0000
,
0001
0001
0010
0000
0100
0000
0001
0000
,
0100
0100
1000
0000
1000
0000
0110
0000
,
1000
0001
0100
0000
0010
0000
1001
0000
,
0010
1000
0001
0000
0100
0000
0110
0000
,
1000
0010
0001
0000
0100
0000
0110
0000
,
0001
0100
1000
0000
0010
0000
1001
0000
,
0001
1000
0010
0110
,
0000
0001
0100
0010
0000
1000
0010
0100
,
0001
1000
0010
0110
,
0001
0100
1000
0000
0001
0010
1000
0000
,
0001
0100
0010
1000
,
0000
0010
0100
0001
0000
1000
0010
0100
,
0001
0010
0100
0001
,
2000
0001
0001
3001
,
0100
0010
1000
1001
,
0000
0001
0010
0100
0000
0010
0100
1000
,
0010
0100
0001
1000
,
0020
0100
0001
0130
,
1000
0010
0100
1001
,
0000
1000
0010
0100
0000
0010
0100
0001
,
0100
0010
1000
0001
,
0200
0010
0010
0310
;

//---------------dance-single - ----------------
#NOTES:
     dance-single:
     :
     Easy:
     6:
     0.312363,0.306978,0.291538,0.168785,0.000000,285.000000,247.000000,38.000000,22.000000,0.000000,0.000000,0.312363,0.306978,0.291538,0.168785,0.000000,285.000000,247.000000,38.000000,22.000000,0.000000,0.000000:
0000
0000
0000
0000
,
0000
0000
0000
0000
,
0000
0000
0000
0000
,
0000
0000
0000
0000
,
0000
0000
0000
0000
,
1000
0010
0100
1001
,
0000
0110
0000
1001
,
0001
0100
0010
1000
,
0002
1000
1000
1003
,
0010
1000
0001
0110
,
0000
1001
0000
0110
,
1000
0010
0100
0001
,
0100
0010
2000
3001
,
0010
0100
0001
1001
,
0000
0110
0000
1001
,
0001
1000
0010
0100
,
0020
0100
0001
0130
,
1000
1000
0100
0100
,
0001
0010
0001
0010
,
0001
0001
0010
0010
,
1000
0100
1000
0100
,
0001
0001
1000
1000
,
0010
0100
0010
0100
,
1000
1000
0001
0001
,
0100
0010
0100
0010
,
1001
0100
2000
3000
,
0010
0100
0001
1000
,
0110
0001
0200
0000
,
0310
1000
0010
0100
,
1001
0010
0002
0003
,
0001
0100
0010
1000
,
0020
0100
0001
0130
,
0200
0010
1000
0310
,
1000
0010
0100
1001
,
0001
0100
0010
1001
,
0200
0000
0320
0000
,
1030
0001
0220
0330
,
0001
0100
1000
1001
,
1000
0010
0001
1001
,
0200
0010
1000
0310
,
0020
0100
0001
0130
,
1000
0010
1000
1001
,
0000
1001
0000
0110
,
0001
0100
0010
1000
,
0010
0020
0130
0200
,
0310
1000
0001
1001
,
0000
0110
0000
1001
,
0100
0010
1000
0001
,
0020
0100
0100
0130
,
0001
0001
0010
0010
,
1000
0100
1000
0100
,
1000
1000
0100
0100
,
0001
0010
0001
0010
,
1000
1000
0001
0001
,
0100
0010
0100
0010
,
0001
0001
1000
1000
,
0010
0100
0010
0100
,
1001
0010
0100
1100
,
0000
1001
0000
0110
,
0001
1000
0010
0022
,
0033
1000
0010
1001
,
0001
0100
0010
1001
,
0000
0110
0000
1001
,
1000
0010
0100
0001
,
2000
0001
0001
3001
,
0100
0001
1000
0110
,
0000
1001
0000
0110
,
0001
0100
0010
1000
,
0010
0100
0002
1003
,
0100
0010
1000
1001
,
0000
0110
0000
1001
,
1000
0001
0100
0010
,
0200
0010
1000
0310
;

//---------------dance-single - ----------------
#NOTES:
     dance-single:
     :
     Beginner:
     2:
     0.100833,0.139536,0.007672,0.030688,0.000000,92.000000,91.000000,1.000000,4.000000,0.000000,0.000000,0.100833,0.139536,0.007672,0.030688,0.000000,92.000000,91.000000,1.000000,4.000000,0.000000,0.000000:
// measure 0
0000
0000
0000
0000
,  // measure 1
0000
0000
0000
0000
,  // measure 2
0000
0000
0000
0000
,  // measure 3
0000
0000
0000
0000
,  // measure 4
0000
0000
0000
0000
,  // measure 5
1000
0000
0000
0000
,  // measure 6
0001
0000
0000
0000
,  // measure 7
1000
0000
0000
0000
,  // measure 8
0001
0000
0000
0000
,  // measure 9
0100
0000
0000
0000
,  // measure 10
1000
0000
0000
0000
,  // measure 11
0100
0000
0000
0000
,  // measure 12
1000
0000
0000
0000
,  // measure 13
0010
0000
0000
0000
,  // measure 14
0001
0000
0000
0000
,  // measure 15
0010
0000
0000
0000
,  // measure 16
0001
0000
0000
0000
,  // measure 17
0100
0000
0100
0000
,  // measure 18
0100
0000
0100
0000
,  // measure 19
0010
0000
0010
0000
,  // measure 20
0010
0000
0010
0000
,  // measure 21
1000
0000
1000
0000
,  // measure 22
1000
0000
1000
0000
,  // measure 23
0001
0000
0001
0000
,  // measure 24
0001
0000
0001
0000
,  // measure 25
1000
0000
0000
0000
,  // measure 26
0100
0000
0000
0000
,  // measure 27
1000
0000
0000
0000
,  // measure 28
0001
0000
0000
0000
,  // measure 29
0010
0000
0000
0000
,  // measure 30
0100
0000
0000
0000
,  // measure 31
0001
0000
0000
0000
,  // measure 32
0100
0000
0000
0000
,  // measure 33
1000
0000
0100
0000
,  // measure 34
1000
0000
0000
0000
,  // measure 35
0001
0000
0000
0000
,  // measure 36
0001
0000
0000
0000
,  // measure 37
0001
0000
0010
0000
,  // measure 38
0001
0000
0000
0000
,  // measure 39
1000
0000
0000
0000
,  // measure 40
1000
0000
0000
0000
,  // measure 41
1000
0000
0100
0000
,  // measure 42
2000
0000
3000
0000
,  // measure 43
0001
0000
0010
0000
,  // measure 44
0002
0000
0003
0000
,  // measure 45
0100
0000
0010
0000
,  // measure 46
0200
0000
0300
0000
,  // measure 47
0010
0000
0100
0000
,  // measure 48
0020
0000
0030
0000
,  // measure 49
0010
0000
0010
0000
,  // measure 50
0010
0000
0010
0000
,  // measure 51
0100
0000
0100
0000
,  // measure 52
0100
0000
0100
0000
,  // measure 53
0001
0000
0001
0000
,  // measure 54
0001
0000
0001
0000
,  // measure 55
1000
0000
1000
0000
,  // measure 56
1000
0000
1000
0000
,  // measure 57
0010
0000
0000
0000
,  // measure 58
0100
0000
0000
0000
,  // measure 59
0010
0000
0000
0000
,  // measure 60
0100
0000
0000
0000
,  // measure 61
0001
0000
0000
0000
,  // measure 62
1000
0000
0000
0000
,  // measure 63
0001
0000
0000
0000
,  // measure 64
1000
0000
0000
0000
,  // measure 65
0010
0000
0000
0000
,  // measure 66
0001
0000
0000
0000
,  // measure 67
0010
0000
0000
0000
,  // measure 68
0001
0000
0000
0000
,  // measure 69
0100
0000
0000
0000
,  // measure 70
1000
0000
0000
0000
,  // measure 71
0100
0000
0000
0000
,  // measure 72
1000
0000
0000
1001
;
