#TITLE:妄想学園ino-koi組;
#SUBTITLE:;
#ARTIST:亜熱帯マジ-SKA爆弾 feat.MAKI;
#TITLETRANSLIT:A.- Mousou gakuen ino-koi gumi;
#SUBTITLETRANSLIT:;
#ARTISTTRANSLIT:ANETTAI MAJI-SKA BAKUDAN feat.MAKI;
#GENRE:GITADORA;
#CREDIT:;
#BANNER:;
#BACKGROUND:;
#LYRICSPATH:;
#CDTITLE:;
#MUSIC:Mousou gakuen ino-koi gumi.ogg;
#OFFSET:0.300000;
#SAMPLESTART:61.336090;
#SAMPLELENGTH:15.000000;
#SELECTABLE:YES;
#DISPLAYBPM:*;
#BPMS:0.000000=222.000000
;
#STOPS:
;
#BGCHANGES:;
#KEYSOUNDS:;
#ATTACKS:;

//---------------dance-single - ----------------
#NOTES:
     dance-single:
     :
     Hard:
     14:
     0.648309,0.735816,0.385640,0.247912,0.113626,567.000000,56.000000,36.000000,0.000000,0.000000,0.000000,0.648309,0.735816,0.385640,0.247912,0.113626,567.000000,56.000000,36.000000,0.000000,0.000000,0.000000:
// measure 0
0000
0000
0000
0000
,  // measure 1
0000
0000
0000
0000
,  // measure 2
0000
0000
0000
0000
,  // measure 3
0000
0000
0000
0000
,  // measure 4
0000
0000
0000
0000
,  // measure 5
0001
0101
0000
0000
1000
1100
0000
0000
,  // measure 6
0100
0000
0100
0010
0000
0000
0110
0000
,  // measure 7
0000
0000
0010
0000
0001
0000
0011
0000
0100
0000
1000
0000
,  // measure 8
2200
0000
0300
3001
,  // measure 9
1100
0001
0010
0100
,  // measure 10
0002
0000
0013
0000
,  // measure 11
0010
1000
0100
0101
,  // measure 12
0020
0000
1030
0000
,  // measure 13
0010
1000
0100
1100
,  // measure 14
0020
0000
2030
0000
,  // measure 15
3002
0000
0100
0000
,  // measure 16
0100
0003
0110
0000
1000
0000
1001
0000
,  // measure 17
0001
0100
0101
1000
,  // measure 18
2100
0000
3100
0000
,  // measure 19
0010
1010
0100
1000
,  // measure 20
0012
0000
0013
0000
,  // measure 21
0100
0110
0001
1001
,  // measure 22
0012
0000
2003
0000
,  // measure 23
3200
0000
0000
0000
,  // measure 24
0300
0010
0100
0010
0100
0000
0000
0000
,  // measure 25
1100
0000
0100
0000
0010
0100
0001
0000
,  // measure 26
0010
1000
0010
1000
,  // measure 27
0011
0000
0001
0000
0100
0001
0010
0000
,  // measure 28
1000
0010
1000
0001
0010
0000
0100
0000
,  // measure 29
0010
0000
0001
0000
0010
1000
0100
0000
,  // measure 30
0010
0000
0100
0000
1000
0001
0010
0000
,  // measure 31
0001
0010
0100
1000
0010
1000
0100
0010
,  // measure 32
0100
0001
0010
0100
1000
0000
1100
0000
,  // measure 33
0010
0000
1000
0000
0100
0001
0010
0000
,  // measure 34
1000
0000
0010
0000
0001
0010
0100
0000
,  // measure 35
0010
0000
0001
0000
0100
1000
0010
0000
,  // measure 36
1000
0010
0100
0010
0001
0000
0110
0000
,  // measure 37
0010
0000
0001
0000
1000
0100
0010
0000
,  // measure 38
0100
0000
1000
0000
0001
0010
0100
0000
,  // measure 39
0010
0010
0100
0100
,  // measure 40
1000
0001
0010
0100
1000
0000
1100
0000
,  // measure 41
1000
0000
0010
0100
0000
0010
0100
0000
,  // measure 42
0001
0000
1000
0001
0000
1000
0001
0000
,  // measure 43
0010
0000
1000
0100
0000
1000
0100
0000
,  // measure 44
0010
0000
0100
0001
0000
0100
0001
0000
,  // measure 45
0010
0000
1000
0001
0000
0001
0010
0000
,  // measure 46
1000
0000
0001
0010
0000
0010
0100
0000
,  // measure 47
1000
0000
0010
1000
0000
1000
0010
0001
,  // measure 48
0100
0010
1100
1000
,  // measure 49
0001
1000
0001
1000
0000
0010
1000
0000
,  // measure 50
0001
0010
1000
0100
0000
0010
0100
0000
,  // measure 51
0001
0010
0100
1000
0000
0010
1000
0000
,  // measure 52
0010
1000
0001
0000
0100
0001
0010
0000
,  // measure 53
0200
0010
0010
0010
,  // measure 54
1000
0000
1000
0000
1000
0300
0010
0000
,  // measure 55
0002
0100
0010
0103
,  // measure 56
0010
0100
1000
0100
0022
0000
0033
0000
,  // measure 57
1000
0100
0010
0100
0001
0010
0100
1000
,  // measure 58
0010
1000
0010
0100
0001
0000
0101
0000
,  // measure 59
0010
0100
1000
0100
0010
0000
1010
0000
,  // measure 60
0001
0010
0100
0010
0001
0000
0011
0000
,  // measure 61
0010
0100
1000
0010
1000
0100
0001
0010
,  // measure 62
0100
1000
0010
0001
0010
1000
0100
0000
,  // measure 63
1000
0010
0100
0001
0010
0000
1100
0000
,  // measure 64
0001
0100
0010
1000
0100
0000
0101
0000
,  // measure 65
0001
0000
0010
0000
1000
0000
0100
0000
0001
0000
0100
0000
,  // measure 66
1000
1100
0010
1000
,  // measure 67
0001
0000
1000
0000
0010
0000
1000
0000
0001
0000
0100
0000
,  // measure 68
0010
0011
0010
0100
,  // measure 69
0010
0000
1000
0000
0010
0000
0100
0000
0001
0000
0010
0000
,  // measure 70
0100
0010
1000
0100
,  // measure 71
2100
0000
0100
0000
,  // measure 72
3000
0100
0010
0100
0101
0000
0000
0000
,  // measure 73
0001
0000
0100
0010
0000
0100
0010
0000
,  // measure 74
1000
0000
0001
1000
0000
0001
1000
0000
,  // measure 75
0100
0000
0001
0010
0000
0001
0010
0000
,  // measure 76
0100
0000
0010
1000
0000
0010
1000
0000
,  // measure 77
0100
0000
0001
1000
0000
1000
0100
0000
,  // measure 78
0001
0000
1000
0100
0000
0100
0010
0000
,  // measure 79
0001
0000
0100
0001
0000
0001
0100
1000
,  // measure 80
0010
0100
0011
0001
,  // measure 81
1000
0001
1000
0001
0000
0100
0001
0000
,  // measure 82
1000
0100
0001
0010
0000
0100
0010
0000
,  // measure 83
1000
0100
0010
0001
0000
0100
0001
0000
,  // measure 84
0100
0001
1000
0000
0010
1000
0100
0000
,  // measure 85
0020
0100
0100
0100
,  // measure 86
0001
0000
0001
0000
0001
0030
0100
0000
,  // measure 87
2000
0010
0100
3010
,  // measure 88
0100
0010
0001
0010
2200
0000
3300
0000
,  // measure 89
0001
0010
0100
0010
1000
0100
0010
0001
,  // measure 90
0100
0001
0100
0010
1000
0000
1010
0000
,  // measure 91
0100
0010
0001
0010
0100
0000
0101
0000
,  // measure 92
1000
0100
0010
0100
1000
0000
1100
0000
,  // measure 93
0100
0010
0001
0100
0001
0010
1000
0100
,  // measure 94
0010
0001
0100
1000
0100
0001
0010
0000
,  // measure 95
0001
0100
0010
1000
0100
0000
0011
0000
,  // measure 96
1000
0010
0100
0001
0010
0000
1010
0000
,  // measure 97
1000
0000
0100
0000
0001
0000
0010
0000
1000
0000
0010
0000
,  // measure 98
0001
0011
0100
0001
,  // measure 99
1000
0000
0001
0000
0100
0000
0001
0000
1000
0000
0010
0000
,  // measure 100
0100
1100
0100
0010
,  // measure 101
0100
0000
0001
0000
0100
0000
0010
0000
1000
0000
0100
0000
,  // measure 102
0010
0100
0001
0010
,  // measure 103
0011
0000
1000
0010
1000
0000
0001
0100
,  // measure 104
0001
1000
0010
0100
,  // measure 105
0001
0000
0100
0001
0100
0000
1000
0100
,  // measure 106
1000
1000
0010
0100
0001
0010
0100
1000
,  // measure 107
0011
1000
0100
0010
,  // measure 108
2000
0000
3100
0000
,  // measure 109
0100
0001
0010
1010
,  // measure 110
0200
0000
0301
0000
,  // measure 111
0100
0001
0010
0011
,  // measure 112
0200
0000
0302
0000
,  // measure 113
2003
0000
0010
0000
,  // measure 114
3010
0110
0001
1001
,  // measure 115
1000
0010
1010
0001
,  // measure 116
0012
0000
0013
0000
,  // measure 117
0100
0101
0010
0001
,  // measure 118
2100
0000
3100
0000
,  // measure 119
0010
0110
1000
1001
,  // measure 120
2100
0000
3002
0000
,  // measure 121
0023
0000
0000
0000
,  // measure 122
0030
0100
0010
0100
0010
0000
0000
0002
,  // measure 123
0000
0010
0000
0013
,  // measure 124
0000
0010
1000
0010
0200
0000
0000
0302
,  // measure 125
0000
0000
2000
0000
,  // measure 126
0000
0000
0000
0000
,  // measure 127
0000
0000
0000
0000
0000
0000
0000
0000
0003
0000
0000
0000
0000
0000
0000
0010
,  // measure 128
0000
0000
0000
0000
0000
0200
0000
0000
0000
0000
0000
0000
0000
0000
0000
0000
,  // measure 129
0000
0000
0000
0000
,  // measure 130
0000
0000
0000
0000
,  // measure 131
0000
0000
0000
3300
,  // measure 132
0000
0000
0000
0000
0000
0000
0000
0000
0000
1001
0000
0000
0000
0000
0000
0000
,  // measure 133
0000
0000
0000
0000
0000
0000
0000
0010
1000
0001
0000
0000
0000
0000
0000
0000
;

//---------------dance-single - ----------------
#NOTES:
     dance-single:
     :
     Medium:
     12:
     0.513531,0.551862,0.179047,0.502710,0.030989,423.000000,26.000000,73.000000,0.000000,0.000000,0.000000,0.513531,0.551862,0.179047,0.502710,0.030989,423.000000,26.000000,73.000000,0.000000,0.000000,0.000000:
0000
0000
0000
0000
,
0000
0000
0000
0000
,
0000
0000
0000
0000
,
0000
0000
0000
0000
,
0000
0000
0000
0000
,
1000
0100
0000
0000
0100
0010
0000
0000
,
0001
0000
0000
0101
0000
0000
1000
0000
,
0000
0000
0001
0000
1000
0000
0010
0000
0100
0000
0001
0000
,
0020
0000
0000
0030
,
1001
0000
0010
1000
,
0002
0003
0011
0000
,
0001
0000
1000
0010
,
0200
0300
0101
0000
,
1100
0000
0010
1000
,
0001
0000
0011
0000
,
1000
0010
1000
0010
,
0100
0001
0100
0001
,
0100
1000
0010
0100
,
0012
0000
1003
0000
,
0001
0100
0010
1000
,
2100
0000
3001
0000
,
0010
1000
0001
0100
,
0020
0000
1030
0001
,
0200
0000
0000
0000
,
0000
0310
0100
0010
0100
0000
0000
0000
,
0001
1000
0010
1000
,
0100
1000
0100
0000
0000
0000
0010
0000
,
1000
0001
0100
0010
,
1000
0100
0101
0000
,
0010
1000
0100
0001
,
0010
0001
0010
0000
0000
0000
0001
0000
,
0010
1000
0100
0001
,
1000
0100
1000
0100
1000
0000
0000
0000
,
1100
0001
1000
0010
,
1000
0001
1000
0000
0000
0000
0010
0000
,
1000
0100
0001
0010
,
1000
0100
0101
0001
,
1000
0010
0100
0001
,
0010
1000
0010
0000
0000
0000
0001
0000
,
1001
0001
0100
0010
,
1000
0010
1000
0010
1000
0000
0000
0000
,
0002
0000
0103
0010
,
2000
0000
3010
0100
,
0002
0000
0013
1000
,
0200
0000
0310
1000
,
0020
0000
0130
0001
,
2000
0000
3100
0010
,
0002
0000
0103
0010
,
1000
0100
0001
0100
,
1000
0000
0100
1000
0000
1000
0100
0000
,
0001
0000
0100
0001
0000
0001
0100
0000
,
0010
0000
1000
0001
0000
0001
1000
0000
,
0010
0000
1000
0000
0001
0100
0010
0000
,
2000
0100
0000
0100
,
0000
0100
0000
3100
,
0020
0000
0001
0000
,
0031
1000
0001
1000
0001
0000
0000
0000
,
0001
0010
1000
0100
,
0100
1000
0100
0000
0001
0100
0001
0000
,
0010
1000
0100
0001
,
0101
0000
1100
0001
,
1000
0010
1000
0001
,
0010
0001
0010
0000
1000
0010
1000
0000
,
0001
0000
0010
0000
1000
0010
0100
0001
,
0010
0000
1000
1100
,
2000
3020
0230
0302
,
2003
0000
3020
0000
,
0230
0302
0023
0230
,
2300
0000
3002
0000
,
0203
0320
0230
0302
,
0023
0000
2030
0000
,
3002
0000
0000
0000
,
0003
1000
0010
1000
0020
0000
0030
0000
,
2000
0000
3010
0100
,
0002
0000
0103
0010
,
2000
0000
3100
0001
,
0020
0000
0130
0001
,
0200
0000
0310
1000
,
0002
0000
0013
0100
,
2000
0000
3010
0100
,
0001
0010
1000
0010
,
0001
0000
0010
0001
0000
0001
0010
0000
,
1000
0000
0010
1000
0000
1000
0010
0000
,
0100
0000
0001
1000
0000
1000
0001
0000
,
0100
0000
0001
0000
1000
0010
0100
0000
,
0002
0010
0000
0010
,
0000
0010
0000
0013
,
0200
0000
1000
0000
,
1300
0001
1000
0001
1000
0000
0000
0000
,
1000
0100
0001
0010
,
0010
0001
0010
0000
1000
0010
1000
0000
,
0100
0001
0010
1000
,
1010
0000
0011
1000
,
0001
0100
0001
1000
,
0100
1000
0100
0000
0001
0100
0001
0000
,
1000
0000
0100
0000
0001
0100
0010
1000
,
0100
0000
0001
0011
,
0002
0203
0320
2030
,
3002
0000
0203
0000
,
0320
2030
3200
0320
,
0032
0000
2003
0000
,
3020
0230
0320
2030
,
3200
0000
0302
0000
,
0103
0000
1000
0000
,
1000
0100
0001
0100
,
1000
0000
0001
0000
,
0001
0100
1000
0100
,
1001
0000
0100
0001
,
2000
3000
1100
0000
,
1000
0000
0001
0100
,
0020
0030
1010
0000
,
0011
0000
0100
0001
,
1000
0000
1100
0000
,
0001
0100
0001
0100
,
0010
1000
0010
1000
,
0010
0001
0100
0010
,
2100
0000
3001
0000
,
1000
0010
0100
0001
,
0012
0000
1003
0000
,
0100
0001
1000
0010
,
0200
0000
0301
1000
,
0020
0000
0000
0000
,
0000
0130
0010
0100
0010
0000
0000
0002
,
0000
0000
0000
0000
,
0000
0103
0010
0100
0010
0000
0000
2000
,
0000
0000
3002
0000
,
0000
0000
0000
0000
,
0000
0000
0000
0000
0000
0000
0000
0000
0000
0000
0000
0000
0000
0000
0000
0013
,
0000
0000
0000
0000
0000
0200
0000
0000
0000
0000
0000
0000
0000
0000
0000
0000
,
0000
0000
0000
0000
,
0000
0000
0000
0000
,
0000
0000
0000
0300
,
0000
0000
0000
0000
0000
0000
0000
0000
0000
0110
0000
0000
0000
0000
0000
0000
,
0000
0000
0000
0000
0000
0000
0000
1000
0000
0001
0000
0000
0000
0000
0000
0000
;

//---------------dance-single - ----------------
#NOTES:
     dance-single:
     :
     Easy:
     8:
     0.392527,0.413896,0.172161,0.254798,0.003443,337.000000,25.000000,37.000000,0.000000,0.000000,0.000000,0.392527,0.413896,0.172161,0.254798,0.003443,337.000000,25.000000,37.000000,0.000000,0.000000,0.000000:
0000
0000
0000
0000
,
0000
0000
0000
0000
,
0000
0000
0000
0000
,
0000
0000
0000
0000
,
0000
0000
0000
0000
,
1000
0000
0110
0000
,
0001
0000
0000
0100
0000
0000
1000
0000
,
0010
0100
0001
0010
,
2000
0000
0000
0000
,
3010
0100
0001
0010
,
2000
0000
0000
0000
,
3010
0100
0001
1000
,
0002
0000
0000
0000
,
1003
0010
0100
0001
,
0020
0000
0230
0000
,
2300
0000
0000
0000
,
3001
0000
1001
0000
,
0001
1000
0010
1000
,
2100
0000
3100
0000
,
0001
1000
0010
0100
,
0102
0000
0103
0000
,
0001
0010
1000
0100
,
0010
0000
1000
0000
,
0002
0000
0000
0000
,
0000
1003
1000
0000
,
0010
1000
0100
0001
,
0100
0000
1100
0000
,
0010
1000
0010
0100
,
0001
0000
0011
0000
,
0001
0100
0010
1000
,
0100
0000
1100
0000
,
1100
0100
0101
0001
,
0010
0100
1000
0000
,
1100
0001
0100
0010
,
1000
0000
0010
0000
,
0011
0010
1000
0010
,
0100
0000
0101
0000
,
0001
1000
0010
0100
,
1000
0000
1100
0000
,
2000
3001
0100
0010
,
0002
0000
1003
0000
,
0010
1000
0100
0010
,
0001
0000
0001
0000
,
0001
0100
0010
1000
,
0100
0000
0100
0000
,
1000
0010
0100
0001
,
1000
0000
1000
0000
,
0010
1000
0001
0100
,
0010
0000
0010
0000
,
0101
0100
1000
0100
,
0010
0000
0010
0000
,
0101
0100
1000
0100
,
0010
0000
0010
0100
,
0002
0000
0100
0000
,
0100
0000
0103
1000
,
0020
0000
0000
0000
,
0000
0000
0030
0000
,
0001
1000
0010
1000
,
0100
0000
1100
0000
,
0010
1000
0001
0100
,
0010
0000
0011
0000
,
0001
0100
1000
0100
,
0001
0100
1000
0100
,
0001
0010
1000
0010
,
0001
0010
2000
0000
,
3010
0100
0001
0100
,
2000
0000
3001
0000
,
0010
1000
0001
0100
,
0002
0000
1003
0000
,
0010
1000
0100
0001
,
0020
0000
0130
0000
,
2000
0000
0000
0000
,
0001
3000
0001
0000
0001
0000
0000
0000
,
0100
0001
0010
0100
,
1000
0000
1000
0000
,
1000
0010
0100
0001
,
0010
0000
0010
0000
,
0001
0100
0010
1000
,
0001
0000
0001
0000
,
0100
0001
1000
0010
,
0100
0000
0100
0000
,
1010
0010
0001
0010
,
0100
0000
0100
0000
,
1010
0010
0001
0010
,
0100
0000
0100
0010
,
2000
0000
0010
0000
,
0010
0000
3010
0001
,
0200
0000
0000
0000
,
0000
0000
0300
0000
,
1000
0001
0100
0001
,
0010
0000
0011
0000
,
0100
0001
1000
0010
,
0100
0000
1100
0000
,
1000
0010
0001
0010
,
1000
0010
0001
0010
,
1000
0100
0001
0100
,
1000
0100
0002
0000
,
0103
0010
1000
0010
,
0002
0000
1003
0000
,
0100
0001
1000
0010
,
2000
0000
3001
0000
,
0100
0001
0010
1000
,
0200
0000
0310
0000
,
0001
0000
0001
0000
,
1000
0100
1000
0100
,
1000
0000
1000
0000
,
0001
0100
0001
0100
,
0100
0010
1000
0100
,
0002
0000
0000
0000
,
0103
0010
1000
0001
,
2000
0000
0000
0000
,
3001
0100
0010
1000
,
0200
0000
0320
0000
,
0032
0000
0000
0000
,
1003
0000
1001
0000
,
1000
0001
0100
0001
,
0012
0000
0013
0000
,
1000
0001
0100
0010
,
2010
0000
3010
0000
,
1000
0100
0001
0010
,
0100
0000
0001
0000
,
2000
0000
0000
0000
,
0000
0000
3001
0000
0001
0000
0000
2000
,
0000
0000
0000
0000
,
0000
0000
0000
3000
0001
0000
0000
0000
0001
0000
0000
0000
0000
0000
0020
0000
,
0000
0000
0230
0000
,
0000
0000
0000
0000
,
0000
0000
0000
0000
,
0000
0000
0000
0000
,
0000
0000
0000
0000
,
0000
0000
0000
0000
,
0000
0000
0000
0300
,
0000
0000
0000
0000
0000
0000
0000
0000
0000
2002
0000
0000
0000
0000
0000
0000
,
0000
0000
0000
0000
0000
0000
0000
0000
0000
3003
0000
0000
0000
0000
0000
0000
;

//---------------dance-single - ----------------
#NOTES:
     dance-single:
     :
     Beginner:
     5:
     0.174128,0.319509,0.006886,0.130842,0.000000,157.000000,1.000000,19.000000,0.000000,0.000000,0.000000,0.174128,0.319509,0.006886,0.130842,0.000000,157.000000,1.000000,19.000000,0.000000,0.000000,0.000000:
0000
0000
0000
0000
,
0000
0000
0000
0000
,
0000
0000
0000
0000
,
0000
0000
0000
0000
,
0000
0000
0000
0000
,
1000
0000
1000
0000
,
1000
0000
0000
0000
,
0001
0000
0001
0000
,
0001
0000
0000
0000
,
1000
0000
0100
0000
,
0010
0000
0000
0000
,
1000
0000
0100
0000
,
0010
0000
0000
0000
,
0001
0000
0010
0000
,
0100
0000
0000
0000
,
0001
0000
0010
0000
,
0100
0000
0000
0000
,
1000
0000
0100
0000
,
0001
0000
0000
0000
,
1000
0000
0010
0000
,
0001
0000
0000
0000
,
1000
0000
0100
0000
,
0001
0000
0000
0000
,
1000
0000
0000
0000
,
0010
0000
0100
0000
,
0010
0000
0001
0000
,
0010
0000
0000
0000
,
0010
0000
1000
0000
,
0010
0000
0000
0000
,
0100
0000
0001
0000
,
0100
0000
0000
0000
,
0100
0000
1000
0000
,
0100
0000
0000
0000
,
1000
0000
0010
0000
,
0001
0000
0000
0000
,
0001
0000
0100
0000
,
1000
0000
0000
0000
,
1000
0000
0010
0000
,
0001
0000
0000
0000
,
0001
0000
0100
0000
,
1000
0000
1000
0000
,
0200
0000
0000
0000
,
0300
0000
0000
0000
,
0020
0000
0000
0000
,
0030
0000
0000
0000
,
2000
0000
0000
0000
,
3000
0000
0000
0000
,
0002
0000
0000
0000
,
0003
0000
0000
0000
,
1000
0000
0010
0000
,
1000
0000
0000
0000
,
0001
0000
0010
0000
,
0001
0000
0000
0000
,
0200
0000
0000
0000
,
0000
0000
0000
0000
,
0300
0000
0000
0000
,
0000
0000
0000
0000
,
1000
0000
0100
0000
,
0010
0000
0001
0000
,
1000
0000
1000
0000
,
1000
0000
0000
0000
,
0001
0000
0010
0000
,
0100
0000
1000
0000
,
0001
0000
0001
0000
,
0001
0000
0000
0000
,
1000
0000
0100
0000
,
0020
0000
0030
0000
,
0001
0000
0010
0000
,
0200
0000
0300
0000
,
1000
0000
0100
0000
,
0010
0000
0001
0000
,
0002
0000
0000
0000
,
0003
0000
0000
0000
,
0020
0000
0000
0000
,
0030
0000
0000
0000
,
0200
0000
0000
0000
,
0300
0000
0000
0000
,
0002
0000
0000
0000
,
0003
0000
0000
0000
,
2000
0000
0000
0000
,
3000
0000
0000
0000
,
0001
0000
0100
0000
,
0001
0000
0000
0000
,
1000
0000
0100
0000
,
1000
0000
0000
0000
,
0020
0000
0000
0000
,
0000
0000
0000
0000
,
0030
0000
0000
0000
,
0000
0000
0000
0000
,
0001
0000
0010
0000
,
0100
0000
1000
0000
,
0001
0000
0001
0000
,
0001
0000
0000
0000
,
1000
0000
0100
0000
,
0010
0000
0001
0000
,
1000
0000
1000
0000
,
1000
0000
0000
0000
,
0001
0000
0010
0000
,
0200
0000
0300
0000
,
1000
0000
0100
0000
,
0020
0000
0030
0000
,
0001
0000
0010
0000
,
0100
0000
1000
0000
,
2000
0000
0000
0000
,
3000
0000
0000
0000
,
0002
0000
0000
0000
,
0003
0000
0000
0000
,
0001
0000
0010
0000
,
0100
0000
0000
0000
,
0001
0000
0010
0000
,
0100
0000
0000
0000
,
1000
0000
0100
0000
,
0010
0000
0000
0000
,
1000
0000
0100
0000
,
0010
0000
0000
0000
,
0001
0000
0010
0000
,
1000
0000
0000
0000
,
0001
0000
0100
0000
,
1000
0000
0000
0000
,
0001
0000
0010
0000
,
1000
0000
0000
0000
,
0001
0000
0000
0000
,
0100
0000
0010
0000
,
0100
0000
0000
0000
,
1000
0000
0001
0000
,
1000
0000
0220
0000
,
0000
0000
0000
0000
,
0000
0000
0000
0000
,
0000
0000
0000
0000
,
0000
0000
0000
0000
,
0000
0000
0000
0000
,
0000
0000
0000
0000
,
0000
0000
0000
0000
0000
0000
0000
0000
0000
0330
0000
0000
0000
0000
0000
0000
;

//---------------dance-couple - ----------------
#NOTES:
     dance-couple:
     :
     Easy:
     20:
     0.648309,0.735816,0.385640,0.247912,0.113626,567.000000,56.000000,36.000000,0.000000,0.000000,0.000000,0.000000,0.000000,0.000000,0.000000,0.000000,0.000000,0.000000,0.000000,0.000000,0.000000,0.000000:
00000000
00000000
00000000
00000000
,
00000000
00000000
00000000
00000000
,
00000000
00000000
00000000
00000000
,
00000000
00000000
00000000
00000000
,
00000000
00000000
00000000
00000000
,
00010000
01010000
00000000
00000000
10000000
11000000
00000000
00000000
,
01000000
00000000
01000000
00100000
00000000
00000000
01100000
00000000
,
00000000
00000000
00100000
00000000
00010000
00000000
00110000
00000000
01000000
00000000
10000000
00000000
,
22000000
00000000
03000000
30010000
,
11000000
00010000
00100000
01000000
,
00020000
00000000
00130000
00000000
,
00100000
10000000
01000000
01010000
,
00200000
00000000
10300000
00000000
,
00100000
10000000
01000000
11000000
,
00200000
00000000
20300000
00000000
,
30020000
00000000
01000000
00000000
,
01000000
00030000
01100000
00000000
10000000
00000000
10010000
00000000
,
00010000
01000000
01010000
10000000
,
21000000
00000000
31000000
00000000
,
00100000
10100000
01000000
10000000
,
00120000
00000000
00130000
00000000
,
01000000
01100000
00010000
10010000
,
00120000
00000000
20030000
00000000
,
32000000
00000000
00000000
00000000
,
03000000
00100000
01000000
00100000
01000000
00000000
00000000
00000000
,
11000000
00000000
01000000
00000000
00100000
01000000
00010000
00000000
,
00100000
10000000
00100000
10000000
,
00110000
00000000
00010000
00000000
01000000
00010000
00100000
00000000
,
10000000
00100000
10000000
00010000
00100000
00000000
01000000
00000000
,
00100000
00000000
00010000
00000000
00100000
10000000
01000000
00000000
,
00100000
00000000
01000000
00000000
10000000
00010000
00100000
00000000
,
00010000
00100000
01000000
10000000
00100000
10000000
01000000
00100000
,
01000000
00010000
00100000
01000000
10000000
00000000
11000000
00000000
,
00100000
00000000
10000000
00000000
01000000
00010000
00100000
00000000
,
10000000
00000000
00100000
00000000
00010000
00100000
01000000
00000000
,
00100000
00000000
00010000
00000000
01000000
10000000
00100000
00000000
,
10000000
00100000
01000000
00100000
00010000
00000000
01100000
00000000
,
00100000
00000000
00010000
00000000
10000000
01000000
00100000
00000000
,
01000000
00000000
10000000
00000000
00010000
00100000
01000000
00000000
,
00100000
00100000
01000000
01000000
,
10000000
00010000
00100000
01000000
10000000
00000000
11000000
00000000
,
10000000
00000000
00100000
01000000
00000000
00100000
01000000
00000000
,
00010000
00000000
10000000
00010000
00000000
10000000
00010000
00000000
,
00100000
00000000
10000000
01000000
00000000
10000000
01000000
00000000
,
00100000
00000000
01000000
00010000
00000000
01000000
00010000
00000000
,
00100000
00000000
10000000
00010000
00000000
00010000
00100000
00000000
,
10000000
00000000
00010000
00100000
00000000
00100000
01000000
00000000
,
10000000
00000000
00100000
10000000
00000000
10000000
00100000
00010000
,
01000000
00100000
11000000
10000000
,
00010000
10000000
00010000
10000000
00000000
00100000
10000000
00000000
,
00010000
00100000
10000000
01000000
00000000
00100000
01000000
00000000
,
00010000
00100000
01000000
10000000
00000000
00100000
10000000
00000000
,
00100000
10000000
00010000
00000000
01000000
00010000
00100000
00000000
,
02000000
00100000
00100000
00100000
,
10000000
00000000
10000000
00000000
10000000
03000000
00100000
00000000
,
00020000
01000000
00100000
01030000
,
00100000
01000000
10000000
01000000
00220000
00000000
00330000
00000000
,
10000000
01000000
00100000
01000000
00010000
00100000
01000000
10000000
,
00100000
10000000
00100000
01000000
00010000
00000000
01010000
00000000
,
00100000
01000000
10000000
01000000
00100000
00000000
10100000
00000000
,
00010000
00100000
01000000
00100000
00010000
00000000
00110000
00000000
,
00100000
01000000
10000000
00100000
10000000
01000000
00010000
00100000
,
01000000
10000000
00100000
00010000
00100000
10000000
01000000
00000000
,
10000000
00100000
01000000
00010000
00100000
00000000
11000000
00000000
,
00010000
01000000
00100000
10000000
01000000
00000000
01010000
00000000
,
00010000
00000000
00100000
00000000
10000000
00000000
01000000
00000000
00010000
00000000
01000000
00000000
,
10000000
11000000
00100000
10000000
,
00010000
00000000
10000000
00000000
00100000
00000000
10000000
00000000
00010000
00000000
01000000
00000000
,
00100000
00110000
00100000
01000000
,
00100000
00000000
10000000
00000000
00100000
00000000
01000000
00000000
00010000
00000000
00100000
00000000
,
01000000
00100000
10000000
01000000
,
21000000
00000000
01000000
00000000
,
30000000
01000000
00100000
01000000
01010000
00000000
00000000
00000000
,
00010000
00000000
01000000
00100000
00000000
01000000
00100000
00000000
,
10000000
00000000
00010000
10000000
00000000
00010000
10000000
00000000
,
01000000
00000000
00010000
00100000
00000000
00010000
00100000
00000000
,
01000000
00000000
00100000
10000000
00000000
00100000
10000000
00000000
,
01000000
00000000
00010000
10000000
00000000
10000000
01000000
00000000
,
00010000
00000000
10000000
01000000
00000000
01000000
00100000
00000000
,
00010000
00000000
01000000
00010000
00000000
00010000
01000000
10000000
,
00100000
01000000
00110000
00010000
,
10000000
00010000
10000000
00010000
00000000
01000000
00010000
00000000
,
10000000
01000000
00010000
00100000
00000000
01000000
00100000
00000000
,
10000000
01000000
00100000
00010000
00000000
01000000
00010000
00000000
,
01000000
00010000
10000000
00000000
00100000
10000000
01000000
00000000
,
00200000
01000000
01000000
01000000
,
00010000
00000000
00010000
00000000
00010000
00300000
01000000
00000000
,
20000000
00100000
01000000
30100000
,
01000000
00100000
00010000
00100000
22000000
00000000
33000000
00000000
,
00010000
00100000
01000000
00100000
10000000
01000000
00100000
00010000
,
01000000
00010000
01000000
00100000
10000000
00000000
10100000
00000000
,
01000000
00100000
00010000
00100000
01000000
00000000
01010000
00000000
,
10000000
01000000
00100000
01000000
10000000
00000000
11000000
00000000
,
01000000
00100000
00010000
01000000
00010000
00100000
10000000
01000000
,
00100000
00010000
01000000
10000000
01000000
00010000
00100000
00000000
,
00010000
01000000
00100000
10000000
01000000
00000000
00110000
00000000
,
10000000
00100000
01000000
00010000
00100000
00000000
10100000
00000000
,
10000000
00000000
01000000
00000000
00010000
00000000
00100000
00000000
10000000
00000000
00100000
00000000
,
00010000
00110000
01000000
00010000
,
10000000
00000000
00010000
00000000
01000000
00000000
00010000
00000000
10000000
00000000
00100000
00000000
,
01000000
11000000
01000000
00100000
,
01000000
00000000
00010000
00000000
01000000
00000000
00100000
00000000
10000000
00000000
01000000
00000000
,
00100000
01000000
00010000
00100000
,
00110000
00000000
10000000
00100000
10000000
00000000
00010000
01000000
,
00010000
10000000
00100000
01000000
,
00010000
00000000
01000000
00010000
01000000
00000000
10000000
01000000
,
10000000
10000000
00100000
01000000
00010000
00100000
01000000
10000000
,
00110000
10000000
01000000
00100000
,
20000000
00000000
31000000
00000000
,
01000000
00010000
00100000
10100000
,
02000000
00000000
03010000
00000000
,
01000000
00010000
00100000
00110000
,
02000000
00000000
03020000
00000000
,
20030000
00000000
00100000
00000000
,
30100000
01100000
00010000
10010000
,
10000000
00100000
10100000
00010000
,
00120000
00000000
00130000
00000000
,
01000000
01010000
00100000
00010000
,
21000000
00000000
31000000
00000000
,
00100000
01100000
10000000
10010000
,
21000000
00000000
30020000
00000000
,
00230000
00000000
00000000
00000000
,
00300000
01000000
00100000
01000000
00100000
00000000
00000000
00020000
,
00000000
00100000
00000000
00130000
,
00000000
00100000
10000000
00100000
02000000
00000000
00000000
03020000
,
00000000
00000000
20000000
00000000
,
00000000
00000000
00000000
00000000
,
00000000
00000000
00000000
00000000
00000000
00000000
00000000
00000000
00030000
00000000
00000000
00000000
00000000
00000000
00000000
00100000
,
00000000
00000000
00000000
00000000
00000000
02000000
00000000
00000000
00000000
00000000
00000000
00000000
00000000
00000000
00000000
00000000
,
00000000
00000000
00000000
00000000
,
00000000
00000000
00000000
00000000
,
00000000
00000000
00000000
33000000
,
00000000
00000000
00000000
00000000
00000000
00000000
00000000
00000000
00000000
10010000
00000000
00000000
00000000
00000000
00000000
00000000
,
00000000
00000000
00000000
00000000
00000000
00000000
00000000
00100000
10000000
00010000
00000000
00000000
00000000
00000000
00000000
00000000
;
