#TITLE:モノクローム・アンサー;
#SUBTITLE:;
#ARTIST:舞園 さやか(CV:大本 眞基子);
#TITLETRANSLIT:Monochrome Answer;
#SUBTITLETRANSLIT:;
#ARTISTTRANSLIT:Sayaka Maizono (CV\: Makiko Ohmoto);
#GENRE:Anime/Game;
#CREDIT:;
#BANNER:;
#BACKGROUND:;
#LYRICSPATH:;
#CDTITLE:;
#MUSIC:Monochrome Answer.ogg;
#OFFSET:0.053000;
#SAMPLESTART:76.578941;
#SAMPLELENGTH:15.000000;
#SELECTABLE:YES;
#DISPLAYBPM:171.000000;
#BPMS:0.000000=171.000000
,144.000000=172.000000
,148.000000=171.000000
;
#STOPS:
;
#BGCHANGES:;
#KEYSOUNDS:;
#ATTACKS:;

//---------------dance-single - ----------------
#NOTES:
     dance-single:
     :
     Beginner:
     3:
     0.131252,0.194417,0.016406,0.049219,0.000000,104.000000,2.000000,6.000000,0.000000,0.000000,0.000000,0.131252,0.194417,0.016406,0.049219,0.000000,104.000000,2.000000,6.000000,0.000000,0.000000,0.000000:
0000
0000
0000
0000
,
0000
0000
0000
0000
,
0000
0000
0000
0000
,
1000
0000
0000
0000
,
0001
0000
0000
0000
,
1000
0000
0000
0000
,
0001
0000
0000
0000
,
1000
0000
0100
0000
,
1000
0000
0100
0000
,
0010
0000
0001
0000
,
0010
0000
0001
0000
,
1000
0000
0100
0000
,
1000
0000
0000
0000
,
0001
0000
0010
0000
,
0001
0000
0000
0000
,
1000
0000
0100
0000
,
0010
0000
0000
0000
,
0001
0000
0010
0000
,
0100
0000
0000
0000
,
1000
0000
0100
0000
,
0001
0000
0000
0000
,
0001
0000
0100
0000
,
1000
0000
0000
0000
,
0010
0000
0100
0000
,
0010
0000
0000
0000
,
1000
0000
0001
0000
,
1000
0000
0000
0000
,
0100
0000
1000
0000
,
0100
0000
0000
0000
,
0010
0000
0001
0000
,
0010
0000
0000
0000
,
1000
0000
0100
0000
,
0001
0000
0000
0000
,
0001
0000
0010
0000
,
1000
0000
0000
0000
,
2002
0000
0000
0000
,
3003
0000
0000
0000
,
0100
0000
0000
0000
,
0100
0000
0000
0000
,
0010
0000
0000
0000
,
0010
0000
0000
0000
,
1000
0000
0000
0000
,
1000
0000
0000
0000
,
0001
0000
0000
0000
,
0001
0000
0000
0000
,
0100
0000
0100
0000
,
0010
0000
0000
0000
,
0001
0000
0001
0000
,
1000
0000
0000
0000
,
0100
0000
1000
0000
,
0100
0000
0000
0000
,
0010
0000
0001
0000
,
0010
0000
0000
0000
,
0001
0000
0000
0000
,
1000
0000
0000
0000
,
0100
0000
1000
0000
,
0100
0000
0000
0000
,
0010
0000
0100
0000
,
0010
0000
0000
0000
,
0001
0000
0010
0000
,
0001
0000
0000
0000
,
1000
0000
0100
0000
,
1000
0000
0000
0000
,
0010
0000
1000
0000
,
0100
0000
0000
0000
,
0010
0000
0100
0000
,
0001
0000
0000
0000
,
0100
0000
1000
0000
,
0100
0000
1000
0000
,
0001
0000
0010
0000
,
0001
0000
0010
0000
,
0200
0000
0000
0300
,
0020
0000
0000
0030
,
1000
0000
0001
0000
,
1000
0000
0001
0000
,
0220
0000
0000
0000
,
0000
0000
0000
0000
,
0000
0000
0000
0000
,
0000
0000
0000
0000
,
0330
0000
0000
0000
;

//---------------dance-single - ----------------
#NOTES:
     dance-single:
     :
     Easy:
     6:
     0.353911,0.332231,0.237894,0.229691,0.000000,245.000000,29.000000,28.000000,0.000000,0.000000,0.000000,0.353911,0.332231,0.237894,0.229691,0.000000,245.000000,29.000000,28.000000,0.000000,0.000000,0.000000:
0000
0000
0000
0000
,
0000
0000
0000
0000
,
0000
0000
0000
0000
,
1100
0000
0100
0010
,
0110
0000
0010
0001
,
0011
0000
0001
1000
,
1001
0000
1000
0100
,
0010
0100
1000
0100
,
0010
0100
1000
0100
,
0010
0001
0010
0100
,
0010
0001
0010
0100
,
0010
1000
0100
0010
,
0001
0100
0010
1000
,
0100
0100
2200
3300
,
0010
0010
0220
0330
,
0010
1000
0010
0100
,
0001
0100
0010
1000
,
0001
0010
0100
1000
,
2002
0000
3003
0000
,
0001
1000
0100
0010
,
1000
0010
0100
0001
,
0010
0010
0022
0033
,
0010
0010
0220
0330
,
0001
0100
1000
0010
,
0100
0001
1000
0010
,
0100
0100
0010
0010
,
0220
0000
0330
0000
,
1000
0100
1100
0000
,
0010
0100
0110
0000
,
0001
0010
0011
0000
,
1000
0001
1001
0000
,
1000
0100
0001
0100
,
1000
0010
0001
0010
,
1000
0100
0010
0001
,
0100
0010
1000
0001
,
0220
0000
0000
0000
,
0330
0000
0000
1000
,
0002
0000
0103
0000
,
2000
0000
3100
0000
,
0020
0000
0031
0000
,
0020
0000
1030
0000
,
0100
1000
0100
0001
,
0010
1000
0010
0001
,
0100
1000
0010
0001
,
0100
1000
0001
0100
,
1100
0100
0001
0100
,
1000
0010
0001
1000
,
0010
0100
0001
0100
,
1000
0010
0100
0001
,
0100
0100
0010
0010
,
1000
1000
0001
0001
,
1000
0100
0010
0001
,
0100
0010
1000
0001
,
0220
0000
0000
0000
,
0330
0000
0000
1001
,
0110
1000
0100
0001
,
0010
1000
1100
0100
,
0001
0100
0010
1000
,
0100
0010
0101
0001
,
0100
0010
1000
0100
,
0010
0010
0100
0100
,
0001
1000
0001
1001
,
0010
0100
0010
0110
,
1000
0100
0010
0001
,
0100
0010
1000
1001
,
0010
0100
0010
1000
,
0001
0010
0100
1001
,
1000
0100
0001
0100
,
0001
0010
1000
0010
,
1000
0100
0010
0001
,
1000
0010
0100
0001
,
2002
0000
0000
3003
,
0001
0100
0010
1000
,
2200
0000
3300
0010
,
0202
0000
0000
0303
,
0220
0000
0000
0000
,
0000
0000
0000
0000
,
0000
0000
0000
0000
,
0000
0000
0030
0000
,
0300
0000
0000
0000
,
0000
0000
1000
0000
,
0001
0000
0000
0000
;

//---------------dance-single - ----------------
#NOTES:
     dance-single:
     :
     Medium:
     9:
     0.389068,0.398678,0.180471,0.205081,0.000000,285.000000,22.000000,25.000000,0.000000,0.000000,0.000000,0.389068,0.398678,0.180471,0.205081,0.000000,285.000000,22.000000,25.000000,0.000000,0.000000,0.000000:
0000
0000
0000
0000
,
0000
0000
0000
0000
,
0000
0000
0000
0000
,
1100
0000
0000
0000
0000
0000
0100
0010
,
0110
0000
0001
1000
,
1001
0000
0000
0000
0001
0010
0001
0000
,
0011
0000
0100
0010
,
1000
0000
0100
0000
1000
0000
0010
0100
,
0001
0100
0010
0100
,
1000
0001
0100
0000
0010
0000
1000
0000
,
0001
1000
0010
0000
0100
0000
0001
0000
,
1001
0100
1000
0010
,
0100
0001
0100
0000
1000
0100
1000
0000
,
0010
1000
0001
0100
,
0010
1000
2200
3300
,
0010
1000
0010
0100
,
0001
0100
0010
0000
0100
0010
1000
0000
,
0010
0100
0010
1000
,
0010
0001
0022
0033
,
0001
0100
1000
0010
,
0100
0001
1000
0010
,
1000
0100
0010
0000
0100
0010
0001
0000
,
0100
0010
0220
0330
,
0001
0100
0010
1000
,
0001
1000
0100
0001
,
0001
0010
0100
0000
0010
0100
1000
0000
,
0010
1000
2002
3003
,
0001
0100
1000
0000
0100
0000
0101
0000
,
1000
0100
0010
0000
1000
0000
1100
0000
,
1000
0001
0100
0000
0010
0000
0110
0000
,
0001
1000
0010
1010
,
0001
1000
0010
0000
0100
0000
0010
0000
,
0001
0100
0010
0000
1000
0000
0100
0000
,
1000
0001
0100
0010
,
1000
0001
0010
0100
,
2200
0000
0000
0000
,
3300
0000
0000
0000
0000
0001
0100
0000
,
2000
0000
3100
0000
,
0002
0000
0013
0000
,
2000
0000
3010
0000
,
0002
0000
0103
0000
,
1000
0100
0001
0000
,
1000
0010
0001
0000
,
0100
0010
1000
0001
,
0100
0010
0110
0000
,
0001
0001
0100
0010
,
1000
0100
1001
0000
,
1000
1000
0010
0100
,
0001
1000
1001
0000
,
1000
0100
0001
0100
,
1000
0010
0001
0010
,
0001
0100
1000
0100
,
0001
0010
1000
0010
,
0100
0010
0100
0010
,
1000
0000
0001
0000
1000
0000
0001
1000
,
0010
0100
0001
1000
,
0100
1000
2200
3300
,
0001
0100
0010
0000
1000
0000
0001
0000
,
0100
0010
0220
0330
,
0001
0100
1000
0010
,
0100
0100
0010
0010
,
1000
0001
0100
0010
,
1000
0100
0010
0000
0100
0010
0001
0000
,
0100
0010
1000
0001
,
0100
0010
0220
0330
,
0001
1000
0010
1000
,
0100
0010
0022
0033
,
0001
0100
0010
1000
,
1000
0010
0100
0001
,
0100
0010
1000
1000
,
0001
0100
0010
0010
,
1000
0000
0001
0000
0000
0010
0100
0000
,
0001
0000
1000
0000
0000
0001
1000
0000
,
1000
0100
0010
0001
0000
1000
0100
0001
,
0000
0010
0001
0000
0100
0000
0001
0000
,
2002
0000
0000
0000
,
0000
0000
0000
0000
,
0000
0000
0000
0000
,
0000
0000
0003
0000
,
3000
0000
0000
0000
,
0000
0000
0020
0000
,
0130
0000
0000
0000
;

//---------------dance-single - ----------------
#NOTES:
     dance-single:
     :
     Hard:
     11:
     0.547274,0.531570,0.483991,0.032813,0.000000,404.000000,59.000000,4.000000,0.000000,0.000000,0.000000,0.547274,0.531570,0.483991,0.032813,0.000000,404.000000,59.000000,4.000000,0.000000,0.000000,0.000000:
// measure 0
0000
0000
0000
0000
,  // measure 1
0000
0000
0000
0000
,  // measure 2
0000
0000
0000
0000
,  // measure 3
1100
0000
0010
1000
0000
1000
0100
0000
,  // measure 4
0110
0000
0010
0001
0000
0001
0100
0000
,  // measure 5
1001
0000
0001
0100
0000
1000
0100
0000
,  // measure 6
1001
0000
1000
0010
0000
0001
0010
0000
,  // measure 7
0100
0010
1000
0001
0100
0000
1001
0000
,  // measure 8
0001
0100
0010
1000
0100
0000
1100
0000
,  // measure 9
1000
0010
0100
0000
0010
0100
0001
0000
,  // measure 10
0001
0100
1000
0010
0100
0000
0110
0000
,  // measure 11
1000
0000
0100
0000
0001
0100
1000
0000
,  // measure 12
1000
0010
1000
0000
0001
0010
0001
0000
,  // measure 13
1000
0010
0100
0110
,  // measure 14
0001
0100
0010
0110
,  // measure 15
1000
0100
0001
0000
0001
0100
1000
0000
,  // measure 16
0001
1000
0010
0100
0001
0000
1000
0000
,  // measure 17
1000
0010
0100
0000
0010
0100
0001
0000
,  // measure 18
0001
0100
1000
0010
0100
0000
0110
0000
,  // measure 19
0001
0100
0010
1000
0100
0010
0100
0001
,  // measure 20
0010
0100
1000
0000
1100
0000
0101
0000
,  // measure 21
0001
1000
0010
0000
1000
0000
1010
0000
,  // measure 22
0010
0001
0100
0000
0001
0000
0011
0000
,  // measure 23
0001
0100
1000
0000
1000
0100
0001
0000
,  // measure 24
1000
0010
0001
0000
0001
0010
1000
0000
,  // measure 25
1000
0010
0100
0001
1000
0010
0100
0001
,  // measure 26
0100
0110
1100
0101
,  // measure 27
0001
0100
1000
0000
1001
0000
1001
0000
,  // measure 28
1000
0010
0001
0000
1001
0000
1001
0000
,  // measure 29
0100
1000
0010
0000
1100
0000
1100
0000
,  // measure 30
1000
0010
0100
0000
0001
0000
0011
0000
,  // measure 31
0001
0100
1000
0000
0010
0000
0110
0000
,  // measure 32
1000
0010
0100
0000
0001
0000
0101
0000
,  // measure 33
0001
0100
1000
0000
1000
0010
0001
0000
,  // measure 34
1000
0001
0100
0010
1000
0000
1100
0000
,  // measure 35
1000
0100
0000
0100
0001
0000
0001
0100
,  // measure 36
0000
1000
0001
0100
0000
0010
0100
1000
,  // measure 37
0001
1001
1000
1100
,  // measure 38
1000
0000
0010
0100
0002
0000
0000
0003
,  // measure 39
0100
0101
1000
1100
,  // measure 40
1000
0000
0010
0100
0020
0000
0000
0000
,  // measure 41
0130
1001
0100
1100
,  // measure 42
0100
0000
0010
0100
0001
0000
0001
0000
,  // measure 43
1000
0001
0100
0010
,  // measure 44
1000
0010
0100
0001
1000
0000
1001
0000
,  // measure 45
0100
1000
0010
0000
0100
0001
0010
0000
,  // measure 46
0100
0001
1000
0010
0100
0000
0110
0000
,  // measure 47
1000
0001
0100
0000
0001
1000
0010
0000
,  // measure 48
1000
0010
0100
0001
1000
0000
1100
0000
,  // measure 49
1000
0010
0100
0000
0001
0010
0100
0000
,  // measure 50
1000
0001
0010
0000
0001
0010
0100
0000
,  // measure 51
1000
0100
0010
0001
0000
0001
1000
0010
,  // measure 52
0000
0010
1010
0000
0010
1000
0100
0001
,  // measure 53
0010
0101
0100
1100
,  // measure 54
1000
0010
0100
0000
0001
0100
0010
1000
,  // measure 55
0100
1100
1100
0101
,  // measure 56
0001
0010
0100
1000
0010
0000
0011
0000
,  // measure 57
1000
1010
1010
0011
,  // measure 58
0001
1000
0010
0100
0001
0000
0110
0000
,  // measure 59
0001
0100
1000
0000
1000
0010
0001
0000
,  // measure 60
0001
1000
0010
0100
0001
0000
0101
0000
,  // measure 61
0001
0100
0010
0000
1000
0010
0100
0000
,  // measure 62
0001
0010
1000
0010
0100
0000
1010
0000
,  // measure 63
0001
1000
0100
0000
0001
1000
0010
0000
,  // measure 64
1000
0001
0010
0100
1000
0000
1100
0000
,  // measure 65
1000
0010
0100
0000
0001
0010
0100
0000
,  // measure 66
0001
0100
0010
1000
0100
0000
1100
0000
,  // measure 67
1000
0010
0100
0000
0010
1000
0001
0000
,  // measure 68
0001
0100
1000
0000
0010
1000
0100
0000
,  // measure 69
0001
0010
0100
1000
0000
1000
0100
0101
,  // measure 70
0000
0001
0100
0000
1000
0100
0010
0001
,  // measure 71
0000
0001
0100
0000
0010
1000
0100
0010
,  // measure 72
0100
0001
1000
0000
1001
0000
1001
0000
,  // measure 73
0001
0010
1000
1010
0000
0010
0001
0011
,  // measure 74
0000
0001
1001
0000
0001
0010
0100
1000
,  // measure 75
0020
0000
0200
0000
,  // measure 76
0000
0000
0000
0000
,  // measure 77
0000
0000
0000
0000
,  // measure 78
0000
0000
0030
0000
,  // measure 79
0300
0000
0000
0000
,  // measure 80
0000
0000
1100
0000
,  // measure 81
0101
0000
0000
0000
;
