#TITLE:もぐもぐYUMMY!;
#SUBTITLE:;
#ARTIST:猫又おかゆ produced by ピノキオピー;
#TITLETRANSLIT:Mogu mogu YUMMY!;
#SUBTITLETRANSLIT:;
#ARTISTTRANSLIT:Nekomata Okayu produced by PinocchioP;
#GENRE:hololive/holostars;
#CREDIT:;
#BANNER:;
#BACKGROUND:;
#LYRICSPATH:;
#CDTITLE:;
#MUSIC:Mogu mogu YUMMY.ogg;
#OFFSET:1.210000;
#SAMPLESTART:61.345142;
#SAMPLELENGTH:15.000000;
#LASTBEATHINT:0.248894;
#SELECTABLE:YES;
#BPMS:0.000000=140.000000
;
#STOPS:
;
#BGCHANGES:2.500=Mogu mogu YUMMY.avi=1.000=0=0=0=StretchNoLoop====,
99999=-nosongbg-=1.000=0=0=0 // don't automatically add -songbackground-
;
#KEYSOUNDS:;
#ATTACKS:;

//---------------dance-single - ----------------
#NOTES:
     dance-single:
     :
     Hard:
     12:
     0.531500,0.518565,0.271630,0.041156,0.115237,452.000000,419.000000,33.000000,5.000000,0.000000,0.000000,0.531500,0.518565,0.271630,0.041156,0.115237,452.000000,419.000000,33.000000,5.000000,0.000000,0.000000:
// measure 0
0000
0000
0000
0000
,  // measure 1
0000
0000
0000
0000
,  // measure 2
0000
0000
0000
0000
,  // measure 3
0000
0000
0000
0000
,  // measure 4
0000
0000
0000
0000
,  // measure 5
0010
0000
0000
0010
0000
0000
0100
0000
0010
0000
0000
0000
0000
0000
0000
0000
,  // measure 6
0100
0000
0000
0100
0000
0000
0010
0000
0100
0000
0000
0000
0000
0000
0000
0000
,  // measure 7
1000
0000
0000
0100
0000
0000
0001
0000
0010
0000
0000
0100
0000
0000
1000
0000
,  // measure 8
0010
0000
0000
0100
0000
0000
0001
0000
1001
0000
0000
0000
0000
0000
0000
0000
,  // measure 9
0100
0000
0000
1000
0000
0000
0010
0000
1010
0000
0000
0000
0000
0000
0000
0000
,  // measure 10
0010
0000
0000
0001
0000
0000
0100
0000
0101
0000
0000
0000
0000
0000
0000
0000
,  // measure 11
0100
0000
0000
1000
0000
0000
0100
0000
0010
0000
0000
0001
0000
0000
1000
0000
,  // measure 12
0001
0000
0000
1001
0000
0000
1000
0000
1001
0000
0000
0000
0000
0000
0000
0000
,  // measure 13
0100
0000
0000
1000
0000
0000
0100
0000
1000
0000
0000
0000
1001
0000
0000
0000
,  // measure 14
0010
0000
0000
0100
0000
0000
0010
0000
0110
0000
0000
0000
1001
0000
0000
0000
,  // measure 15
0010
0000
0000
0000
0001
0000
0000
0010
0000
0000
0001
0000
0100
0000
0010
0000
,  // measure 16
1000
0000
0000
0001
0000
0000
0010
0000
0100
0000
0000
0000
1001
0000
0000
0000
,  // measure 17
0010
0000
0000
0100
0000
0000
0001
0000
0100
0000
0000
0101
0000
0000
0000
0000
,  // measure 18
0100
0000
0000
1000
0000
0000
0010
0000
1010
0000
0000
0000
1001
0000
0000
0000
,  // measure 19
2100
3001
0012
1003
,  // measure 20
1000
0000
0001
1000
0000
0001
1000
0000
1001
0000
0000
0000
0110
0000
0000
0000
,  // measure 21
1000
0100
0010
0100
1000
0100
0010
0000
,  // measure 22
0001
0100
0010
0100
0001
0100
0010
0000
,  // measure 23
0001
0010
0100
0010
0001
0010
0100
0000
,  // measure 24
1000
0010
0100
0010
1000
0010
0100
0000
,  // measure 25
0001
1000
0001
1000
0010
0100
0010
0100
,  // measure 26
0001
1000
0001
1000
0010
0100
0010
0100
,  // measure 27
0001
0000
0000
1000
0000
0000
0100
0000
0010
0000
0000
0000
0001
0000
0000
0000
,  // measure 28
0010
1000
0100
0010
0001
0000
1001
0000
,  // measure 29
1000
0100
0010
0100
1000
0100
0010
0000
,  // measure 30
0001
0100
0010
0100
0001
0100
0010
0000
,  // measure 31
0001
0010
0100
0010
0001
0010
0100
0000
,  // measure 32
0010
1000
0010
0100
0010
1000
0010
0000
,  // measure 33
1000
0100
0001
0100
1000
0100
0001
0100
,  // measure 34
1000
0010
0001
0010
1000
0010
0001
0010
,  // measure 35
1000
0010
0100
0001
0100
0010
1000
0001
,  // measure 36
2000
0000
0001
0000
0001
0000
3001
0100
,  // measure 37
0100
1000
0100
1000
0100
0010
0100
0010
,  // measure 38
0001
0010
0001
0010
1000
0001
1000
0001
,  // measure 39
1000
0100
0010
0000
0001
0010
0100
0000
,  // measure 40
1000
0010
0100
0001
0100
0010
1000
0000
,  // measure 41
0010
1000
0010
1000
0001
0100
0001
0100
,  // measure 42
1000
0001
1000
0001
0100
0010
0100
0010
,  // measure 43
0100
1000
0100
0010
0001
0010
0100
1000
,  // measure 44
0010
0001
1000
0000
1001
0000
0110
0000
,  // measure 45
1000
0100
1000
0100
0010
0000
0110
0000
,  // measure 46
0001
0010
0001
0010
0100
0000
0110
0000
,  // measure 47
1000
0100
0010
0000
0001
0010
0100
0000
,  // measure 48
1001
1100
0011
1001
,  // measure 49
0100
1000
0100
0010
0001
0000
0011
0000
,  // measure 50
0010
0001
0010
0100
1000
0000
1100
0000
,  // measure 51
1000
0100
0001
0000
0001
0010
1000
0000
,  // measure 52
0010
0100
0010
0110
,  // measure 53
2002
0000
0000
3003
,  // measure 54
1000
0100
0001
0100
1000
0100
0001
0100
,  // measure 55
1000
0010
0001
0010
1000
0010
0001
0010
,  // measure 56
1000
0100
0001
0100
1000
0010
0001
0010
,  // measure 57
1000
0000
0000
1000
0001
0000
0000
0001
1000
0000
0001
0000
1001
0000
0000
0000
,  // measure 58
0001
0010
1000
0010
0001
0010
1000
0010
,  // measure 59
0001
0100
1000
0100
0001
0100
1000
0100
,  // measure 60
0001
0010
1000
0010
0001
0100
1000
0100
,  // measure 61
0001
0000
0000
0001
1000
0000
0000
1000
0001
0000
1000
0000
1001
0000
0000
0000
,  // measure 62
0001
1000
0001
0100
0001
1000
0001
0100
,  // measure 63
1000
0010
1000
0001
1000
0010
1000
0001
,  // measure 64
0100
0010
1000
0001
0100
0010
1000
0001
,  // measure 65
0100
0000
0000
0010
0100
0000
0000
0100
0010
0000
0100
0000
0110
0000
0000
0000
,  // measure 66
0001
1000
0001
1000
0010
0100
0010
0100
,  // measure 67
0001
1000
0001
1000
0010
0100
0010
0100
,  // measure 68
0001
1000
0001
1000
0010
0100
0010
0100
,  // measure 69
0001
0000
0000
0001
1000
0000
0000
1000
0001
0000
1000
0000
0001
0000
1000
0000
,  // measure 70
1001
0000
0000
0000
;

//---------------dance-single - ----------------
#NOTES:
     dance-single:
     :
     Medium:
     9:
     0.435078,0.489756,0.353942,0.049387,0.000000,370.000000,327.000000,43.000000,6.000000,0.000000,0.000000,0.435078,0.489756,0.353942,0.049387,0.000000,370.000000,327.000000,43.000000,6.000000,0.000000,0.000000:
0000
0000
0000
0000
,
0000
0000
0000
0000
,
0000
0000
0000
0000
,
0000
0000
0000
0000
,
0000
0000
0000
0000
,
1001
0100
1001
0010
,
1001
0100
1001
0010
,
1100
0010
0011
0100
,
1100
0010
0011
0100
,
1001
0010
1001
0100
,
1001
0010
1001
0100
,
1100
0010
0011
0100
,
1100
0101
2002
3003
,
0001
0000
0100
0000
1000
0000
0010
0010
,
0010
0100
0001
0010
,
1000
0000
0010
0000
0001
0000
0010
0010
,
0010
0100
0001
1001
,
1000
0100
0001
0010
,
0100
1000
0001
1001
,
0200
0310
0020
0130
,
0001
1000
0001
1000
0001
0000
1001
0000
,
1000
0100
1000
0000
0010
0000
0010
0000
,
0001
0010
0001
0000
0100
0000
0100
0000
,
1000
0100
0010
0000
0001
0010
0100
0000
,
1000
0001
1000
0000
1001
0000
0110
0000
,
1000
0100
1000
0000
0010
0001
0010
0000
,
0001
0010
0001
0000
0100
1000
0100
0000
,
0010
1000
0100
0000
0001
0100
0010
0000
,
1000
0100
0001
0100
1000
0000
1001
0000
,
1000
0100
0010
0100
1000
0000
1010
0000
,
1000
0001
0100
0110
,
0001
0010
0100
0010
0001
0000
1001
0000
,
0100
0010
1000
1001
,
0100
1000
0100
1000
0010
0000
0010
0000
,
0001
0010
0001
0010
0100
0000
0100
0000
,
1000
0100
0001
0000
0001
0010
1000
0000
,
2001
0001
0001
3001
,
0100
1000
0100
1000
0010
0000
0010
0000
,
0001
0010
0001
0010
0100
0000
0100
0000
,
1000
0100
0010
0000
0001
0010
0100
0000
,
1000
0001
1000
0000
0110
0000
1001
0000
,
0001
0010
0001
0010
0100
0000
0100
0000
,
1000
0100
1000
0100
0010
0000
0010
0000
,
0100
0010
0001
0000
1000
0010
0100
0000
,
0001
0100
1000
0010
0001
0000
1001
0000
,
0000
0000
1000
1000
0000
0000
1000
0000
,
0000
0000
0100
0100
0000
0000
0100
0000
,
0000
0000
0010
0010
0000
0000
0010
0000
,
0000
0000
0001
0001
0000
0000
0001
0000
,
0000
0000
0100
0100
0000
0000
1000
0000
,
0000
0000
0100
0100
0000
0000
0001
0000
,
0000
0000
0010
0010
0000
0000
1000
0000
,
0010
0100
0001
1001
,
0200
0010
0010
0310
,
0001
1000
0001
0000
1000
0001
1000
0000
,
0001
1000
0001
0000
1000
0001
1000
0000
,
0001
1000
0001
0000
1000
0001
1000
0000
,
1001
1001
0110
0110
,
0010
0100
0010
0000
0100
0010
0100
0000
,
0010
0100
0010
0000
0100
0010
0100
0000
,
0010
0100
0010
0000
0100
0010
0100
0000
,
0110
0110
1001
1100
,
1000
0100
1000
0000
1000
0100
1000
0000
,
0100
1000
0100
0000
0100
1000
0100
0000
,
0010
0001
0010
0000
0010
0001
0010
0000
,
0001
0010
0001
0000
0001
0010
0001
0000
,
1000
0001
1000
0001
1000
0001
1000
0001
,
1000
0001
1000
0001
1000
0001
1000
0001
,
1000
0001
1000
0001
1000
0001
1000
0001
,
1000
0001
1001
0110
,
1001
0000
0000
0000
;

//---------------dance-single - ----------------
#NOTES:
     dance-single:
     :
     Easy:
     6:
     0.319841,0.460947,0.321017,0.065850,0.000000,272.000000,233.000000,39.000000,8.000000,0.000000,0.000000,0.319841,0.460947,0.321017,0.065850,0.000000,272.000000,233.000000,39.000000,8.000000,0.000000,0.000000:
0000
0000
0000
0000
,
0000
0000
0000
0000
,
0000
0000
0000
0000
,
0000
0000
0000
0000
,
0000
0000
0000
0000
,
1000
0100
1100
0000
,
0100
0010
0110
0000
,
0010
0001
0011
0000
,
0001
1000
1001
0000
,
0100
1000
1010
0000
,
0010
0100
0101
0000
,
0010
0001
0101
0000
,
1001
0110
1001
0000
,
1000
0100
1000
0100
,
0001
0010
0001
0010
,
0100
1000
0010
0001
,
0100
1000
0010
0001
,
0100
0010
0100
0010
,
1000
0001
1000
0001
,
1001
0000
1001
0000
,
0010
0100
0010
0110
,
1000
0100
0010
0010
,
0001
0010
0100
0100
,
1000
0100
0001
0001
,
0001
0010
1000
1000
,
0100
0100
0010
0010
,
1000
1000
0001
0001
,
1000
0100
0010
0001
,
1001
1001
0000
0110
,
1000
0100
0010
0010
,
0001
0010
0100
0100
,
1000
0100
0001
0001
,
0001
0010
1000
1000
,
0100
0100
0010
0010
,
1000
1000
0001
0001
,
0100
1000
0010
0001
,
2002
3003
0001
1000
,
1001
0100
1000
0100
,
1001
0100
0001
0100
,
0010
1000
0100
0010
,
0001
1000
0001
1001
,
0001
0100
1000
0010
,
1000
0010
0001
0100
,
1000
0100
0010
0010
,
0001
0010
0100
0100
,
1000
0100
0000
0100
,
0000
0001
0000
0001
,
0000
0010
0000
0010
,
0000
1000
0000
1000
,
0000
0100
0000
1000
,
0000
0010
0000
0001
,
1000
0001
1000
0001
,
0100
0010
0100
0010
,
0220
0000
0000
0330
,
1000
0100
0010
0010
,
0001
0010
0100
0100
,
1000
0100
0001
0001
,
1001
1001
0220
0330
,
0001
0010
0100
0100
,
1000
0100
0010
0010
,
0001
0010
1000
1000
,
1001
1001
0220
0330
,
1000
0100
1000
0100
,
0010
0001
0010
0001
,
0010
0100
0010
0100
,
0001
1000
0001
1001
,
1000
1001
0001
1001
,
1000
1001
0001
1001
,
1000
1001
0001
1001
,
1001
1100
1001
0011
,
1001
0000
0000
0000
;

//---------------dance-single - ----------------
#NOTES:
     dance-single:
     :
     Beginner:
     3:
     0.149337,0.259283,0.016462,0.016462,0.000000,127.000000,125.000000,2.000000,2.000000,0.000000,0.000000,0.149337,0.259283,0.016462,0.016462,0.000000,127.000000,125.000000,2.000000,2.000000,0.000000,0.000000:
0000
0000
0000
0000
,
0000
0000
0000
0000
,
0000
0000
0000
0000
,
0000
0000
0000
0000
,
0000
0000
0000
0000
,
1000
0000
0100
0000
,
1000
0000
0100
0000
,
0001
0000
0010
0000
,
0001
0000
0010
0000
,
1000
0000
0001
0000
,
1000
0000
0001
0000
,
0100
0000
0010
0000
,
0100
0000
0010
0000
,
1000
0000
0100
0000
,
0010
0000
0010
0000
,
0001
0000
0010
0000
,
0100
0000
0100
0000
,
1000
0000
0100
0000
,
0001
0000
0001
0000
,
0001
0000
0010
0000
,
1000
0000
1000
0000
,
0100
0000
1000
0000
,
0010
0000
0000
0000
,
0010
0000
0001
0000
,
0100
0000
0000
0000
,
1000
1000
0000
0000
,
0001
0001
0000
0000
,
0100
0000
1000
0000
,
0001
0001
0000
0000
,
0100
0000
0010
0000
,
1000
0000
0001
0000
,
0100
0000
0010
0000
,
1000
0000
0001
0000
,
0010
0010
0000
0000
,
0100
0100
0000
0000
,
1000
0000
0001
0000
,
0220
0000
0330
0000
,
1000
0000
0100
0000
,
1000
0000
0010
0000
,
1000
0000
0100
0000
,
1000
0000
0010
0000
,
0001
0000
0100
0000
,
0001
0000
0010
0000
,
0001
0000
0100
0000
,
0001
0000
0010
0000
,
0100
0000
0000
0000
,
0100
0000
0000
0000
,
0010
0000
0000
0000
,
0010
0000
0000
0000
,
1000
0000
0000
0000
,
1000
0000
0000
0000
,
0001
0000
0000
0000
,
0001
0000
0000
0000
,
0000
0000
0000
0000
,
1000
0000
0100
0000
,
1000
0000
0100
0000
,
0001
0000
0010
0000
,
0001
0000
0010
0000
,
1000
0000
0001
0000
,
1000
0000
0001
0000
,
0010
0000
0100
0000
,
0010
0000
0100
0000
,
0100
0000
0100
0000
,
0100
0000
0100
0000
,
0100
0000
0100
0000
,
0100
0000
0100
0000
,
0100
0100
0100
0100
,
0100
0100
0100
0100
,
0100
0100
0100
0100
,
0100
0100
0100
0000
,
1001
0000
0000
0000
;
