#TITLE:Miracle∞Hinacle;
#SUBTITLE:;
#ARTIST:ぼいど (IOSYS) feat.3L;
#TITLETRANSLIT:;
#SUBTITLETRANSLIT:;
#ARTISTTRANSLIT:Void (IOSYS) feat.3L;
#GENRE:Anime/Game;
#CREDIT:;
#BANNER:;
#BACKGROUND:Miracle Hinacle-bg.png;
#LYRICSPATH:;
#CDTITLE:;
#MUSIC:Miracle Hinacle.ogg;
#OFFSET:0.875000;
#SAMPLESTART:38.114902;
#SAMPLELENGTH:15.000000;
#SELECTABLE:YES;
#BPMS:0.000000=160.000000
;
#STOPS:
;
#BGCHANGES:2.000=Miracle Hinacle.avi=1.000=0=0=0=StretchNoLoop====,
99999=-nosongbg-=1.000=0=0=0 // don't automatically add -songbackground-
;
#KEYSOUNDS:;
#ATTACKS:;

//---------------dance-single - ----------------
#NOTES:
     dance-single:
     :
     Beginner:
     2:
     0.113349,0.162296,0.007213,0.000000,0.000000,110.000000,109.000000,1.000000,0.000000,0.000000,0.000000,0.113349,0.162296,0.007213,0.000000,0.000000,110.000000,109.000000,1.000000,0.000000,0.000000,0.000000:
0000
0000
0000
0000
,
0000
0000
0000
0000
,
0000
0000
0000
0000
,
0000
0000
0000
0000
,
0000
0000
0000
0000
,
0000
0000
0000
0000
,
0001
0000
0000
0000
,
0001
0000
0000
0000
,
1000
0000
0000
0000
,
1000
0000
0000
0000
,
0001
0000
0010
0000
,
0001
0000
0000
0000
,
1000
0000
0010
0000
,
1000
0000
0000
0000
,
0001
0000
0100
0000
,
0001
0000
0000
0000
,
1000
0000
0100
0000
,
1000
0000
0000
0000
,
0001
0000
0001
0000
,
1000
0000
0000
0000
,
1000
0000
1000
0000
,
0001
0000
0000
0000
,
0010
0000
0010
0000
,
0100
0000
0000
0000
,
0100
0000
0100
0000
,
0010
0000
0000
0000
,
0001
0000
0000
0000
,
1000
0000
0000
0000
,
0001
0000
0000
0000
,
1000
0000
0000
0000
,
0010
0000
0000
0000
,
0100
0000
0000
0000
,
0010
0000
0000
0000
,
0100
0000
0000
0000
,
1000
0000
0000
0000
,
0100
0000
0000
0000
,
1000
0000
0000
0000
,
0100
0000
0000
0000
,
0001
0000
0000
0000
,
0010
0000
0000
0000
,
0001
0000
0000
0000
,
0010
0000
0000
0000
,
1000
0000
0100
0000
,
1000
0000
0000
0000
,
0001
0000
0010
0000
,
0001
0000
0000
0000
,
1000
0000
0100
0000
,
1000
0000
0000
0000
,
0001
0000
0010
0000
,
0001
0000
0000
0000
,
1000
0000
0100
0000
,
1000
0000
0000
0000
,
0001
0000
0100
0000
,
0001
0000
0000
0000
,
1000
0000
0010
0000
,
1000
0000
0000
0000
,
0001
0000
0010
0000
,
0001
0000
0000
0000
,
1000
0000
1000
0000
,
0001
0000
0000
0000
,
0001
0000
0001
0000
,
1000
0000
0000
0000
,
0100
0000
0100
0000
,
0010
0000
0000
0000
,
0010
0000
0010
0000
,
0100
0000
0000
0000
,
1000
0000
0000
0000
,
0100
0000
0000
0000
,
0010
0000
0000
0000
,
0001
0000
0000
0000
,
1000
0000
0000
0000
,
0010
0000
0000
0000
,
0100
0000
0000
0000
,
0001
0000
0000
0000
,
0001
0000
0000
0000
,
0010
0000
0000
0000
,
0100
0000
0000
0000
,
1000
0000
0000
0000
,
0001
0000
0000
0000
,
0100
0000
0000
0000
,
0010
0000
0000
0000
,
1000
0000
0000
0000
,
0001
0000
0010
0000
,
0001
0000
0000
0000
,
1000
0000
0100
0000
,
1000
0000
0000
0000
,
0001
0000
0010
0000
,
0001
0000
0000
0000
,
1000
0000
0100
0000
,
1000
0000
0000
0000
,
1001
0000
0000
0000
;

//---------------dance-single - ----------------
#NOTES:
     dance-single:
     :
     Easy:
     5:
     0.199907,0.292132,0.079344,0.122623,0.000000,194.000000,183.000000,11.000000,17.000000,0.000000,0.000000,0.199907,0.292132,0.079344,0.122623,0.000000,194.000000,183.000000,11.000000,17.000000,0.000000,0.000000:
0000
0000
0000
0000
,
0000
0000
0000
0000
,
0000
0000
0000
0000
,
0000
0000
0000
0000
,
0000
0000
0000
0000
,
0000
0000
0000
0000
,
0001
0000
0001
0000
,
0100
0000
0100
0000
,
0010
0000
0010
0000
,
1000
0000
1000
0000
,
0100
0000
1000
0000
,
0010
0000
0100
0000
,
0001
0000
0010
0000
,
0001
0000
1001
0000
,
0100
0000
0010
0000
,
1000
0000
0001
0000
,
0100
0000
0001
0000
,
0010
0000
1000
0000
,
0100
0000
0100
0000
,
0010
0000
0010
0000
,
1000
0000
1000
0000
,
0001
0000
0001
0000
,
0100
0000
1000
0000
,
0010
0000
0001
0000
,
0100
0000
0001
0000
,
0010
0000
1001
0000
,
0100
0000
1000
0000
,
0220
0000
0330
0000
,
1000
0000
0010
0000
,
2002
0000
3003
0000
,
0011
0000
0101
0000
,
1010
0000
1100
0000
,
2000
0000
3002
0000
,
0203
0000
0000
0310
,
0001
0000
0100
0000
,
1000
1000
1000
0000
,
0010
0000
0100
0000
,
0001
0001
0001
0000
,
1000
0000
0010
0000
,
0001
0000
0100
0000
,
0010
1000
0010
0000
,
0001
0010
0001
0000
,
0100
0000
1000
0000
,
0010
0000
0100
0000
,
0001
0000
1000
0000
,
0010
0000
0100
0000
,
0001
0000
0010
0000
,
1000
0000
0100
0000
,
0010
0000
1000
0000
,
2002
0000
0000
3003
,
0010
0000
0001
0000
,
0100
0000
0010
0000
,
1000
0000
0100
0000
,
1000
0000
1001
0000
,
0010
0000
0100
0000
,
0001
0000
1000
0000
,
0010
0000
1000
0000
,
0100
0000
0001
0000
,
0010
0000
0010
0000
,
0100
0000
0100
0000
,
0001
0000
0001
0000
,
1000
0000
1000
0000
,
0010
0000
0001
0000
,
0100
0000
1000
0000
,
0010
0000
1000
0000
,
0100
0000
1001
0000
,
0010
0000
1000
0000
,
0100
0100
0100
0000
,
0010
0000
0001
0000
,
0100
0100
0100
0000
,
1000
0000
0100
0000
,
0010
0000
0001
0000
,
0100
0000
0001
0000
,
1000
0000
0010
0000
,
0100
0001
1000
0000
,
0010
1000
0001
0000
,
0100
1000
0001
0000
,
0010
1000
0001
0100
,
0020
0000
0130
0001
,
2000
0000
3001
0010
,
2000
0000
3100
0000
,
0002
0000
0013
0000
,
1000
0100
0010
0000
,
0001
0010
0100
0000
,
1000
0000
0100
0000
,
0001
0000
0010
0000
,
0001
0100
1000
0000
,
0010
1000
0001
0000
,
2000
0000
3020
0000
,
0230
0000
0302
0000
,
1003
0000
0000
0000
;

//---------------dance-single - ----------------
#NOTES:
     dance-single:
     :
     Medium:
     8:
     0.349322,0.454427,0.151476,0.324591,0.000000,339.000000,318.000000,21.000000,45.000000,0.000000,0.000000,0.349322,0.454427,0.151476,0.324591,0.000000,339.000000,318.000000,21.000000,45.000000,0.000000,0.000000:
0000
0000
0000
0000
,
0000
0000
0000
0000
,
0000
0000
0000
0000
,
0000
0000
0000
0000
,
0000
0000
0000
0000
,
0000
0000
0000
0000
,
1000
0010
0100
0100
,
0001
0100
0010
0010
,
1000
0100
0010
0001
,
0200
0010
0020
0330
,
0001
0100
1000
0010
,
1000
0000
0100
0000
0010
0100
0010
0000
,
0001
0100
1000
0010
,
1000
0000
0001
0000
1000
0001
1000
0000
,
0010
1000
0100
0010
,
0001
0000
0100
0000
0001
1000
0001
0000
,
0100
0010
1000
0001
,
0100
0001
0200
0000
,
0301
0010
2000
0000
,
3100
0010
0002
0000
,
0103
1000
0020
0000
,
1030
0100
0002
0000
,
0103
1000
0020
0000
,
1030
0001
0200
0000
,
0310
0001
1000
0010
,
2000
0000
0002
3003
,
0001
0100
1000
0010
,
0210
0010
1000
1300
,
0010
1000
0100
0010
,
0012
0010
0100
0103
,
0001
0100
2000
0000
,
3010
0100
0002
0000
,
1003
0100
0020
0000
,
0130
0001
0200
0000
,
1300
0100
0010
0001
,
0100
0100
0220
0330
,
0001
0100
0010
1000
,
0010
0010
0220
0330
,
1000
0100
0010
0001
,
0100
0010
0100
0000
0001
1000
0001
0000
,
1000
0100
0010
0001
,
0200
0010
0020
0330
,
0001
0100
0010
0010
,
1000
0010
0100
0100
,
0001
0000
0100
0000
1000
0100
1000
0000
,
0010
0000
1000
0000
0001
0010
0001
0000
,
1000
0100
0010
0001
,
0100
0010
1000
0001
,
0010
1000
0100
0001
,
0100
0010
0100
0010
0100
0000
0000
0000
,
1000
0010
0001
0100
,
0001
0000
0010
0000
0100
0010
0100
0000
,
1000
0010
0001
0100
,
0001
0000
1000
0000
0001
1000
0001
0000
,
0100
0001
0010
0100
,
1000
0000
0010
0000
1000
0001
1000
0000
,
0010
0100
0001
1000
,
0010
1000
0020
0000
,
1030
0100
0002
0000
,
0013
0100
2000
0000
,
3010
0001
0200
0000
,
0301
0010
2000
0000
,
3010
0001
0200
0000
,
0301
1000
0020
0000
,
0130
1000
0001
0100
,
0002
0000
2000
3003
,
0002
0000
0103
0010
,
2000
0000
3100
1000
,
0020
0000
0031
0100
,
0002
0000
1003
0100
,
0010
0001
0100
1010
,
1000
0010
0100
0101
,
0010
1000
0100
0010
,
0011
0110
1100
1001
,
0020
1030
0200
0301
,
0020
0100
0001
0130
,
0002
1003
0200
1300
,
2000
0010
0100
3010
,
0002
0100
0013
1001
,
0020
1000
0130
0101
,
0100
1000
0010
0100
,
0001
1000
0020
0130
,
1000
0010
0100
1001
,
1000
0100
0001
0110
,
0001
0100
1000
0010
,
1000
1000
0001
0001
,
1000
0010
0100
0110
,
0001
0100
0010
0110
,
1000
0100
0010
0001
,
0011
0110
1100
1001
,
0110
0000
0000
0000
;

//---------------dance-single - ----------------
#NOTES:
     dance-single:
     :
     Hard:
     11:
     0.549229,0.584264,0.230820,0.086558,0.043279,533.000000,501.000000,32.000000,12.000000,0.000000,0.000000,0.549229,0.584264,0.230820,0.086558,0.043279,533.000000,501.000000,32.000000,12.000000,0.000000,0.000000:
// measure 0
0000
0000
0000
0000
,  // measure 1
0000
0000
0000
0000
,  // measure 2
0000
0000
0000
0000
,  // measure 3
0000
0000
0000
0000
,  // measure 4
0000
0000
0000
0000
,  // measure 5
0000
0000
0000
0000
,  // measure 6
1001
0000
0001
0100
1000
0010
0100
0000
,  // measure 7
1001
0000
1000
0010
0100
0001
0100
0000
,  // measure 8
0020
1000
0100
0031
,  // measure 9
0200
0001
0010
1300
,  // measure 10
0010
1000
0100
0000
0001
0100
0010
0000
,  // measure 11
1000
0100
0010
1001
,  // measure 12
0001
0100
0010
0000
1000
0010
0100
0000
,  // measure 13
0001
0100
1000
0010
0100
0000
1001
0000
,  // measure 14
1000
0100
0010
0000
0001
0010
0100
0000
,  // measure 15
1000
0010
0100
0011
,  // measure 16
0001
0100
0010
0000
1000
0010
0100
0000
,  // measure 17
0001
0010
0100
0010
1000
0000
1100
0000
,  // measure 18
1000
0010
0100
0001
0010
0000
0101
0000
,  // measure 19
0001
0100
0010
1000
0100
0000
1100
0000
,  // measure 20
1000
0010
0100
0001
1000
0000
1001
0000
,  // measure 21
0010
1000
0100
0001
0010
0000
0110
0000
,  // measure 22
0001
0010
0100
1000
0010
0100
0001
0000
,  // measure 23
1000
0010
0100
0001
0010
0100
1000
0000
,  // measure 24
1000
0100
0010
0100
0001
0010
0100
1000
,  // measure 25
0002
1000
0100
0013
,  // measure 26
0001
0000
0000
0000
0100
0000
0010
0000
1000
0000
0000
0001
0000
0000
1000
0000
,  // measure 27
0010
0000
1001
0000
1000
0010
0100
0001
,  // measure 28
1000
0000
0000
0000
0010
0000
1000
0000
0001
0000
0000
0100
0000
0000
0110
0000
,  // measure 29
0001
0000
1000
0010
1000
0001
0100
0010
,  // measure 30
2000
0010
0100
3001
,  // measure 31
0020
0100
0001
0130
,  // measure 32
0001
0100
1000
0000
1000
0010
0001
0000
,  // measure 33
1000
0010
0100
0001
0010
0100
1000
0000
,  // measure 34
0010
0000
0000
0000
1000
0000
0010
0000
0100
0000
0000
0001
0000
0000
0100
0000
,  // measure 35
0010
0000
1001
0000
1000
0010
0100
0001
,  // measure 36
0010
0000
0000
0000
1000
0000
0001
0000
0100
0000
0000
0010
0000
0000
0110
0000
,  // measure 37
0001
0000
0100
0010
1000
0001
0010
0100
,  // measure 38
2000
0100
0010
3001
,  // measure 39
0002
0010
0100
1003
,  // measure 40
0100
0010
1000
0010
0100
0001
0010
0000
,  // measure 41
0001
0100
0010
0100
0001
0010
0100
0000
,  // measure 42
1000
0000
0000
0000
1000
0000
0100
0000
0010
0000
0000
0001
0000
0000
0001
0000
,  // measure 43
0000
0010
0100
1000
0010
0100
0001
0000
,  // measure 44
0200
0010
1000
0310
,  // measure 45
0010
1000
0100
0010
0100
0001
0010
0000
,  // measure 46
1000
0000
0000
0000
0010
0000
1000
0000
0001
0000
0000
0100
0000
0000
1000
0000
,  // measure 47
0000
0010
1000
0100
0010
0001
0100
0000
,  // measure 48
0020
0100
0001
0130
,  // measure 49
0001
1000
0100
0010
0100
0001
1000
0000
,  // measure 50
0100
0001
0010
0000
1000
0010
0100
0000
,  // measure 51
0001
0010
0100
1001
,  // measure 52
1000
0010
0100
0000
0001
0100
0010
0000
,  // measure 53
1000
0010
0001
0100
0010
0000
1001
0000
,  // measure 54
0001
0010
0100
0000
1000
0100
0010
0000
,  // measure 55
0001
0100
0010
1100
,  // measure 56
1000
0010
0100
0000
0001
0100
0010
0000
,  // measure 57
1000
0100
0010
0100
0001
0000
0011
0000
,  // measure 58
0001
0100
0010
1000
0100
0000
1010
0000
,  // measure 59
1000
0010
0100
0001
0010
0000
0011
0000
,  // measure 60
0001
0100
0010
1000
0001
0000
1001
0000
,  // measure 61
0100
0001
0010
1000
0100
0000
0110
0000
,  // measure 62
1000
0100
0010
0001
0100
0010
1000
0000
,  // measure 63
0001
0100
0010
1000
0100
0010
0001
0000
,  // measure 64
0001
0010
0100
0010
1000
0100
0010
0001
,  // measure 65
2000
0001
0010
3100
,  // measure 66
1000
0000
0000
0000
0010
0000
0100
0000
0001
0000
0000
1000
0000
0000
0001
0000
,  // measure 67
0100
0000
1001
0000
0001
0100
0010
1000
,  // measure 68
0001
0000
0000
0000
0100
0000
0001
0000
1000
0000
0000
0010
0000
0000
0110
0000
,  // measure 69
1000
0000
0001
0100
0001
1000
0010
0100
,  // measure 70
0002
0100
0010
1003
,  // measure 71
0200
0010
1000
0310
,  // measure 72
1000
0010
0001
0000
0001
0100
1000
0000
,  // measure 73
0001
0100
0010
1000
0100
0010
0001
0000
,  // measure 74
0001
0000
0100
0000
0010
0000
1000
0000
0100
0000
0000
0010
0000
0000
0010
0000
,  // measure 75
0100
0001
0010
1000
0100
0010
1001
0000
,  // measure 76
0001
0000
0100
0000
0010
0000
1000
0000
0100
0000
0000
0100
0000
0000
0001
0000
,  // measure 77
0010
0100
1000
0010
0100
0001
1001
0000
,  // measure 78
0010
1000
0100
0010
0001
0010
0011
0000
,  // measure 79
0001
0100
0010
0100
1000
0100
1100
0000
,  // measure 80
1000
0100
0010
0000
0100
0001
0010
0100
,  // measure 81
1000
0010
0100
0001
1000
0000
1001
0000
,  // measure 82
0001
0000
0000
0000
1000
0000
0010
0000
0100
0000
0000
0010
0000
0000
1001
0000
,  // measure 83
0000
1000
0010
1000
0100
0001
0010
0000
,  // measure 84
0001
0100
1000
0000
1000
0010
0001
0000
,  // measure 85
1000
0010
0100
0001
0010
0100
1000
0000
,  // measure 86
0010
0000
1000
0000
0100
0000
0001
0000
0010
0000
0000
0100
0000
0000
0110
0000
,  // measure 87
0000
0001
1000
0010
0100
0001
0010
0000
,  // measure 88
0100
0001
0010
1000
0100
0010
0001
0100
,  // measure 89
0000
0001
0100
0010
1000
0100
0001
0000
,  // measure 90
0011
0000
0000
0000
;
