#TITLE:Miracle∞Hinacle (NJK Special! DJ Command Mix);
#SUBTITLE:;
#ARTIST:Remixed by DJ Command;
#TITLETRANSLIT:;
#SUBTITLETRANSLIT:;
#ARTISTTRANSLIT:;
#GENRE:TOUHOU Project;
#CREDIT:;
#BANNER:;
#BACKGROUND:;
#LYRICSPATH:;
#CDTITLE:;
#MUSIC:Miracle Hinacle (NJK Special! DJ Command Mix).ogg;
#OFFSET:0.379998;
#SAMPLESTART:38.073963;
#SAMPLELENGTH:15.000000;
#SELECTABLE:YES;
#BPMS:0.000000=162.000000
;
#STOPS:
;
#BGCHANGES:;
#KEYSOUNDS:;
#ATTACKS:;

//---------------dance-single - ----------------
#NOTES:
     dance-single:
     :
     Beginner:
     2:
     0.096487,0.165220,0.007262,0.014525,0.000000,93.000000,92.000000,1.000000,2.000000,0.000000,0.000000,0.096487,0.165220,0.007262,0.014525,0.000000,93.000000,92.000000,1.000000,2.000000,0.000000,0.000000:
0000
0000
0000
0000
,
0000
0000
0000
0000
,
0000
0000
0000
0000
,
0000
0000
0000
0000
,
0000
0000
0000
0000
,
0000
0000
0000
0000
,
0001
0000
0001
0000
,
1000
0000
1000
0000
,
0001
0000
0001
0000
,
1000
0000
1000
0000
,
0100
0000
0000
0000
,
1000
0000
0000
0000
,
0010
0000
0000
0000
,
0001
0001
0001
0000
,
0001
0000
0000
0000
,
0010
0000
0000
0000
,
1000
0000
0000
0000
,
0100
0000
0100
0000
,
1000
0000
0000
0000
,
0001
0000
0000
0000
,
1000
0000
0000
0000
,
0001
0000
0000
0000
,
0100
0000
0000
0000
,
0010
0000
0000
0000
,
0100
0000
0000
0000
,
0010
0000
0000
0000
,
0001
0000
1000
0000
,
0001
0000
0000
0000
,
1000
0000
0001
0000
,
1000
0000
0000
0000
,
0001
0000
0000
0000
,
0010
0000
0000
0000
,
1000
0000
0000
0000
,
0100
0000
0000
0000
,
0010
0000
0100
0000
,
0010
0000
0000
0000
,
0100
0000
0010
0000
,
0100
0000
0000
0000
,
0100
0000
0000
0000
,
1000
0000
0000
0000
,
0001
0000
0000
0000
,
0010
0000
0000
0000
,
0100
0000
0000
0000
,
0010
0000
0000
0000
,
0100
0000
0000
0000
,
0000
0000
0000
0000
,
1000
0000
0000
0000
,
0001
0000
0000
0000
,
1000
0000
0000
0000
,
0000
0000
0000
0000
,
0001
0000
0000
0000
,
1000
0000
0000
0000
,
0001
0000
0000
0000
,
0000
0000
0000
0000
,
0100
0000
0000
0000
,
0010
0000
0000
0000
,
0100
0000
0000
0000
,
0000
0000
0000
0000
,
1000
0000
0000
0000
,
0100
0000
0000
0000
,
1000
0000
0000
0000
,
0010
0000
0000
0000
,
0001
0000
0000
0000
,
0100
0000
0000
0000
,
0001
0000
0000
0000
,
0010
0000
0000
0000
,
0001
0000
0000
0000
,
1000
0000
0000
0000
,
0001
0000
0000
0000
,
1000
0000
0000
0000
,
0010
0000
0000
0000
,
0100
0000
0000
0000
,
0010
0000
0000
0000
,
0100
0000
0000
0000
,
0010
0000
0000
0000
,
1000
0000
0000
0000
,
0100
0000
0000
0000
,
0001
0000
0000
0000
,
1000
0000
0000
0000
,
0001
0000
0000
0000
,
0100
0000
0000
0000
,
0010
0000
0000
0000
,
1000
0000
0000
0000
,
0001
0000
0000
0000
,
1000
0000
0000
0000
,
0001
0000
0000
0000
,
0100
0000
0000
0000
,
0010
0000
0000
0000
,
0100
0000
0000
0000
,
0010
0000
0000
0000
,
2002
0000
0000
0000
,
3003
0000
0000
0000
;

//---------------dance-single - ----------------
#NOTES:
     dance-single:
     :
     Easy:
     6:
     0.302947,0.396529,0.101674,0.334072,0.000000,292.000000,278.000000,14.000000,46.000000,0.000000,0.000000,0.302947,0.396529,0.101674,0.334072,0.000000,292.000000,278.000000,14.000000,46.000000,0.000000,0.000000:
0000
0000
0000
0000
,
0000
0000
0000
0000
,
0000
0000
0000
0000
,
0000
0000
0000
0000
,
0000
0000
0000
0000
,
0000
0000
0000
0000
,
1000
0100
1000
1000
,
0001
0100
0001
0001
,
1000
0010
1000
1000
,
0001
0010
0001
0001
,
1000
0100
0020
0000
,
0031
0010
0100
1000
,
0001
0010
0200
0300
,
1000
0100
0010
0001
,
1000
0001
2000
3000
,
0001
0010
0100
1000
,
0001
1000
0002
0003
,
1000
0010
0100
0001
,
0200
0000
1300
0100
,
0010
0010
0020
0030
,
0002
0000
0103
0010
,
1000
1000
2000
3000
,
0100
1000
0020
0030
,
0010
0001
0200
0300
,
1000
0100
0010
0001
,
1000
1000
2002
3003
,
0001
0100
1000
0010
,
0001
0001
2002
3003
,
0010
1000
0100
0001
,
1000
1000
2002
3003
,
0100
1000
0020
0030
,
0100
0001
0020
0030
,
0100
1000
0001
0010
,
1000
0100
0001
0010
,
0100
1000
0001
0010
,
1000
1000
2000
3000
,
1000
0100
0001
0010
,
1000
1000
2000
3000
,
0100
1000
0020
0030
,
0100
0001
0020
0030
,
0001
0100
1000
0010
,
0001
0001
2002
3003
,
0200
0000
1000
0000
,
0010
0000
1000
0000
,
0320
0000
0001
0000
,
0100
0000
0001
0000
,
2030
0000
0001
0000
,
0100
0000
0010
0000
,
3020
0000
0001
0000
,
0100
0000
1030
0000
,
0001
1000
0001
0001
,
1000
0001
1000
1000
,
0010
0100
0010
0010
,
0100
0010
0100
0100
,
1000
0100
0010
0010
,
0001
0010
0100
0100
,
1000
0100
0001
0001
,
0001
0000
1000
0000
,
0010
1000
0010
1000
,
0100
0001
0100
0001
,
1000
0010
0100
1001
,
0001
0100
0010
1001
,
0100
1000
0010
0010
,
0100
0001
0010
0010
,
1000
0100
0001
0010
,
0100
0100
0220
0330
,
2000
0000
0100
0000
,
0020
0000
3030
0000
,
0002
0000
0100
0000
,
0020
0000
0033
0000
,
0200
0000
1000
0000
,
0010
0000
1300
0000
,
0020
0000
0001
0000
,
0100
0000
0031
0000
,
1000
0100
0010
0001
,
1000
1000
2002
3003
,
0001
0010
0100
1000
,
0001
0001
2002
3003
,
0100
1000
0010
0010
,
0100
0001
0010
0010
,
0100
1000
0001
0010
,
1000
0100
0001
0010
,
2000
0100
0010
3100
,
0020
0100
0001
0130
,
0002
0100
0010
0103
,
2000
0010
0100
3001
,
0001
0100
0010
1010
,
1000
0010
0100
0101
,
0001
0100
1000
1001
,
1000
0010
0001
1001
,
0220
0000
0000
0000
,
0330
0000
0000
0000
;

//---------------dance-single - ----------------
#NOTES:
     dance-single:
     :
     Medium:
     9:
     0.425371,0.462617,0.159773,0.130724,0.000000,410.000000,388.000000,22.000000,18.000000,0.000000,0.000000,0.425371,0.462617,0.159773,0.130724,0.000000,410.000000,388.000000,22.000000,18.000000,0.000000,0.000000:
0000
0000
0000
0000
,
0000
0000
0000
0000
,
0000
0000
0000
0000
,
0000
0000
0000
0000
,
0000
0000
0000
0000
,
0000
0000
0000
0000
,
1000
0010
0100
0000
0001
0000
1001
0000
,
0001
0100
0010
0000
1000
0000
1001
0000
,
1000
0100
0010
0000
0001
0010
0100
0000
,
1000
0001
1000
0000
0010
0100
0010
0000
,
1000
0100
0010
0001
,
0001
0010
0001
0000
0001
0100
0001
0000
,
0010
0100
0001
1000
,
0001
1000
0001
1000
0002
0000
1003
0000
,
0010
1000
0001
0100
,
1000
0100
1000
0000
1000
0010
1000
0000
,
0001
1000
0010
0100
,
0010
0100
0010
0100
0020
0000
0130
0000
,
0001
0000
1000
0000
0001
1000
0001
0000
,
0100
0000
0010
0000
0100
0010
0100
0000
,
0001
0000
0010
0000
0001
0010
0001
0000
,
1000
0000
0100
0000
1000
0100
1000
0000
,
0001
0000
1000
0000
0001
1000
0001
0000
,
0100
0000
0010
0000
0100
0010
0100
0000
,
0001
0010
0100
1000
,
0001
0001
2002
3003
,
1000
0000
0100
0010
0100
0000
0010
0000
,
0001
1000
0010
1001
,
0010
0000
0001
1000
0001
0000
1000
0000
,
0001
0100
0010
0110
,
1000
0100
1000
0000
0010
0000
0110
0000
,
0001
0010
0001
0000
0100
0000
0110
0000
,
1000
0100
0010
0001
,
1000
0010
0100
0001
,
0001
0100
0001
0000
1000
0000
1100
0000
,
1000
0010
0100
1001
,
1000
0100
1000
0000
0010
0000
0011
0000
,
0001
0100
1000
1001
,
1000
0100
0010
0110
,
0001
0010
0100
0110
,
1000
0100
0001
0010
,
1000
0001
2002
3003
,
0100
1000
0100
0000
0010
0000
0010
0000
,
0001
0010
0001
0000
0100
0000
0200
0000
,
0010
0000
0010
0000
,
1000
0000
1300
0000
,
0001
0010
0001
0000
0100
0000
0100
0000
,
1000
0100
1000
0000
0010
0000
0020
0000
,
0100
0000
0001
0000
,
0100
0000
0031
0000
,
0100
0000
1000
0000
0010
0010
0010
0000
,
0001
0000
0100
0000
0010
0010
0010
0000
,
1000
0100
0001
0010
,
1000
1000
1000
0000
0001
0001
0001
0000
,
1000
0000
0001
0000
0100
0100
0100
0000
,
0001
0000
0010
0000
0100
0100
0100
0000
,
1000
1000
1000
0000
0001
0001
0001
0000
,
2000
0000
0000
3001
,
0010
1000
0100
0001
,
0010
0100
0010
0000
0100
0010
0100
0000
,
0001
1000
0010
0100
,
1000
0001
1000
0000
0001
1000
0001
0000
,
0010
1000
0100
0001
,
0010
0100
0010
0000
0100
0010
0100
0000
,
0001
1000
0001
1000
,
0010
0100
0220
0330
,
0200
1000
0010
1300
,
0020
0100
0001
0130
,
0001
0000
1000
0000
0010
0100
0010
0000
,
1000
0000
0001
0000
0100
0010
0100
0000
,
2000
0010
0100
3001
,
0002
0100
0010
1003
,
0010
1000
0001
0000
1000
0000
1001
0000
,
0001
1000
0010
0000
0100
0000
0110
0000
,
0100
0000
1000
0000
0010
0010
0010
0000
,
0100
0001
1000
1001
,
0001
0000
0100
0000
0010
0010
0010
0000
,
1000
0001
0100
1001
,
0010
1000
0001
0000
0100
0000
1001
0000
,
0100
0001
1000
0000
0010
0000
0110
0000
,
1000
0100
0001
0000
0001
0010
1000
0000
,
1000
0001
1000
0001
2000
0000
3001
0000
,
0010
0100
0010
0100
,
0001
1000
0001
0000
1000
0001
1000
0000
,
0100
0010
0100
0010
,
0001
1000
0001
0000
1000
0001
1000
0000
,
0010
1000
0001
0100
,
0010
0100
0010
0000
0100
0010
0100
0000
,
1000
0001
0100
0010
,
1000
0001
1000
0000
0001
1000
0001
0000
,
2002
0000
0000
0000
,
3003
0000
0000
0000
;

//---------------dance-single - ----------------
#NOTES:
     dance-single:
     :
     Hard:
     12:
     0.522895,0.561749,0.167036,0.108936,0.029050,504.000000,481.000000,23.000000,15.000000,0.000000,0.000000,0.522895,0.561749,0.167036,0.108936,0.029050,504.000000,481.000000,23.000000,15.000000,0.000000,0.000000:
// measure 0
0000
0000
0000
0000
,  // measure 1
0000
0000
0000
0000
,  // measure 2
0000
0000
0000
0000
,  // measure 3
0000
0000
0000
0000
,  // measure 4
0000
0000
0000
0000
,  // measure 5
0000
0000
0000
0000
,  // measure 6
1000
0000
0100
0000
1000
0000
0100
0000
0010
0000
0000
0010
0000
0000
0010
0000
,  // measure 7
0001
0000
0010
0000
0001
0000
0010
0000
0100
0000
0000
0100
0000
0000
0100
0000
,  // measure 8
1000
0000
0100
0000
0010
0100
0010
0000
,  // measure 9
0001
0000
0010
0000
0100
0010
0100
0000
,  // measure 10
1000
0100
0000
0001
0010
0000
1000
0001
,  // measure 11
1000
0001
0001
0000
0010
0000
0100
0000
,  // measure 12
0001
0010
0000
1000
0100
0000
0001
1000
,  // measure 13
0001
1000
1000
0000
0010
0000
0110
0000
,  // measure 14
1000
0100
0000
0001
0010
0000
0001
1000
,  // measure 15
0001
1000
0001
0000
0010
0000
0110
0000
,  // measure 16
1000
0100
0000
0001
0010
0000
1000
0001
,  // measure 17
0000
0001
1000
0001
0000
0001
1001
0000
,  // measure 18
1000
0100
1000
0000
0001
0010
0001
0000
,  // measure 19
1000
0001
1000
0001
0100
0010
0100
0000
,  // measure 20
0001
0010
0001
0000
1000
0100
1000
0000
,  // measure 21
0010
0100
0010
0100
0001
1000
0001
0000
,  // measure 22
1000
0100
0010
0000
0001
0010
0100
0000
,  // measure 23
1000
0001
1000
0001
0100
0010
0100
0000
,  // measure 24
0001
0010
0100
1000
0100
0010
0001
1000
,  // measure 25
0010
0100
0001
1000
1001
0000
0110
0000
,  // measure 26
0001
0000
0000
0000
0100
0000
0010
0000
1000
0000
0000
1000
0000
0000
1000
0000
,  // measure 27
0010
0100
0001
1000
0010
0100
0110
0000
,  // measure 28
0001
0000
0000
0000
0010
0000
0100
0000
0001
0000
0000
0001
0000
0000
0001
0000
,  // measure 29
0010
0100
0001
1000
0010
0100
0110
0000
,  // measure 30
1000
0100
0010
0000
0001
0010
0100
0000
,  // measure 31
1000
0100
0001
0010
1000
0100
0001
0010
,  // measure 32
0100
1000
0001
0000
0001
1000
0010
0000
,  // measure 33
1000
0001
0100
0010
1000
0000
1001
0000
,  // measure 34
1000
0000
0000
0000
1000
0000
0010
0000
0100
0000
0000
0100
0000
0000
0100
0000
,  // measure 35
0001
1000
0010
0100
0001
1000
1001
0000
,  // measure 36
0001
0000
0000
0000
0001
0000
1000
0000
0010
0000
0000
0010
0000
0000
0010
0000
,  // measure 37
1000
0001
0100
0010
1000
0001
1001
0000
,  // measure 38
1000
0100
0010
0000
0001
0010
0100
0000
,  // measure 39
0001
0010
1000
0100
0001
0010
1000
0100
,  // measure 40
0001
0010
1000
0000
1000
0100
0001
0000
,  // measure 41
1000
0001
1000
0001
1000
0000
1001
0000
,  // measure 42
0100
1000
0010
0010
,  // measure 43
0100
0001
0010
0010
,  // measure 44
0200
1000
0010
1300
,  // measure 45
0020
0100
0001
0130
,  // measure 46
1000
0100
0010
0010
,  // measure 47
0001
0010
0100
0100
,  // measure 48
2000
0001
0010
3100
,  // measure 49
0002
1000
0100
0013
,  // measure 50
0010
1000
0010
0010
,  // measure 51
0100
0001
0010
0010
,  // measure 52
2000
0010
0100
3001
,  // measure 53
0002
0100
0010
1003
,  // measure 54
0001
1000
0010
0010
,  // measure 55
0001
1000
0100
0100
,  // measure 56
1000
0100
0010
0001
,  // measure 57
2000
0100
3002
0010
,  // measure 58
1003
0010
1000
0000
0001
1000
0001
0000
,  // measure 59
0001
0010
0001
0010
1000
0100
1000
0000
,  // measure 60
0001
0100
0001
0000
1000
0001
1000
0000
,  // measure 61
1000
0100
1000
0100
0001
0010
0001
0000
,  // measure 62
1000
0100
1000
0000
0001
0010
0001
0000
,  // measure 63
0001
0010
0100
1000
0001
0100
0010
1000
,  // measure 64
1000
0100
1000
0100
0001
0010
0001
0010
,  // measure 65
1000
0010
0100
0001
2000
0000
3010
0000
,  // measure 66
1001
0000
1000
0010
1000
0000
0001
0100
,  // measure 67
0001
0000
1000
0100
0010
0001
1000
0000
,  // measure 68
1001
0000
0001
0010
0001
0000
1000
0100
,  // measure 69
1000
0000
0010
1000
0001
0100
0010
0000
,  // measure 70
1100
1000
1001
0001
,  // measure 71
0101
0100
0110
0010
,  // measure 72
0001
0010
0001
0000
1000
0100
1000
0000
,  // measure 73
0001
1000
0001
1000
0001
0000
1001
0000
,  // measure 74
1100
0000
0000
0000
1000
0000
0100
0000
0010
0000
0000
0010
0000
0000
0010
0000
,  // measure 75
0001
0100
0010
1000
0010
0100
0001
0000
,  // measure 76
0011
0000
0000
0000
0001
0000
0010
0000
0100
0000
0000
0100
0000
0000
0100
0000
,  // measure 77
1000
0010
0100
0001
0100
0010
1000
0000
,  // measure 78
0001
0100
1000
0100
0001
0100
1000
0000
,  // measure 79
0001
0010
1000
0010
0001
0010
1000
0000
,  // measure 80
0001
1000
0001
0000
0100
0010
0100
0000
,  // measure 81
1000
0100
0001
0010
1000
0000
1001
0000
,  // measure 82
2000
0010
0100
3010
,  // measure 83
0001
0010
1000
0000
1000
0100
0001
0000
,  // measure 84
0002
0100
0010
0103
,  // measure 85
1000
0010
0001
0000
0001
0100
1000
0000
,  // measure 86
0020
1000
0001
0130
,  // measure 87
0001
1000
0010
0000
0100
0001
1000
0000
,  // measure 88
0200
0001
1000
0310
,  // measure 89
0001
1000
0010
0100
0001
1000
1001
0000
,  // measure 90
0220
0000
0000
0000
,  // measure 91
0330
0000
0000
0000
;
