#TITLE:Meteor;
#SUBTITLE:;
#ARTIST:Hommarju feat. MAYUMI MORINAGA;
#TITLETRANSLIT:;
#SUBTITLETRANSLIT:;
#ARTISTTRANSLIT:;
#GENRE:Pop;
#CREDIT:;
#BANNER:;
#BACKGROUND:;
#LYRICSPATH:;
#CDTITLE:;
#MUSIC:Meteor.ogg;
#OFFSET:0.070000;
#SAMPLESTART:90.589790;
#SAMPLELENGTH:15.000000;
#SELECTABLE:YES;
#BPMS:0.000000=180.000000
;
#STOPS:
;
#BGCHANGES:;
#KEYSOUNDS:;
#ATTACKS:;

//---------------dance-single - ----------------
#NOTES:
     dance-single:
     :
     Beginner:
     4:
     0.158034,0.213512,0.038680,0.015472,0.000000,143.000000,138.000000,5.000000,2.000000,0.000000,0.000000,0.158034,0.213512,0.038680,0.015472,0.000000,143.000000,138.000000,5.000000,2.000000,0.000000,0.000000:
0000
0000
0000
0000
,
0000
0000
0000
0000
,
0000
0000
0000
0000
,
0000
0000
0000
0000
,
0000
0000
0000
0000
,
0000
0000
0000
0000
,
0000
0000
0000
0000
,
0000
0000
0000
0000
,
0000
0000
0000
0000
,
1000
0000
1000
0000
,
1000
0000
1000
0000
,
0001
0000
0001
0000
,
0001
0000
0001
0000
,
0100
0000
0100
0000
,
0010
0000
0010
0000
,
0200
0000
0000
0300
,
0020
0000
0000
0030
,
1001
0000
0000
0000
,
0000
0000
0000
0000
,
1000
0000
0100
0000
,
1000
0000
0100
0000
,
0010
0000
0010
0000
,
0010
0000
0000
0000
,
0001
0000
0010
0000
,
0001
0000
0010
0000
,
0100
0000
0100
0000
,
0100
0000
0000
0000
,
1000
0000
0100
0000
,
0010
0000
0100
0000
,
1000
0000
0100
0000
,
0010
0000
0000
0000
,
0001
0000
0010
0000
,
0100
0000
0010
0000
,
0001
0000
0010
0000
,
0100
0000
0000
0000
,
1000
0000
0100
0000
,
1000
0000
0010
0000
,
1000
0000
0100
0000
,
0001
0000
0000
0000
,
0001
0000
0100
0000
,
0001
0000
0010
0000
,
0001
0000
0100
0000
,
1000
0000
0000
0000
,
0100
0000
0010
0000
,
0100
0000
1000
0000
,
0100
0000
0010
0000
,
0001
0000
0000
0000
,
0001
0000
0100
0000
,
0010
0000
1000
0000
,
0100
0000
0010
0000
,
0001
0000
1000
0000
,
1001
0000
0000
0000
,
1000
0000
0000
0000
,
0010
0000
0000
0000
,
0100
0000
0000
0000
,
0001
0000
0000
0000
,
0001
0000
0000
0000
,
0100
0000
0000
0000
,
0010
0000
0000
0000
,
1000
0000
0000
0000
,
1000
0000
0000
0000
,
0100
0000
0000
0000
,
0010
0000
0000
0000
,
0001
0000
0000
0000
,
0001
0000
0000
0000
,
0010
0000
0000
0000
,
0100
0000
0000
0000
,
1000
0000
0000
0000
,
1000
0000
0100
0000
,
1000
0000
0100
0000
,
0010
0000
0100
0000
,
0010
0000
0100
0000
,
0010
0000
0001
0000
,
0010
0000
0001
0000
,
1000
0000
0001
0000
,
0100
0000
0110
0000
,
0001
0000
0010
0000
,
0001
0000
0010
0000
,
0100
0000
0010
0000
,
0100
0000
0010
0000
,
0100
0000
1000
0000
,
0100
0000
1000
0000
,
0001
0000
1000
0000
,
0010
0000
0110
0000
,
0001
0000
0100
0000
,
1000
0000
1000
0000
,
1000
0000
0010
0000
,
0001
0000
0001
0000
,
1000
0000
1000
0000
,
0010
0000
0100
0000
,
0001
0000
0001
0000
,
0100
0000
0010
0000
,
1001
0000
0000
0000
;

//---------------dance-single - ----------------
#NOTES:
     dance-single:
     :
     Easy:
     8:
     0.387901,0.533779,0.278493,0.185662,0.007736,351.000000,315.000000,36.000000,24.000000,0.000000,0.000000,0.387901,0.533779,0.278493,0.185662,0.007736,351.000000,315.000000,36.000000,24.000000,0.000000,0.000000:
0000
0000
0000
0000
,
0000
0000
0000
0000
,
0000
0000
0000
0000
,
0000
0000
0000
0000
,
0000
0000
0000
0000
,
0000
0000
0000
0000
,
0000
0000
0000
0000
,
0000
0000
0000
0000
,
0000
0000
0000
0000
,
1000
1000
1000
0100
,
0010
0010
0010
0100
,
0001
0001
0001
0100
,
0010
0010
0010
0100
,
1000
0010
0100
0001
,
0100
0001
1000
0010
,
0100
0010
0100
0000
0001
1000
0001
0000
,
0100
0010
1000
0001
0100
0010
1000
0001
,
0200
0000
0000
0000
,
0000
0000
0310
0110
,
0001
0100
1000
1000
,
0010
1000
0010
0100
,
0001
1000
0100
0100
,
0001
1000
0010
1001
,
1000
0010
0001
0001
,
0100
0001
0100
0010
,
1000
0001
0010
0010
,
1000
0001
0100
1001
,
0001
0100
1000
1001
,
1000
0010
0100
0001
,
1000
0010
0001
1001
,
0001
0100
0010
1000
,
1100
0010
0100
0001
,
0011
0001
0100
0010
,
1000
0010
0100
0001
,
1000
0000
0000
0010
0000
0000
0100
0000
0000
0001
0000
0000
1000
0000
0000
0000
,
1001
0100
1000
0010
,
1000
0010
0100
0001
,
1000
1000
0001
0001
,
0100
0010
0220
0330
,
1001
0010
0001
0100
,
0001
0100
0010
1000
,
0001
0001
1000
1000
,
0010
0100
0220
0330
,
1000
0100
0001
0100
,
1000
0010
0001
0010
,
1000
0100
0001
0100
,
1000
0010
0001
0010
,
1000
0010
0100
0001
,
0100
0010
1000
0001
,
1000
0001
1000
0000
0001
1000
0001
0000
,
1000
0100
0010
0000
0001
0010
0100
0000
,
2000
0000
0001
3001
,
0002
0000
0103
0000
,
2000
0000
3100
0000
,
0002
0000
0013
0000
,
2000
0000
3010
0000
,
0020
0000
0130
0000
,
0002
0000
0103
0000
,
2000
0000
3100
0000
,
0020
0000
0130
0000
,
1000
0100
0010
0110
,
0001
0010
0100
0110
,
1000
0001
0100
0110
,
0001
1000
0010
0110
,
1000
0100
0010
0001
,
1000
0010
0100
0001
,
1000
0001
0100
0010
1000
0001
0100
0010
,
2002
0000
0000
3003
,
0001
0100
1000
0000
0010
0000
0100
0000
,
0001
0100
1000
1100
,
1000
0010
0001
0000
1000
0000
0010
0000
,
0100
0001
0010
0011
,
0001
0100
1000
0000
0010
0000
1000
0000
,
0001
0100
0010
0110
,
2002
0000
0000
3003
,
0220
0000
0000
0330
,
1000
0010
0001
0000
0100
0000
0010
0000
,
1000
0010
0001
0011
,
0001
0100
1000
0000
0001
0000
0100
0000
,
0010
1000
0100
1100
,
1000
0010
0001
0000
0100
0000
0001
0000
,
1000
0010
0100
0110
,
2002
0000
0000
3003
,
0220
0000
0000
0330
,
0001
0100
0010
1010
,
1000
0010
0100
0101
,
0001
0100
1000
1001
,
1000
0010
0001
1001
,
1000
0010
0110
0101
,
0001
0100
0110
1010
,
0010
1000
0001
0100
,
0010
0100
1000
1100
,
0101
0000
0000
0000
;

//---------------dance-single - ----------------
#NOTES:
     dance-single:
     :
     Medium:
     13:
     0.610033,0.676120,0.247550,0.054151,0.100567,552.000000,520.000000,32.000000,7.000000,0.000000,0.000000,0.610033,0.676120,0.247550,0.054151,0.100567,552.000000,520.000000,32.000000,7.000000,0.000000,0.000000:
0000
0000
0000
0000
,
0000
0000
0000
0000
,
0000
0000
0000
0000
,
0000
0000
0000
0000
,
0000
0000
0000
0000
,
0000
0000
0000
0000
,
0000
0000
0000
0000
,
0000
0000
0000
0000
,
0000
0000
0000
0000
,
1100
0100
0100
0100
,
0010
0010
0010
0010
,
1000
1000
1000
1000
,
0001
0001
0001
0001
,
1000
0010
0100
0000
0100
0010
1000
0000
,
0001
0100
0010
0000
0010
0100
0001
0000
,
0100
1000
0010
0100
0001
0010
1000
0100
,
0010
0100
0001
1000
0010
0100
0010
0001
,
2000
0000
0000
0000
,
0001
0001
3001
1001
,
0001
0100
1000
0010
0100
0001
1000
0000
,
1000
0100
0001
0100
0010
1000
0001
0000
,
1000
0010
0100
0000
0001
0100
0010
0000
,
1000
0010
0100
0001
0010
1000
0110
0000
,
1000
0010
0001
0100
0010
1000
0001
0000
,
0001
0010
1000
0010
0100
0001
1000
0000
,
0001
0100
0010
0000
1000
0010
0100
0000
,
0001
0000
0100
0000
0010
0000
1000
0000
0100
0000
0000
0001
0000
0000
0110
0000
,
0001
1000
0100
0001
0100
1000
1100
0000
,
1000
0010
0100
0001
0010
0100
0110
0000
,
0001
0010
0100
1000
0010
1000
0100
0001
,
0010
0011
0110
1100
,
1000
0010
0100
0001
0100
0010
1010
0000
,
1000
0001
0100
0010
1000
0001
1001
0000
,
0001
0100
1000
0100
0001
0010
1000
0010
,
0001
0000
0000
0001
0000
0000
1000
0000
0000
0010
0000
0000
0110
0000
0001
0000
,
1000
0010
0100
0000
0010
0100
0001
0000
,
0001
1000
0010
0000
1000
0010
0001
0000
,
0001
0100
1000
0010
1000
0001
0101
0000
,
0001
0100
0010
1000
0001
1000
1100
0000
,
0001
0100
0010
0000
0100
0010
1000
0000
,
1000
0001
0100
0000
0001
0100
1000
0000
,
1000
0010
0001
0100
0001
1000
1010
0000
,
1000
0010
0100
0001
1000
0001
0011
0000
,
0001
0100
0000
1000
0000
0100
0000
0001
,
0000
0010
0000
1000
0000
0010
0000
0001
,
0000
0100
0000
0010
0000
1000
0000
0001
,
0000
1000
0000
0010
0000
0100
0000
0001
,
0010
1000
0100
0100
1000
0100
0001
0001
,
0100
0001
0010
0010
0100
0001
1000
1000
,
0010
0100
0001
0100
0010
1000
0001
0100
,
0010
0000
0000
1010
0000
0000
0100
0000
0000
0101
0000
0000
0010
0000
1000
0000
,
0200
0000
0000
0310
,
1001
0000
0100
1000
0000
0100
0000
0010
,
0000
0001
0000
0100
0010
1000
0001
0000
,
0010
0000
0001
0100
0000
1000
0000
0010
,
0000
1000
0000
0001
0100
0010
1000
0000
,
0110
0000
0001
1000
0000
0100
0000
0010
,
0000
1000
0000
0001
0100
1000
0010
0000
,
0110
0000
1000
0001
0000
0100
0000
1000
,
0000
0010
0000
0100
0001
1000
1001
0000
,
1000
0100
1000
0000
0100
0001
0100
0000
,
0001
0010
0001
0000
0010
1000
0010
0000
,
1000
0001
0100
0000
0010
1000
0001
0000
,
0001
0010
0100
0000
1000
0100
0010
0000
,
0001
0100
0001
0100
1000
0100
1000
0100
,
0001
0010
0001
0010
1000
0010
1000
0010
,
0100
0000
0010
0000
1000
0000
0001
0000
0100
0000
0010
0000
1000
0001
1000
0001
,
2000
0000
0000
3001
,
0001
0100
1000
0010
0100
0001
1001
0000
,
0001
1000
0010
0100
0001
0100
0110
0000
,
0001
0100
1000
0010
1000
0100
1100
0000
,
1000
0010
0100
0001
0010
0001
0011
0000
,
0001
0100
1000
0010
1000
0001
0100
0010
,
1000
0010
0100
0001
0010
0010
0100
0100
,
0002
1000
0100
0013
,
2000
0001
0010
3100
,
1000
0010
0001
0100
0010
1000
1001
0000
,
1000
0001
0100
0010
1000
0010
0110
0000
,
1000
0010
0001
0100
0001
0010
0011
0000
,
0001
0100
0010
1000
0100
1000
1100
0000
,
1000
0010
0001
0100
0001
1000
0010
0100
,
0001
0100
0010
1000
0100
0100
0010
0010
,
2000
0001
0010
3100
,
0002
1000
0100
0013
,
0001
0000
0100
0000
0010
0000
1000
0010
0000
0010
0000
1000
0001
0000
0100
0000
,
0010
0000
1000
0000
0001
0000
1000
0001
0000
0001
0000
1000
0010
0000
0100
0000
,
0001
0000
0010
0000
0100
0000
0010
0100
0000
0100
0000
0010
1000
0000
0001
0000
,
0100
0000
0010
0000
1000
0000
0001
0000
1000
0000
0000
0001
0000
0000
0100
0000
,
0010
0000
1000
0001
0000
1000
0000
0000
0001
0000
0100
0010
0000
0100
0000
0000
,
0010
0000
0100
0001
0000
0100
0000
0000
0100
0000
0010
1000
0000
0010
0000
0000
,
0001
0010
0100
1000
0010
1000
0100
0010
,
0001
0000
0001
0000
1000
0000
1000
0000
0010
0000
0000
0110
0000
0000
1000
0000
,
1001
0000
0000
0000
;

//---------------dance-single - ----------------
#NOTES:
     dance-single:
     :
     Hard:
     15:
     0.794590,1.174314,0.440948,0.038680,0.437080,719.000000,662.000000,57.000000,5.000000,0.000000,0.000000,0.794590,1.174314,0.440948,0.038680,0.437080,719.000000,662.000000,57.000000,5.000000,0.000000,0.000000:
// measure 0
0000
0000
0000
0000
,  // measure 1
0000
0000
0000
0000
,  // measure 2
0000
0000
0000
0000
,  // measure 3
0000
0000
0000
0000
,  // measure 4
0000
0000
0000
0000
,  // measure 5
0000
0000
0000
0000
,  // measure 6
0000
0000
0000
0000
,  // measure 7
0000
0000
0000
0000
,  // measure 8
0000
0000
0000
0000
,  // measure 9
1001
0100
0100
0100
,  // measure 10
0100
0100
0100
0100
,  // measure 11
1001
0010
0010
0010
,  // measure 12
0010
0010
0010
0010
,  // measure 13
1000
0010
0100
0001
0100
0010
1000
0010
,  // measure 14
0100
0001
0010
0100
1000
0010
0100
0001
,  // measure 15
0100
0001
0100
0001
0100
0001
0100
0001
0010
1000
0010
1000
0010
1000
0010
1000
,  // measure 16
0010
0100
0010
0001
1000
0010
0100
0001
0100
1000
0010
0100
0001
1000
0010
0100
,  // measure 17
0020
0000
0000
0000
,  // measure 18
0130
0000
0000
0000
0001
1000
0010
0100
0001
0000
1000
0001
0010
0000
0110
0000
,  // measure 19
1000
0010
0100
0001
0010
0100
1000
0010
,  // measure 20
0100
0001
0100
0010
1000
1000
0001
0001
,  // measure 21
0100
0010
0110
0000
1000
0001
1001
0000
,  // measure 22
1000
0010
0001
0100
0010
1000
1100
0000
,  // measure 23
0001
0100
0010
1000
0100
0010
0001
0100
,  // measure 24
0010
1000
0010
0100
0001
0001
1000
1000
,  // measure 25
0010
0100
0110
0000
0001
1000
1001
0000
,  // measure 26
0001
0000
0100
0000
1000
0100
0010
0001
0100
0000
0000
0011
0000
0000
0110
0000
,  // measure 27
1100
0100
0010
1000
0100
0001
0101
0000
,  // measure 28
1000
0010
0100
0001
0010
0100
1100
0000
,  // measure 29
1000
0010
0100
0001
1000
0010
1001
0000
,  // measure 30
0010
1000
0100
0010
0001
0100
0110
0000
,  // measure 31
0001
1000
0010
1000
0001
0100
0010
1000
,  // measure 32
0100
0001
0010
0100
1000
0010
1000
0001
,  // measure 33
1000
0001
1000
0001
1000
0000
0010
0000
0100
0010
0100
0010
0100
0000
0001
0000
,  // measure 34
0011
0000
0000
0110
0000
0000
1100
0000
0000
1001
0000
0000
0110
0000
0001
0000
,  // measure 35
1000
0010
1010
0001
0100
0010
0101
0100
,  // measure 36
0001
1000
1100
0100
0010
1000
1001
0100
,  // measure 37
0001
0010
0100
0010
1000
0100
0010
0001
,  // measure 38
0100
0001
0010
0100
1000
0001
1001
0000
,  // measure 39
0001
0100
0101
1000
0010
0100
1010
0010
,  // measure 40
1000
0001
0011
0010
0100
0001
1001
0010
,  // measure 41
1000
0100
0010
0100
0001
0010
0100
1000
,  // measure 42
0010
1000
0100
0010
0001
1000
1001
0000
,  // measure 43
0001
1100
0000
0100
0000
0001
0000
0011
,  // measure 44
0000
0010
0000
1000
0000
0010
0000
1001
,  // measure 45
0000
0100
0000
1000
0000
1010
0000
1010
,  // measure 46
0000
0001
0000
0100
0000
0011
0000
0011
,  // measure 47
0001
0100
0010
1000
0100
0010
0100
0001
,  // measure 48
0010
1000
0010
0100
0001
0010
0100
1000
,  // measure 49
0001
1000
0001
1000
0010
0100
0010
0100
0001
1000
0010
0100
0001
0100
0010
1000
,  // measure 50
0001
0010
0000
0001
0100
0000
1000
0100
0000
1000
0001
0000
0001
0100
0010
1000
,  // measure 51
0002
0000
0000
0000
0000
0000
1003
1000
,  // measure 52
0010
0001
0010
1000
0000
1001
0000
1000
,  // measure 53
0100
0001
0100
1000
0000
1001
0000
0001
,  // measure 54
0100
1000
0100
0001
0000
1001
0000
0001
,  // measure 55
0010
1000
0010
0001
0000
1001
0000
0001
,  // measure 56
1000
0010
0100
0001
0000
1001
0000
0001
,  // measure 57
0100
0010
1000
0001
0000
1001
0000
1000
,  // measure 58
0100
0001
0010
1000
0000
1001
0000
1000
,  // measure 59
0010
0001
0100
1000
0000
1001
0000
1000
,  // measure 60
0100
0000
0010
0000
0001
1000
0000
0001
1000
0000
0100
0000
0010
0100
0000
0010
,  // measure 61
0100
0000
0100
0000
1000
0100
0000
1000
0100
0000
0010
0000
0001
0010
0000
0001
,  // measure 62
0010
0000
0001
0000
1000
0010
0000
0010
1000
0000
1000
0000
0001
0100
0000
0100
,  // measure 63
0001
0000
0100
0000
0010
1000
0000
0001
0100
0000
0000
1001
0000
0000
0010
0000
,  // measure 64
1000
0000
0100
0010
0001
0000
1000
0100
0010
0000
0001
1000
0010
0000
1000
0001
,  // measure 65
0100
0000
0001
0010
0100
0000
0010
0100
1000
0000
0001
0000
0010
0000
0100
0000
,  // measure 66
1000
0100
0010
0001
0100
0010
1000
0100
0010
0001
1000
0100
0010
0100
0001
1000
,  // measure 67
0020
0000
0000
0130
,  // measure 68
1000
0010
0100
0001
0010
0100
0010
1000
,  // measure 69
0100
0010
0001
0100
0001
0001
1000
1000
,  // measure 70
0001
0100
0001
0010
1000
0100
0010
0001
,  // measure 71
1000
0010
0100
0001
0100
0100
0010
0010
,  // measure 72
1000
0001
0100
0001
0010
0100
1000
0010
,  // measure 73
1000
1000
0010
0010
0100
0100
0001
0001
,  // measure 74
0200
0010
0010
0010
0010
0310
0100
1001
,  // measure 75
0100
0000
0010
0000
1000
0010
0100
0001
1000
0000
0000
0110
0000
0000
0011
0000
,  // measure 76
0001
0100
0010
1000
0100
0010
0100
0001
,  // measure 77
0010
0100
1000
0010
1000
1000
0001
0001
,  // measure 78
1000
0010
1000
0100
0001
0010
0100
1000
,  // measure 79
0001
0100
0010
1000
0010
0010
0100
0100
,  // measure 80
0001
1000
0010
1000
0100
0010
0001
0100
,  // measure 81
0001
0001
0100
0100
0010
0010
1000
1000
,  // measure 82
0020
0100
0100
0100
0100
0130
0010
1001
,  // measure 83
0010
0000
0100
0000
0001
0100
0010
1000
0001
0000
0000
0110
0000
0000
1100
0000
,  // measure 84
0010
0100
0010
0000
0100
0000
1000
0001
0000
1000
0000
0010
0100
0000
0001
0000
,  // measure 85
1000
0001
1000
0000
0001
0000
0100
0010
0000
0100
0000
1000
0001
0000
0010
0000
,  // measure 86
0001
1000
0001
0000
1000
0000
0010
0100
0000
0010
0000
0001
1000
0000
0100
0000
,  // measure 87
0001
0000
1000
0000
0010
1000
0001
0100
0010
0000
0000
1001
0000
0000
0110
0000
,  // measure 88
0010
0000
0100
0001
0000
0001
0000
1000
0010
0000
0100
0001
0000
0001
0000
1000
,  // measure 89
0100
0000
0010
1000
0000
1000
0000
0001
0100
0000
0010
1000
0000
1000
0000
0001
,  // measure 90
0010
0100
1000
0000
0001
0010
0100
0000
1000
0100
0010
0000
0100
0010
0001
0000
,  // measure 91
0010
1000
0010
0100
0001
0100
0010
1000
0100
0000
0000
1001
0000
0000
0110
0000
,  // measure 92
1100
0000
0000
0000
;
