#TITLE:Marigold;
#SUBTITLE:;
#ARTIST:Shortcuts;
#TITLETRANSLIT:;
#SUBTITLETRANSLIT:;
#ARTISTTRANSLIT:;
#GENRE:pop'n music;
#CREDIT:;
#BANNER:;
#BACKGROUND:;
#LYRICSPATH:;
#CDTITLE:;
#MUSIC:Marigold.ogg;
#OFFSET:-0.015000;
#SAMPLESTART:36.372940;
#SAMPLELENGTH:15.000000;
#SELECTABLE:YES;
#DISPLAYBPM:165.000000;
#BPMS:0.000000=165.000000
;
#STOPS:
;
#BGCHANGES:;
#KEYSOUNDS:;
#ATTACKS:;

//---------------dance-single - ----------------
#NOTES:
     dance-single:
     :
     Hard:
     11:
     0.505845,0.589886,0.263770,0.135882,0.015986,443.000000,410.000000,33.000000,17.000000,0.000000,0.000000,0.505845,0.589886,0.263770,0.135882,0.015986,443.000000,410.000000,33.000000,17.000000,0.000000,0.000000:
0000
0000
0000
0000
,
0000
0000
0000
0000
,
0000
0000
0000
0000
,
0000
0000
0000
0000
,
0000
0000
0000
0000
,
0000
0000
0000
0000
,
0000
0000
0000
0000
,
0000
0000
0000
0000
,
0000
0000
0000
0000
,
1001
0000
1000
0010
0100
0001
0000
2000
,
0000
0010
0010
3010
,
0001
0100
0010
0000
1000
0010
0100
0000
,
0001
0100
1000
0010
0100
0001
1000
0000
,
0001
0100
0010
0000
1000
0010
0100
0002
,
0000
1000
1000
1003
,
0001
0100
1000
0000
1000
0001
0010
0000
,
1000
0100
0010
0100
0001
0101
0000
1100
,
0000
0000
1000
0010
0100
0001
0000
1001
,
0000
0001
0001
0001
,
1000
0010
0100
0000
0001
0100
0010
0000
,
1000
0010
0100
0001
0010
1000
0000
1100
,
0000
1000
0010
0000
0100
0001
0010
1000
,
0001
0000
0100
0000
0010
0100
0000
0110
,
0000
1000
0001
0000
1000
0001
0000
1001
,
0000
0001
0100
0000
0001
0100
1000
0000
,
1000
1100
0000
0100
0101
0000
0001
0011
,
0000
0010
1010
0000
1000
0001
0000
0001
,
1000
0010
0100
0001
0000
1100
0000
0102
,
0000
0100
0000
0010
0000
0203
0000
0000
,
0301
0101
0000
0100
1100
0000
1000
1010
,
0000
0010
0011
0000
0001
1001
0000
0001
,
0010
2000
0000
0010
0000
0100
0000
0002
,
0000
3003
1100
0011
,
1000
1001
0000
0001
0011
0000
0010
0110
,
0000
0100
1100
0000
1000
1001
0000
0001
,
1000
0100
0010
0200
0000
0010
0000
1000
,
0000
0010
0000
2000
0000
0000
3300
0000
,
0001
0010
0001
0000
0000
0000
1000
0100
1000
0000
0000
0000
1000
0001
1000
0000
,
0000
0000
0010
0100
0010
0000
0000
0000
0010
0000
0100
0000
0010
0000
1000
0000
,
0100
0001
0010
0100
1000
0010
0100
0001
,
2000
0100
0010
3001
,
2000
0100
0010
0100
,
0010
0000
0100
0000
3010
0000
0100
0010
,
0200
0001
1000
0001
,
1000
0000
0001
0000
1300
0000
0001
1000
,
0020
0100
0001
0100
,
0001
0000
0100
0000
0031
0000
0100
0010
,
0002
0010
0100
0010
,
0103
0000
0010
0000
0100
1100
0000
0101
,
0000
0000
1100
0000
0001
1000
0010
0000
,
1000
0010
0001
0000
0001
0100
1000
0010
,
1000
0000
1001
0000
1000
0010
0100
0000
,
0010
0100
0001
0000
0001
0100
0010
1000
,
0100
0000
1100
0000
1000
0010
0100
0000
,
0001
0100
0010
0000
1000
0010
0100
0001
,
0010
0000
0011
0000
0001
0100
0010
1000
,
2002
0000
0000
3003
,
0000
0001
0100
1000
0000
0001
0100
1000
,
0000
0001
0100
1000
0000
0001
0100
1000
,
0000
1000
0010
0001
0000
1000
0010
0001
,
0000
1000
0010
0001
0000
1000
0010
0001
,
0000
1000
0100
0001
0000
1000
0100
0001
,
0000
1000
0100
0001
0000
1000
0100
0001
,
0000
0001
0010
1000
0000
0001
0010
1000
,
0000
0001
0010
1000
0000
0001
0010
1000
,
0000
1000
0010
0100
0000
0010
0100
0001
,
0000
0001
0100
0010
0000
0010
0100
1000
,
0000
1000
0100
0010
0000
0010
0100
0001
,
0000
0001
0100
0010
0000
0010
1000
0100
,
0000
1000
0100
0001
0000
0001
0100
1000
,
0000
1000
0010
0001
0000
0001
0010
1000
,
0000
1000
0010
0100
0000
0001
0100
0010
,
0000
1000
0010
0100
0000
0001
0100
0010
,
1000
0100
0001
0100
1000
0100
0001
0100
,
1000
0010
0001
0010
1000
0010
0001
0010
,
1000
0100
0010
0100
1000
0100
0010
0001
,
0010
0100
0010
0001
0010
0100
0010
0100
,
1000
0100
0010
0100
1000
0100
0010
0001
,
0100
0010
0100
1000
0010
0100
0001
0010
,
0100
0001
0010
0100
0010
0001
0010
0100
,
1000
0010
0100
0001
0010
0100
1000
2002
,
0000
0000
0000
0000
,
3003
0000
0000
0000
;

//---------------dance-single - ----------------
#NOTES:
     dance-single:
     :
     Medium:
     8:
     0.369963,0.426028,0.135882,0.183840,0.000000,324.000000,307.000000,17.000000,23.000000,0.000000,0.000000,0.369963,0.426028,0.135882,0.183840,0.000000,324.000000,307.000000,17.000000,23.000000,0.000000,0.000000:
0000
0000
0000
0000
,
0000
0000
0000
0000
,
0000
0000
0000
0000
,
0000
0000
0000
0000
,
0000
0000
0000
0000
,
0000
0000
0000
0000
,
0000
0000
0000
0000
,
0000
0000
0000
0000
,
0000
0000
0000
0000
,
1000
0000
0010
0100
0001
1000
0000
0020
,
0000
0100
0000
0100
,
0000
0000
1030
0001
0100
0000
0010
0000
,
1000
0001
2002
3003
,
0000
0000
0001
0100
0010
1000
0000
0000
,
0002
0000
1000
0000
,
1003
0000
0010
0100
0001
1000
0000
0010
,
0000
1000
0000
0001
0000
0000
0000
0000
,
0110
0000
1000
0010
0100
0001
0000
2000
,
0000
0010
0000
0010
,
0000
0000
3010
0000
0100
0001
1000
0000
,
0010
0100
0110
1001
,
0020
0000
0000
0000
0100
0000
0130
0001
,
2000
0000
0000
0000
0001
0000
3001
0100
,
0020
0000
0000
0000
0100
0000
0130
0001
,
2000
0000
0010
3010
,
1000
0010
0000
0010
0100
0000
0100
0001
,
0000
0001
1000
0000
1000
0001
0000
0001
,
0100
1000
0000
0010
0000
0100
0000
0220
,
0000
0000
0000
0330
,
1000
0100
0000
0100
0010
0000
0010
0001
,
0000
0001
1000
0000
1000
0001
0000
0001
,
0100
0010
0000
1000
0000
0010
0000
2002
,
0000
0000
0000
3003
,
0001
0100
0000
0100
0010
0000
0010
1000
,
0000
1000
0001
0000
0001
0100
0000
0100
,
1000
0100
0000
0010
0000
0100
0000
0002
,
0000
1000
1000
1003
,
1000
0010
0000
0010
0100
0000
0100
0001
,
0000
0001
1000
0000
1000
0010
0000
0010
,
1000
0100
0000
0001
0000
0100
0000
2000
,
0000
0100
0010
3001
,
1001
0001
0001
0001
,
0100
0100
0100
0100
,
0010
0010
0010
0010
,
1000
0000
1000
0000
1000
0100
1000
0100
,
0100
0010
0100
0010
,
0001
1000
0001
1000
,
1000
0100
0010
0001
,
1000
0000
0010
0000
0100
0001
0000
2000
,
0000
0000
0001
0000
0000
0000
0001
3000
,
0001
0000
0100
0000
0010
1000
0001
0100
,
0020
0100
0000
0100
,
0130
0000
0001
0000
1000
0010
0100
0001
,
2000
0010
0000
3010
,
0001
0000
0100
0000
0010
1000
0001
0100
,
0020
0100
0000
0130
,
2002
0000
0000
3003
,
0000
0001
0100
1000
0000
0001
0100
1000
,
0000
0001
0100
1000
0000
0001
0100
1000
,
0000
0001
0010
1000
0000
0001
0010
1000
,
0000
0001
0010
1000
0000
0001
0010
1000
,
0000
1000
0100
0001
0000
1000
0100
0001
,
0000
1000
0100
0001
0000
1000
0100
0001
,
0000
1000
0010
0001
0000
1000
0010
0001
,
0000
1000
0010
0001
0000
1000
0010
0001
,
0100
0000
0010
0000
0110
0000
0000
1000
,
0001
1000
0001
0000
1001
0000
0000
0000
,
0010
0000
0100
0000
0110
0000
0000
0001
,
1000
0001
1000
0000
1001
0000
0000
0000
,
1000
0000
0100
0000
0110
0000
0000
0001
,
1000
0001
1000
0000
0110
0000
0000
0000
,
0001
0000
0010
0000
1001
0000
0000
0010
,
0100
0010
0100
0000
1001
0000
0000
0000
,
1000
0100
0010
0001
,
1000
0010
0100
0001
,
1000
0100
0010
0001
,
1000
0010
0100
0001
,
0001
0100
0010
1000
,
0001
0010
0100
1000
,
0001
0100
0010
1000
,
0001
0010
0100
2200
,
0000
0000
0000
0000
,
3300
0000
0000
0000
;

//---------------dance-single - ----------------
#NOTES:
     dance-single:
     :
     Easy:
     6:
     0.306019,0.360486,0.047958,0.183840,0.000000,268.000000,262.000000,6.000000,23.000000,0.000000,0.000000,0.306019,0.360486,0.047958,0.183840,0.000000,268.000000,262.000000,6.000000,23.000000,0.000000,0.000000:
0000
0000
0000
0000
,
0000
0000
0000
0000
,
0000
0000
0000
0000
,
0000
0000
0000
0000
,
0000
0000
0000
0000
,
0000
0000
0000
0000
,
0000
0000
0000
0000
,
0000
0000
0000
0000
,
0000
0000
0000
0000
,
1000
0010
0100
0001
,
0100
0010
2000
0000
,
3001
0100
0010
1000
,
0010
0100
0002
0000
,
1003
0100
0010
0001
,
0010
0100
2000
0000
,
3001
0010
0100
1000
,
0100
0000
0010
0000
0002
0000
0000
1003
,
0000
0010
0100
0010
,
1000
0001
1000
0001
,
0001
0010
0100
1000
,
0001
0000
0100
0000
0010
1000
0000
0200
,
0000
0000
1300
0010
,
0100
0000
0001
0000
1000
0010
0000
0200
,
0000
0010
0000
0310
,
0001
1000
2002
3003
,
0001
0001
0000
0010
0010
0000
0100
0100
,
0000
1000
1000
0000
0001
0000
1000
0000
,
0010
0000
0100
0010
0000
1000
0000
2002
,
0000
0000
0000
3003
,
1000
1000
0000
0100
0100
0000
0010
0010
,
0000
0001
0001
0000
1000
0000
0010
0000
,
0100
0000
0001
1000
0000
0010
0000
0220
,
0000
0000
0000
0330
,
0001
0001
0000
0100
0100
0000
0010
0010
,
0000
1000
1000
0000
0001
0000
1000
0000
,
0010
0000
0100
0001
0000
1000
0000
2002
,
0000
0000
0000
3003
,
1000
1000
0000
0010
0010
0000
0100
0100
,
0000
0001
0001
0000
0100
0000
0010
0000
,
1000
0000
0001
0100
0000
1000
0000
2002
,
0000
0000
0000
3003
,
0010
0010
0010
0100
,
0001
0001
0001
1000
,
0100
0100
0100
0010
,
1000
1000
1000
0001
,
1000
0010
0100
0001
,
1000
0010
0100
0001
,
0001
0100
0010
1000
,
0001
0000
0100
0000
0010
1000
0000
0002
,
0000
1000
0000
0103
,
0010
0000
0100
0000
0001
0000
0100
2000
,
0000
0010
0000
3100
,
0001
0000
0100
0000
0010
0000
1000
0002
,
0000
0100
0000
0013
,
0100
0000
0010
0000
1000
0000
0001
0200
,
0000
0010
0000
1000
,
0002
0000
0000
0303
,
0000
0001
0100
1000
,
0000
0001
0100
1000
,
0000
0001
0010
1000
,
0000
0001
0010
1000
,
0000
1000
0100
0001
,
0000
1000
0010
0001
,
0000
1000
0100
0001
,
0000
1000
0010
0001
,
0100
0010
1000
0001
,
0100
0010
1000
0001
,
0100
1000
0100
0001
,
0100
1000
0100
0001
,
0010
0100
0001
1000
,
0010
0100
0001
1000
,
0010
0001
0010
1000
,
0010
0001
0010
1000
,
1000
0010
1000
0100
,
1000
0010
1000
0100
,
0001
0100
0001
0010
,
0001
0100
0001
0010
,
1000
0100
0010
0001
,
1000
0010
0100
0001
,
0001
0010
0100
1000
,
0001
0100
0010
2002
,
0000
0000
0000
0000
,
3003
0000
0000
0000
;

//---------------dance-single - ----------------
#NOTES:
     dance-single:
     :
     Beginner:
     2:
     0.118754,0.160860,0.031972,0.071937,0.000000,104.000000,100.000000,4.000000,9.000000,0.000000,0.000000,0.118754,0.160860,0.031972,0.071937,0.000000,104.000000,100.000000,4.000000,9.000000,0.000000,0.000000:
// measure 0
0000
0000
0000
0000
,  // measure 1
0000
0000
0000
0000
,  // measure 2
0000
0000
0000
0000
,  // measure 3
0000
0000
0000
0000
,  // measure 4
0000
0000
0000
0000
,  // measure 5
0000
0000
0000
0000
,  // measure 6
0000
0000
0000
0000
,  // measure 7
0000
0000
0000
0000
,  // measure 8
0000
0000
0000
0000
,  // measure 9
1000
0000
0100
0000
,  // measure 10
2000
0000
3000
0000
,  // measure 11
0001
0000
0100
0000
,  // measure 12
0002
0000
0003
0000
,  // measure 13
1000
0000
0010
0000
,  // measure 14
2000
0000
3000
0000
,  // measure 15
0001
0000
0010
0000
,  // measure 16
0002
0000
0003
0000
,  // measure 17
0100
0000
1000
0000
,  // measure 18
0200
0000
0300
0000
,  // measure 19
0100
0000
0001
0000
,  // measure 20
0200
0000
0300
0000
,  // measure 21
0010
0000
1000
0000
,  // measure 22
0020
0000
0030
0000
,  // measure 23
0010
0000
0001
0000
,  // measure 24
0020
0000
0030
0000
,  // measure 25
1000
0000
0100
0000
,  // measure 26
0010
0000
0001
0000
,  // measure 27
1000
0000
0000
0000
,  // measure 28
1000
0000
0000
0000
,  // measure 29
0001
0000
0010
0000
,  // measure 30
0100
0000
1000
0000
,  // measure 31
0001
0000
0000
0000
,  // measure 32
0001
0000
0000
0000
,  // measure 33
1000
0000
0010
0000
,  // measure 34
0100
0000
0001
0000
,  // measure 35
1000
0000
0000
0000
,  // measure 36
1000
0000
0000
0000
,  // measure 37
0001
0000
0100
0000
,  // measure 38
0010
0000
1000
0000
,  // measure 39
0001
0000
0000
0000
,  // measure 40
0001
0000
0000
0000
,  // measure 41
1000
0000
0100
0000
,  // measure 42
1000
0000
0000
0000
,  // measure 43
0001
0000
0100
0000
,  // measure 44
0001
0000
0000
0000
,  // measure 45
1000
0000
0010
0000
,  // measure 46
1000
0000
0000
0000
,  // measure 47
0001
0000
0010
0000
,  // measure 48
0001
0000
0000
0000
,  // measure 49
1001
0000
0000
0000
,  // measure 50
0100
0000
0000
0000
,  // measure 51
1001
0000
0000
0000
,  // measure 52
0010
0000
0000
0000
,  // measure 53
1001
0000
0000
0000
,  // measure 54
0100
0000
0000
0000
,  // measure 55
1001
0000
0000
0000
,  // measure 56
0020
0000
0000
0000
,  // measure 57
0030
0000
0000
0000
,  // measure 58
0000
0000
0000
0000
,  // measure 59
0000
0000
0000
0000
,  // measure 60
0000
0000
0000
0000
,  // measure 61
0000
0000
0000
0000
,  // measure 62
0000
0000
0000
0000
,  // measure 63
0000
0000
0000
0000
,  // measure 64
0000
0000
0000
0000
,  // measure 65
1000
0000
0100
0000
,  // measure 66
1000
0000
0100
0000
,  // measure 67
0001
0000
0100
0000
,  // measure 68
0001
0000
0100
0000
,  // measure 69
1000
0000
0100
0000
,  // measure 70
1000
0000
0100
0000
,  // measure 71
0001
0000
0100
0000
,  // measure 72
0001
0000
0100
0000
,  // measure 73
1000
0000
0010
0000
,  // measure 74
1000
0000
0010
0000
,  // measure 75
0001
0000
0010
0000
,  // measure 76
0001
0000
0010
0000
,  // measure 77
1000
0000
0010
0000
,  // measure 78
1000
0000
0010
0000
,  // measure 79
0001
0000
0010
0000
,  // measure 80
0001
0000
0010
0000
;
