#TITLE:メグメル ~Cuckool Mix 2007~;
#SUBTITLE:;
#ARTIST:eufonius;
#TITLETRANSLIT:Mag Mell ~Cuckool Mix 2007~;
#SUBTITLETRANSLIT:;
#ARTISTTRANSLIT:;
#GENRE:Anime/Game;
#CREDIT:;
#BANNER:;
#BACKGROUND:;
#LYRICSPATH:;
#CDTITLE:;
#MUSIC:Mag Mell -Cuckool Mix 2007-.ogg;
#OFFSET:1.557000;
#SAMPLESTART:101.105034;
#SAMPLELENGTH:15.000000;
#LASTBEATHINT:1.264970;
#SELECTABLE:YES;
#DISPLAYBPM:145.000000;
#BPMS:0.000000=145.000000
,164.000000=143.999924
,180.000000=145.000046
;
#STOPS:
;
#BGCHANGES:;
#KEYSOUNDS:;
#ATTACKS:;

//---------------dance-single - ----------------
#NOTES:
     dance-single:
     :
     Hard:
     11:
     0.435348,0.518064,0.167441,0.328185,0.000000,455.000000,430.000000,25.000000,49.000000,0.000000,0.000000,0.435348,0.518064,0.167441,0.328185,0.000000,455.000000,430.000000,25.000000,49.000000,0.000000,0.000000:
0000
0000
0000
0000
,
0000
0000
0000
0000
,
0000
0000
0000
0000
,
0000
0000
0000
0000
,
0000
0000
0000
0000
,
2000
0000
3200
0000
,
0320
0000
0032
0000
,
0203
0000
0320
0000
,
0031
0010
0100
0000
0100
1000
0010
0000
,
1000
0100
0010
0001
,
2001
0010
0200
3300
,
0001
0010
0100
1000
,
1002
0100
0020
0033
,
0001
0100
0010
0000
1000
0000
1001
0000
,
1000
0010
0100
0000
0001
0000
1001
0000
,
0001
0100
1000
0000
0001
0010
1000
0000
,
0010
1000
0001
0000
1000
0100
0001
0000
,
0200
0000
1300
0010
,
0002
0000
0103
0010
,
2000
0000
3001
0010
,
0200
0000
0310
0001
,
2000
3010
0002
0013
,
2000
3100
0002
0103
,
1000
0100
0001
0000
0001
0100
1000
0000
,
0001
0010
1000
0010
0001
0010
1000
0000
,
1000
0010
0100
0001
1000
0000
1001
0000
,
0001
0100
0010
1000
0001
0000
1001
0000
,
1000
0100
0001
0000
1000
0010
0001
0000
,
1000
0100
0001
1000
0010
0001
1000
0000
,
0001
0100
1000
0100
0001
0000
1001
0000
,
0001
0010
1000
0010
0001
0000
1001
0000
,
0001
0010
1000
0000
0001
0100
1000
0000
,
0001
0010
1000
0001
0100
1000
0001
0000
,
1000
0100
0001
0100
1000
0100
0001
0000
,
0001
0010
1000
0010
0001
0010
1000
0000
,
1000
0100
0010
0100
1000
0100
0010
0001
,
0200
0000
0320
0000
,
2030
0000
3002
0000
,
0203
0000
0320
0000
,
2030
0000
3002
0000
,
0023
0000
0230
0000
,
2300
0000
3002
0000
,
0203
0000
0320
0000
,
2030
0000
3002
0000
,
0203
0000
0020
0330
,
0001
0100
1000
0000
0010
0000
1010
0000
,
1000
0010
0001
0000
0010
0000
0011
0000
,
0001
0100
1000
0000
1000
0100
0001
0000
,
0001
0010
1000
0010
0001
0010
1000
0000
,
1000
0100
0010
0100
0001
0000
0101
0000
,
0001
0100
0010
0100
1000
0000
1100
0000
,
1000
0100
0010
0000
0100
0010
0001
0000
,
0001
0100
1000
0100
0001
0100
1000
0000
,
0001
0010
1000
0010
0001
1000
0010
0000
,
1000
0010
0001
0010
1000
0100
0001
0000
,
0001
0100
1000
0000
1000
0010
0001
0000
,
1000
0010
0001
0000
0001
0100
1000
0000
,
0001
0100
1000
0100
0001
0000
1001
0000
,
0001
0010
1000
0010
0001
0000
1001
0000
,
1000
0100
0010
0000
0100
0010
0001
0000
,
0220
0000
0000
0000
,
0330
0000
0000
1001
,
0001
0100
1000
0100
0001
0100
1000
0000
,
0001
0010
1000
0010
0001
0010
1000
0000
,
1000
0100
0010
0100
1000
0100
0010
0000
,
0010
0001
0010
0100
0010
0001
0010
0000
,
0100
1000
0100
0010
0100
1000
0100
0000
,
0001
0010
0100
0010
0001
0010
0100
0000
,
0001
0100
1000
0100
0001
0100
1000
0100
,
0001
0010
1000
0010
0001
0010
1000
0000
,
1000
0100
0001
0100
1000
0000
1001
0000
,
0001
0010
1000
0010
0001
0000
1001
0000
,
1000
0100
0010
0000
0100
0010
0001
0000
,
0001
0010
0100
0010
0001
0010
0100
0000
,
1000
0100
0001
0100
1000
0000
1001
0000
,
0001
0010
1000
0010
0001
0000
1001
0000
,
1000
0100
0001
0000
0100
0001
0010
0000
,
0001
0010
0100
1000
0010
0001
0010
0000
,
1000
0100
0010
0100
0001
0010
0100
1000
,
0010
1000
0100
0001
1000
0000
1001
0000
,
0001
0010
0100
1000
0010
0100
0001
0010
,
0100
1000
0010
0100
0001
0000
1001
0000
,
0001
0100
1000
0100
0001
0010
1000
0010
,
0001
1001
0100
0110
,
0001
0100
0010
1000
0100
0010
0100
0001
,
0220
0000
0330
0000
,
2000
0000
3020
0000
,
0230
0000
0302
0000
,
2003
0000
3002
0000
,
0023
0000
0230
0000
,
2000
0000
0000
0000
,
3300
0000
0000
0000
;

//---------------dance-single - ----------------
#NOTES:
     dance-single:
     :
     Medium:
     8:
     0.295654,0.426641,0.087070,0.401859,0.000000,309.000000,296.000000,13.000000,60.000000,0.000000,0.000000,0.295654,0.426641,0.087070,0.401859,0.000000,309.000000,296.000000,13.000000,60.000000,0.000000,0.000000:
0000
0000
0000
0000
,
0000
0000
0000
0000
,
0000
0000
0000
0000
,
0000
0000
0000
0000
,
0000
0000
0000
0000
,
0002
0000
0023
0000
,
0230
0000
2300
0000
,
3002
0000
0203
0000
,
0320
0000
2030
0000
,
3010
0100
0010
1000
,
0002
0000
1000
0000
1000
0003
0000
0000
,
0001
0100
0010
1000
,
2000
0001
3001
0000
,
0100
0010
1000
0010
,
0100
0001
0100
0010
,
1000
0100
0010
0001
,
2002
0000
3003
0000
,
0001
0100
1000
0000
,
1000
0010
0001
0000
,
1000
0100
0001
0000
,
0001
0010
1000
0000
,
1000
0100
1000
0100
,
0010
0100
0010
0100
,
0010
0001
0010
0001
,
1000
0001
1000
0001
,
0100
1000
0010
0000
1000
0000
1001
0000
,
0001
0100
0010
0000
1000
0000
1001
0000
,
1000
0100
0001
0000
0010
0000
0110
0000
,
0002
0100
2000
3003
,
0001
0010
0100
0000
1000
0000
1010
0000
,
1000
0010
0100
0000
0001
0000
0101
0000
,
0001
0100
1000
0000
0010
0000
0100
0000
,
0002
1000
2000
3003
,
1000
0100
0010
0001
,
1000
0010
0100
0001
,
1000
0100
0001
0000
1000
0010
0001
0000
,
0200
0000
0320
0000
,
2030
0000
3002
0000
,
0203
0000
0320
0000
,
2030
0000
3002
0000
,
0023
0000
0230
0000
,
0302
0000
2003
0000
,
3200
0000
0320
0000
,
0032
0000
0203
0000
,
0320
0000
2030
0000
,
3001
0100
0010
1000
,
1001
0000
0100
0010
,
1000
0010
0100
0001
,
0110
0000
1001
0001
,
0100
1000
0010
0100
,
1001
0000
0110
1000
,
0100
0010
0001
1000
,
0020
0100
0002
0033
,
0001
0100
0010
1000
,
0200
0010
1000
0310
,
1000
0010
0100
0001
,
0020
0001
0100
0001
,
0130
0001
1000
0010
,
0200
0010
0001
0010
,
0302
0000
2003
3010
,
0200
0000
0010
0000
,
0020
0000
0000
0330
,
0001
0100
0010
0000
1000
0000
1010
0000
,
1000
0010
0100
0000
0001
0000
0101
0000
,
0100
0010
1000
0001
,
0100
0001
1000
0010
0100
0000
0000
0000
,
1000
0000
0010
0000
0100
0001
1000
0000
,
0010
0000
0100
0000
0001
0100
0010
0000
,
1000
0100
0010
0001
,
0001
0100
0010
1000
0001
0000
0000
0000
,
1000
0000
0010
0000
0100
0001
1000
0000
,
0010
0100
1000
0001
,
0100
0000
0010
0000
1000
0010
0100
0000
,
0001
0100
0010
1000
0001
0000
0000
0000
,
1000
0000
0010
0000
0100
0001
1000
0000
,
0010
0100
0001
1000
,
0010
0000
0100
0001
0000
0001
0100
1000
,
0000
0010
0100
0010
,
2000
0010
0100
0010
,
0002
3003
0002
0000
,
0100
0010
0100
0010
,
2000
3003
0200
0000
,
0010
1000
0001
0010
,
0020
0330
0020
0000
,
1000
0001
0100
0001
,
2000
0000
3030
0000
,
0002
0000
0023
0000
,
0230
0000
2300
0000
,
3002
0000
0203
0000
,
0320
0000
2030
0000
,
0002
0000
0000
0000
,
3003
0000
0000
0000
;

//---------------dance-single - ----------------
#NOTES:
     dance-single:
     :
     Easy:
     5:
     0.243986,0.304743,0.073674,0.549208,0.000000,255.000000,244.000000,11.000000,82.000000,0.000000,0.000000,0.243986,0.304743,0.073674,0.549208,0.000000,255.000000,244.000000,11.000000,82.000000,0.000000,0.000000:
0000
0000
0000
0000
,
0000
0000
0000
0000
,
0000
0000
0000
0000
,
0000
0000
0000
0000
,
0000
0000
0000
0000
,
2000
0000
3200
0000
,
0320
0000
0032
0000
,
2003
0000
3020
0000
,
0230
0000
0302
0000
,
0103
0010
1000
0000
,
0001
0100
0010
0000
,
1000
0100
0001
0000
,
1000
0010
0001
0000
,
1000
0010
0200
0000
,
0301
0010
0200
0000
,
0301
1000
0020
0000
,
1030
0100
0020
0000
,
0031
0000
0200
0000
,
1300
0000
0020
0000
,
0031
0000
2000
0000
,
3100
0000
0002
0000
,
0013
1000
0010
1000
,
0001
0010
0001
0010
,
1000
0100
1000
0100
,
0001
0100
0001
0100
,
1000
0100
0220
0330
,
0001
0100
1000
0100
,
0001
0010
0220
0330
,
1000
0010
0001
0010
,
1000
0100
0202
0303
,
0001
0010
1000
0100
,
0001
0100
2200
3300
,
1000
0010
0100
0001
,
2000
0010
0200
3300
,
0001
0100
0001
0010
,
0002
0100
0020
0033
,
2002
0000
0000
3003
,
0002
0000
0203
0000
,
0320
0000
2030
0000
,
3200
0000
0320
0000
,
0032
0000
2003
0000
,
3020
0000
0230
0000
,
0302
0000
2003
0000
,
3020
0000
0000
0000
,
0200
0000
0000
0330
,
0001
0100
1000
0000
,
1000
0010
0001
0000
,
1000
0010
0100
0000
,
0001
0100
0010
0000
,
1000
0100
0001
0000
,
1000
0010
0001
0000
,
0100
0010
1000
0000
,
0001
0100
0010
0000
,
1000
0100
0010
0001
,
1000
0010
0200
0000
,
0301
0010
0100
1000
,
0001
0100
0020
0000
,
1030
0100
0001
0100
,
1000
0100
0002
0000
,
0013
1000
0010
0001
,
0020
0000
0000
0000
,
0200
0000
0000
0330
,
1000
0100
0220
0330
,
0001
0100
0010
1000
,
0001
0100
0220
0330
,
1000
0100
0010
0001
,
1000
0010
0220
0330
,
0001
0100
0010
1000
,
0001
0100
2002
3003
,
1000
0100
2002
3003
,
0001
0100
0010
1000
,
0020
0000
0130
0001
,
1000
0010
0100
0001
,
2000
0000
3002
0003
,
0001
0100
0010
1000
,
0002
0000
1003
0000
,
0100
1000
0010
0100
,
0002
0000
0023
0000
,
1030
0100
0010
0001
,
0200
0000
0320
0000
,
0031
0010
0100
1000
,
0020
0000
0230
0000
,
1300
0100
0010
0001
,
0020
0000
0230
0000
,
0301
0010
0100
1000
,
2002
0000
0000
3003
,
2000
0000
3020
0000
,
0230
0000
0302
0000
,
2003
0000
3002
0000
,
0023
0000
0230
0000
,
0020
0000
0000
0000
,
0330
0000
0000
0000
;

//---------------dance-single - ----------------
#NOTES:
     dance-single:
     :
     Beginner:
     2:
     0.099508,0.182846,0.020093,0.040186,0.000000,104.000000,101.000000,3.000000,6.000000,0.000000,0.000000,0.099508,0.182846,0.020093,0.040186,0.000000,104.000000,101.000000,3.000000,6.000000,0.000000,0.000000:
// measure 0
0000
0000
0000
0000
,  // measure 1
0000
0000
0000
0000
,  // measure 2
0000
0000
0000
0000
,  // measure 3
0000
0000
0000
0000
,  // measure 4
0000
0000
0000
0000
,  // measure 5
1000
0000
0000
0000
,  // measure 6
0010
0000
0000
0000
,  // measure 7
0100
0000
0000
0000
,  // measure 8
0001
0000
0000
0000
,  // measure 9
1000
0000
0100
0000
,  // measure 10
1000
0000
0000
0000
,  // measure 11
0001
0000
0010
0000
,  // measure 12
0001
0000
0000
0000
,  // measure 13
1000
0000
0010
0000
,  // measure 14
1000
0000
0000
0000
,  // measure 15
0001
0000
0100
0000
,  // measure 16
0001
0000
0000
0000
,  // measure 17
1000
0000
0000
0000
,  // measure 18
0100
0000
0000
0000
,  // measure 19
0010
0000
0000
0000
,  // measure 20
0001
0000
0000
0000
,  // measure 21
1000
0000
0000
0000
,  // measure 22
0010
0000
0000
0000
,  // measure 23
0100
0000
0000
0000
,  // measure 24
0001
0001
0001
0000
,  // measure 25
1000
0000
0000
0010
,  // measure 26
0100
0000
0000
0010
,  // measure 27
0100
0000
0000
0000
,  // measure 28
0001
0000
0100
0000
,  // measure 29
1000
0000
0000
0010
,  // measure 30
0100
0000
0000
0010
,  // measure 31
0100
0000
0000
0000
,  // measure 32
1000
0000
0100
0000
,  // measure 33
0001
0000
0000
0000
,  // measure 34
0010
0000
0000
0000
,  // measure 35
0100
0000
0000
0000
,  // measure 36
1000
0000
0000
0000
,  // measure 37
2002
0000
0000
0000
,  // measure 38
0000
0000
0000
0000
,  // measure 39
3003
0000
0000
0000
,  // measure 40
0000
0000
0000
0000
,  // measure 41
0200
0000
0000
0000
,  // measure 42
0300
0000
0000
0000
,  // measure 43
0000
0000
0000
0000
,  // measure 44
0000
0000
0000
0000
,  // measure 45
1000
0000
0000
0000
,  // measure 46
0010
0000
0000
0000
,  // measure 47
0100
0000
0000
0000
,  // measure 48
0001
0000
0000
0000
,  // measure 49
0100
0000
0000
0000
,  // measure 50
0010
0000
0000
0000
,  // measure 51
1000
0000
0000
0000
,  // measure 52
0001
0000
0000
0000
,  // measure 53
0100
0000
1000
0000
,  // measure 54
0100
0000
0000
0000
,  // measure 55
0010
0000
0001
0000
,  // measure 56
0010
0000
0000
0000
,  // measure 57
1000
0000
0100
0000
,  // measure 58
1000
0000
0000
0000
,  // measure 59
0001
0000
0010
0000
,  // measure 60
0001
0000
0000
0000
,  // measure 61
1001
0000
0000
0000
,  // measure 62
1000
0000
0000
0000
,  // measure 63
0010
0000
0000
0000
,  // measure 64
0100
0000
0000
0000
,  // measure 65
0001
0000
0001
0000
,  // measure 66
0001
0000
0000
0000
,  // measure 67
0100
0000
0000
0000
,  // measure 68
0010
0000
0000
0000
,  // measure 69
1000
0000
1000
0000
,  // measure 70
1000
0000
0000
0010
,  // measure 71
0100
0000
0000
0010
,  // measure 72
0100
0000
0000
0000
,  // measure 73
1000
0000
0100
0000
,  // measure 74
0001
0000
0000
0010
,  // measure 75
0100
0000
0000
0010
,  // measure 76
0100
0000
0000
0000
,  // measure 77
0001
0000
0100
0000
,  // measure 78
1000
0000
0000
0000
,  // measure 79
0010
0000
0000
0000
,  // measure 80
0100
0000
0000
0000
,  // measure 81
0001
0000
0000
0000
,  // measure 82
1000
0000
0000
0000
,  // measure 83
0100
0000
0000
0000
,  // measure 84
0010
0000
0000
0000
,  // measure 85
0001
0000
0000
0000
,  // measure 86
2002
0000
0000
0000
,  // measure 87
0000
0000
0000
0000
,  // measure 88
3003
0000
0000
0000
,  // measure 89
0000
0000
0000
0000
,  // measure 90
0200
0000
0000
0000
,  // measure 91
0300
0000
0000
0000
;
