#TITLE:メギツネ;
#SUBTITLE:;
#ARTIST:BABYMETAL;
#TITLETRANSLIT:MEGITSUNE;
#SUBTITLETRANSLIT:;
#ARTISTTRANSLIT:;
#GENRE:Pop;
#CREDIT:;
#BANNER:;
#BACKGROUND:;
#LYRICSPATH:;
#CDTITLE:;
#MUSIC:MEGITSUNE.ogg;
#OFFSET:0.730000;
#SAMPLESTART:85.449654;
#SAMPLELENGTH:15.000000;
#SELECTABLE:YES;
#DISPLAYBPM:284.000000;
#BPMS:0.000000=284.000000
;
#STOPS:
;
#BGCHANGES:;
#KEYSOUNDS:;
#ATTACKS:;

//---------------dance-single - ----------------
#NOTES:
     dance-single:
     :
     Beginner:
     4:
     0.163377,0.339855,0.136661,0.172625,0.000000,159.000000,140.000000,19.000000,24.000000,0.000000,0.000000,0.163377,0.339855,0.136661,0.172625,0.000000,159.000000,140.000000,19.000000,24.000000,0.000000,0.000000:
0000
0000
0000
0000
,
0000
0000
0000
0000
,
0000
0000
0000
0000
,
0000
0000
0000
0000
,
0000
0000
0000
0000
,
0000
0000
0000
0000
,
0010
0000
0000
0000
,
0110
0000
0000
0000
,
0000
0000
0000
0000
,
0000
0000
0000
0000
,
1001
0000
0000
0000
,
0100
0000
0000
0000
,
0010
0000
0000
0000
,
0100
0000
0000
0000
,
1001
0000
0000
0000
,
0000
0000
0000
0000
,
0100
0000
0000
0000
,
0010
0000
0000
0000
,
1000
0000
0000
0000
,
1000
0000
0000
0000
,
0001
0000
0000
0000
,
0001
0000
0000
0000
,
1000
0000
0000
0000
,
1000
0000
0000
0000
,
0010
0000
0000
0000
,
0010
0000
0000
0000
,
1000
0000
0000
0000
,
1000
0000
0000
0000
,
0001
0000
0000
0000
,
0001
0000
0000
0000
,
1000
0000
0000
0000
,
1000
0000
0000
0000
,
0100
0000
0000
0000
,
0100
0000
0000
0000
,
0220
0000
0000
0000
,
0000
0000
0000
0000
,
0330
0000
0000
0000
,
0001
0000
0000
0000
,
1000
0000
0000
0000
,
1000
0000
0000
0000
,
0010
0000
0000
0000
,
0100
0000
0000
0000
,
0010
0000
0000
0000
,
0010
0000
0000
0000
,
1000
0000
0000
0000
,
0001
0000
0000
0000
,
1000
0000
0000
0000
,
1000
0000
0000
0000
,
0100
0000
0000
0000
,
0010
0000
0000
0000
,
0100
0000
0100
0000
,
0100
0000
0000
0000
,
1000
0000
0000
0000
,
0100
0000
0000
0000
,
0001
0000
0000
0000
,
0100
0000
0000
0000
,
1000
0000
0000
0000
,
0100
0000
0000
0000
,
0001
0000
0001
0000
,
0001
0000
0000
0000
,
0001
0000
0000
0000
,
0010
0000
0000
0000
,
1000
0000
0000
0000
,
0010
0000
0000
0000
,
0001
0000
0000
0000
,
0010
0000
0000
0000
,
1000
0000
1000
0000
,
1000
0000
0000
0000
,
0100
0000
0000
0000
,
1000
0000
0000
0000
,
0010
0000
0000
0000
,
0001
0000
0000
0000
,
0100
0000
0000
0000
,
0010
0000
0000
0000
,
1000
0000
0000
0000
,
1001
0000
0000
0000
,
0010
0000
0000
0000
,
0100
0000
0000
0000
,
0001
0000
0000
0000
,
1000
0000
0000
0000
,
0010
0000
0010
0000
,
0100
0000
0100
0000
,
0220
0000
0000
0000
,
0000
0000
0330
0000
,
2002
0000
0000
0000
,
0000
0000
3003
0000
,
0200
0000
0000
0000
,
0000
0000
0000
0000
,
0320
0000
0000
0000
,
0000
0000
0000
0000
,
2030
0000
0000
0000
,
0000
0000
0000
0000
,
3002
0000
0000
0000
,
0000
0000
0000
0000
,
1003
0000
0000
0000
,
1000
0000
0000
0000
,
0001
0000
0000
0000
,
0001
0000
0000
0000
,
0100
0000
0000
0000
,
0100
0000
0000
0000
,
0220
0000
0000
0000
,
0000
0000
0330
0000
,
0001
0000
0000
0000
,
0001
0000
0000
0000
,
0100
0000
0000
0000
,
0010
0000
0000
0000
,
1000
0000
0000
0000
,
1000
0000
0000
0000
,
0010
0000
0000
0000
,
0100
0000
0000
0000
,
0001
0000
0000
0000
,
0010
0000
0000
0000
,
0100
0000
0000
0000
,
0010
0000
0000
0000
,
1000
0000
0000
0000
,
0100
0000
0000
0000
,
0010
0000
0000
0000
,
0100
0000
0000
0000
,
2002
0000
0000
0000
,
3003
0000
0000
0000
,
0220
0000
0000
0000
,
0330
0000
0000
0000
,
2200
0000
0000
0000
,
3300
0000
0000
0000
,
0022
0000
0000
0000
,
0033
0000
0000
0000
,
0100
0000
0000
0000
,
0100
0000
0000
0000
,
0010
0000
0000
0000
,
0010
0000
0000
0000
,
1000
0000
0000
0000
,
1000
0000
0000
0000
,
0001
0000
0000
0000
,
0001
0000
0000
0000
,
0100
0000
0000
0000
,
1000
0000
0000
0000
,
0100
0000
0000
0000
,
0010
0000
0000
0000
,
0100
0000
0000
0000
,
1000
0000
0000
0000
,
0100
0000
0000
0000
,
0010
0000
0000
0000
,
0001
0000
0000
0000
,
0010
0000
0000
0000
,
0100
0000
0000
0000
,
0010
0000
0000
0000
,
0001
0000
0000
0000
,
0010
0000
0000
0000
,
0100
0000
0000
0000
,
0010
0000
0000
0000
,
1001
0000
0000
0000
,
1001
0000
0000
0000
,
2002
0000
0000
0000
,
3003
0000
0000
0000
,
0110
0000
0000
0000
,
0110
0000
0000
0000
,
0220
0000
0000
0000
,
0330
0000
1001
0000
;

//---------------dance-single - ----------------
#NOTES:
     dance-single:
     :
     Easy:
     6:
     0.318534,0.453140,0.395598,0.359635,0.000000,310.000000,255.000000,55.000000,50.000000,0.000000,0.000000,0.318534,0.453140,0.395598,0.359635,0.000000,310.000000,255.000000,55.000000,50.000000,0.000000,0.000000:
0000
0000
0000
0000
,
0000
0000
0000
0000
,
0000
0000
0000
0000
,
0000
0000
0000
0000
,
0000
0000
0000
0000
,
0000
0000
0000
0000
,
0110
0000
0000
0000
,
0110
0000
0000
0000
,
1000
0000
0001
0000
,
1000
0000
0000
0000
,
0210
0000
0000
0000
,
0320
0000
0000
0000
,
2030
0000
0000
0000
,
3002
0000
0000
0000
,
0203
0000
0010
0000
,
0010
0000
0310
0000
,
0001
0000
0100
0000
,
0010
0000
1001
0000
,
1000
0000
0100
0000
,
0010
0000
1001
0000
,
0001
0000
0010
0000
,
0100
0000
1001
0000
,
1000
0000
0010
0000
,
0100
0000
1001
0000
,
0010
0000
0010
0000
,
0100
0000
0100
0000
,
0001
0000
0100
0000
,
0010
0000
1001
0000
,
1000
0000
0100
0000
,
0010
0000
1001
0000
,
0001
0000
0010
0000
,
0100
0000
1001
0000
,
1000
0000
0100
0000
,
0010
0000
0001
0000
,
2002
0000
0000
0000
,
0000
0000
3003
0000
,
0001
0000
0100
0000
,
0010
0000
0100
0000
,
1000
0000
1001
0000
,
0001
0000
1001
0000
,
1000
0000
0010
0000
,
0100
0000
0001
0000
,
0001
0000
1001
0000
,
1000
0000
1001
0000
,
1000
0000
0100
0000
,
0010
0000
0100
0000
,
1000
0000
1100
0000
,
0100
0000
1100
0000
,
0100
0000
0010
0000
,
1000
0000
0010
0000
,
0001
0000
0011
0000
,
0010
0000
0011
0000
,
0001
0000
0100
0000
,
0010
0000
0110
0000
,
1000
0000
0010
0000
,
0100
0000
0110
0000
,
0001
0000
0100
0000
,
0010
0000
0110
0000
,
1000
0000
1000
0000
,
0001
0000
0001
0000
,
1000
0000
0100
0000
,
0010
0000
0110
0000
,
0001
0000
0010
0000
,
0100
0000
0110
0000
,
1000
0000
0001
0000
,
0100
0000
0110
0000
,
0011
0000
0010
0000
,
0110
0000
0100
0000
,
2200
0000
3300
0000
,
0202
0000
0303
0000
,
2002
0000
3003
0000
,
0220
0000
0330
0000
,
1000
0000
0010
0000
,
0002
0000
0003
0000
,
0010
0000
0100
0000
,
2000
0000
3000
0000
,
0100
0000
0010
0000
,
2002
0000
3003
0000
,
0010
0000
0100
0000
,
2002
0000
3003
0000
,
1000
0000
0100
0000
,
0010
0000
0001
0000
,
0100
0000
0100
0000
,
0010
0000
0010
0000
,
2002
0000
0000
0000
,
0000
0000
3003
0000
,
0210
0000
0000
0000
,
0000
0000
0000
0002
,
0300
0000
0000
0000
,
0000
0000
0000
0000
,
2003
0000
0000
0000
,
0000
0000
0000
0000
,
3020
0000
0000
0000
,
0230
0000
0000
0000
,
0301
0000
0001
0000
,
1001
0000
0000
0000
,
1000
0000
1000
0000
,
1001
0000
0000
0000
,
0001
0000
0100
0000
,
0010
0000
1000
0000
,
2200
0000
0000
0000
,
0000
0000
3300
0000
,
0010
0000
0010
0000
,
0100
0000
0100
0000
,
1000
0000
0001
0000
,
0010
0000
0100
0000
,
0001
0000
0100
0000
,
1000
0000
0010
0000
,
1000
0000
0010
0000
,
0001
0000
0100
0000
,
2000
0000
3010
0000
,
0001
0000
0010
0000
,
0002
0000
0103
0000
,
1000
0000
0010
0000
,
0200
0000
0310
0000
,
0020
0000
0130
0000
,
0001
0000
1000
0000
,
0010
0000
1001
0000
,
0200
0000
0000
0000
,
0310
0000
0000
0000
,
1002
0000
0000
0000
,
0103
0000
0000
0000
,
2010
0000
0000
0000
,
3100
0000
0000
0000
,
0102
0000
0000
0000
,
0013
0000
0000
0000
,
0100
0000
0010
0000
,
1000
0000
1001
0000
,
0010
0000
0100
0000
,
0001
0000
1001
0000
,
1000
0000
0100
0000
,
0010
0000
0001
0000
,
0200
0000
0010
0000
,
0020
0000
0330
0000
,
0001
0000
0100
0000
,
0010
0000
1010
0000
,
1000
0000
0010
0000
,
0100
0000
0101
0000
,
0010
0000
0100
0000
,
1000
0000
1001
0000
,
0100
0000
0010
0000
,
0001
0000
1001
0000
,
0200
0000
0010
0000
,
1000
0000
0010
0300
,
0020
0000
0100
0000
,
0001
0000
0100
0030
,
2000
0000
0001
0000
,
0100
0000
0010
3000
,
0002
0000
1000
0000
,
0010
0000
0100
0003
,
2002
0000
3003
0000
,
2002
0000
3003
0000
,
2002
0000
3003
0000
,
0010
0000
0010
0000
,
1001
0000
1001
0000
,
0100
0000
0100
0000
,
1001
0000
1001
0000
,
0010
0000
0010
0000
;

//---------------dance-single - ----------------
#NOTES:
     dance-single:
     :
     Medium:
     10:
     0.419231,0.510591,0.187010,0.258937,0.000000,408.000000,382.000000,26.000000,36.000000,0.000000,0.000000,0.419231,0.510591,0.187010,0.258937,0.000000,408.000000,382.000000,26.000000,36.000000,0.000000,0.000000:
0000
0000
0000
0000
,
0000
0000
0000
0000
,
0000
0000
0000
0000
,
0000
0000
0000
0000
,
0000
0000
0000
0000
,
0000
0000
0000
0000
,
1001
0000
0000
0001
0000
0000
1000
0000
,
1001
0000
0000
0000
,
0000
0000
0000
0000
,
0000
0100
0110
0000
,
2001
0000
0000
0000
,
3020
0000
0000
0000
,
0230
0000
0000
0000
,
0302
0000
0000
0000
,
0103
0000
0100
0000
,
0100
0000
0100
0000
,
0010
0100
0010
0100
,
0010
0000
1001
0000
,
0100
0000
1000
0000
,
0010
0100
0010
0000
,
0001
0000
0100
0000
,
0010
0100
0010
0000
,
1000
0000
0010
0000
,
0001
1000
0001
0000
,
0100
1000
0010
0001
,
0100
1000
0010
0001
,
0100
0000
0010
0000
,
1000
0001
1000
0000
,
0010
0000
0100
0000
,
0001
1000
0001
0000
,
0100
0000
0010
0000
,
1000
0001
1000
0000
,
1000
0010
0100
0001
,
1000
0010
0100
0001
,
0200
0000
0010
0000
,
0010
0000
0310
0000
,
0001
0100
0010
0000
,
1000
0000
1001
0000
,
1000
0010
1000
1000
,
0001
0010
0001
0001
,
0010
0000
1000
0000
,
0010
1000
0001
0000
,
0010
0001
0010
0010
,
0100
1000
0100
0100
,
0001
0100
1000
0000
,
0010
1000
0001
0000
,
0100
0010
0100
0100
,
0001
1000
0001
0001
,
1000
0100
0010
0000
,
0100
0001
1000
0000
,
0010
1000
0010
1000
,
0001
0100
1001
0000
,
0020
0000
0130
0000
,
0001
0100
0010
0000
,
2000
0000
3010
0000
,
1000
0010
0100
0000
,
2001
0000
3010
0000
,
0001
1000
0010
0000
,
1000
0001
0100
0010
,
0001
0100
0010
1000
,
0010
0000
1000
0000
,
0001
0100
0010
0000
,
1000
0000
0001
0000
,
0100
0010
1000
0000
,
0001
0000
0100
0000
,
0010
1000
0001
0000
,
0001
0010
0100
1000
,
0001
0100
0010
1000
,
0002
0000
1000
0000
,
0100
0000
0003
0000
,
2000
0000
0010
0000
,
0100
0000
3000
0000
,
0020
0000
0100
0000
,
0001
0000
0030
0000
,
0200
0000
0001
0000
,
0010
0000
1300
0000
,
0010
1000
0001
0000
,
1001
0000
0010
0000
,
1000
0010
0100
0000
,
0001
0000
1001
0000
,
0100
1000
0010
0000
,
0010
0100
0001
0000
,
0001
0100
1000
0010
,
0001
0010
0100
1000
,
0020
0000
0100
0000
,
0001
0000
0130
0000
,
2001
0000
0000
0000
,
0000
0000
0000
0000
,
3002
0000
0000
0000
,
0203
0000
0000
0000
,
0320
0000
0000
0000
,
1000
0000
0000
0000
,
0032
0000
0000
0000
,
0203
0000
0010
0300
,
0001
1000
0010
0000
,
1001
0000
0110
0000
,
1000
0001
0100
0000
,
1001
0000
0110
0000
,
0001
0010
0100
1000
,
0001
0100
0010
1000
,
0002
0000
1000
0000
,
1000
0000
1003
0000
,
0010
1000
0001
1000
,
0010
1000
0001
0000
,
1000
0001
0100
0001
,
1000
0001
0100
0000
,
1000
0100
0001
0100
,
1000
0100
0001
0000
,
0001
0010
1000
0010
,
0001
0010
1000
0000
,
0010
1000
0010
0100
,
0010
1000
0010
0000
,
0001
0100
0010
0100
,
0001
0100
0010
0000
,
1000
0100
0001
0100
,
1000
0010
0001
1000
,
0010
0000
0001
0000
,
0010
0000
1000
0000
,
2001
0000
0000
0000
,
3020
0000
0000
0000
,
0230
0000
0001
0000
,
1000
0000
0000
0000
,
0320
0000
0000
0000
,
0032
0000
0000
0000
,
0023
0000
1000
0000
,
0001
0000
0000
0000
,
1030
0001
0100
0000
,
1001
0000
0010
0000
,
1000
0001
0010
0000
,
1001
0000
0100
0000
,
1000
0001
0100
0000
,
0001
1000
0010
0000
,
1000
0000
0000
0010
0000
0000
0100
0000
,
0001
0000
0000
0010
0000
0000
0100
0000
,
2000
0000
0010
0000
,
0100
0000
3010
0000
,
0002
0000
0100
0000
,
0010
0000
0103
0000
,
0002
0000
1000
0000
,
0100
0000
0013
0000
,
2000
0000
0001
0000
,
0010
0000
3100
0000
,
0010
0100
0001
0000
,
1000
0000
1001
0000
,
1000
0010
0100
0000
,
0001
0000
1001
0000
,
1000
0100
0001
0000
,
0010
0000
0110
0000
,
0001
0010
0100
1000
,
0010
0100
0001
0000
,
2200
0000
3300
0000
,
0022
0000
0033
0000
,
2002
0000
3003
0000
,
0011
0000
1010
0000
,
1000
0000
0000
0010
0000
0010
0000
0000
,
0001
0000
0000
0100
0000
0100
0000
0000
,
1000
0000
0000
0001
0000
0001
0000
0000
,
1000
0010
0100
0001
;

//---------------dance-single - ----------------
#NOTES:
     dance-single:
     :
     Hard:
     14:
     0.651452,1.078769,0.338057,0.179817,0.000000,634.000000,587.000000,47.000000,25.000000,0.000000,0.000000,0.651452,1.078769,0.338057,0.179817,0.000000,634.000000,587.000000,47.000000,25.000000,0.000000,0.000000:
// measure 0
0000
0000
0000
0000
,  // measure 1
0000
0000
0000
0000
,  // measure 2
0000
0000
0000
0000
,  // measure 3
0000
0000
0000
0000
,  // measure 4
0000
0000
0000
0000
,  // measure 5
0000
0000
0000
0000
,  // measure 6
0100
0010
0100
0010
0000
1000
0000
0001
,  // measure 7
2000
0000
0000
0000
,  // measure 8
0001
0000
0000
0000
,  // measure 9
3001
0000
0110
0000
,  // measure 10
0002
0000
0000
0000
,  // measure 11
0203
0000
0000
0000
,  // measure 12
0320
0000
0000
0000
,  // measure 13
2030
0000
0000
0000
,  // measure 14
3001
0000
0001
0100
,  // measure 15
0010
1000
0001
0100
,  // measure 16
0010
0100
0010
0100
0010
0100
0010
0100
,  // measure 17
0010
0000
1001
0000
,  // measure 18
0010
0000
0000
1000
0000
0010
0000
0100
,  // measure 19
0001
0010
1001
0000
,  // measure 20
0010
0000
0000
1000
0000
0001
0000
0010
,  // measure 21
0100
0010
1001
0000
,  // measure 22
1000
0000
0000
0100
0000
0010
0000
0100
,  // measure 23
0001
1000
1001
0000
,  // measure 24
1000
0100
0001
0010
,  // measure 25
1000
0100
0001
0010
,  // measure 26
0100
0000
0000
0010
0000
1000
0000
0001
,  // measure 27
0100
0010
0110
0000
,  // measure 28
0001
0000
0000
0100
0000
0010
0000
1000
,  // measure 29
0001
0100
1100
0000
,  // measure 30
0010
0000
0000
1000
0000
0010
0000
0100
,  // measure 31
0001
0010
0011
0000
,  // measure 32
0001
0010
1000
0100
,  // measure 33
0001
0010
1000
0100
,  // measure 34
0020
0000
0100
0000
,  // measure 35
0100
0000
0130
0000
,  // measure 36
0001
0100
0010
1000
,  // measure 37
0010
0100
0001
0000
,  // measure 38
0001
1000
0001
1000
0001
0000
1001
0000
,  // measure 39
0010
0100
0010
0100
0010
0000
0110
0000
,  // measure 40
0001
0010
0100
1000
,  // measure 41
0010
0100
0001
0000
,  // measure 42
0001
0010
0001
0010
0001
0000
0011
0000
,  // measure 43
1000
0100
1000
0100
1000
0000
1100
0000
,  // measure 44
1000
0010
0100
0001
,  // measure 45
1000
0010
1001
0000
,  // measure 46
1000
0010
1000
0010
1000
0000
1001
0000
,  // measure 47
0001
0100
0001
0100
0001
0000
1001
0000
,  // measure 48
0001
0100
0010
1000
,  // measure 49
0001
0000
1001
0000
,  // measure 50
1000
0000
1000
0000
1000
0000
1000
0100
,  // measure 51
0000
0100
0000
0100
0010
0000
0000
0000
,  // measure 52
0001
0100
0001
0100
0000
0010
0000
0001
,  // measure 53
1000
0010
1000
0000
,  // measure 54
0001
1000
0001
1000
0000
0100
0000
0010
,  // measure 55
1000
0001
0100
0000
,  // measure 56
0010
0100
0010
0100
0000
0010
0000
0100
,  // measure 57
0001
1000
0100
0000
,  // measure 58
0001
0010
1000
0100
,  // measure 59
0001
0010
1000
0100
,  // measure 60
0010
0100
0001
0100
0000
0010
0000
0100
,  // measure 61
0001
1000
0010
0000
,  // measure 62
1000
0010
0100
0010
0000
0100
0000
0010
,  // measure 63
1000
0001
0100
0000
,  // measure 64
0010
1000
0001
0100
0000
0010
0000
0100
,  // measure 65
0001
1000
0010
0100
,  // measure 66
0001
0010
1000
0100
,  // measure 67
0001
0010
1000
0100
,  // measure 68
0020
0000
0100
0000
,  // measure 69
0002
0000
0033
0001
,  // measure 70
0100
0010
1000
0010
,  // measure 71
1001
0000
1000
0010
,  // measure 72
0200
0000
0001
0000
,  // measure 73
2000
0000
3300
0010
,  // measure 74
1000
0001
0100
0010
,  // measure 75
1000
0001
1000
0001
0100
0010
0100
0010
,  // measure 76
0001
0000
0000
0010
0000
0000
1000
0000
,  // measure 77
0200
0000
0301
0010
,  // measure 78
1000
0001
0010
1000
,  // measure 79
1001
0000
0010
1000
,  // measure 80
1001
0000
1100
0000
,  // measure 81
0011
0000
1001
0000
,  // measure 82
0001
1000
0010
0010
,  // measure 83
1000
0001
0100
0100
,  // measure 84
0001
0100
0001
0100
0010
0100
0010
0100
,  // measure 85
0010
1000
0010
1000
0200
0000
0000
0000
,  // measure 86
0020
0000
0000
0000
,  // measure 87
0000
0000
0030
0000
,  // measure 88
0002
0000
0300
0000
,  // measure 89
2000
0000
0003
0000
,  // measure 90
0200
0000
0000
0000
,  // measure 91
3000
0000
0000
0000
,  // measure 92
0020
0000
0300
0000
,  // measure 93
0002
0000
0033
0000
,  // measure 94
0001
0010
1000
0100
,  // measure 95
0010
0000
1001
0000
,  // measure 96
1000
0010
0100
0001
,  // measure 97
1000
0000
1001
0000
,  // measure 98
0001
0010
1000
0100
,  // measure 99
0001
0100
0010
1000
,  // measure 100
0020
0000
0100
0000
,  // measure 101
0100
0000
0130
0000
,  // measure 102
0001
0000
0100
0000
0010
0100
0010
0000
,  // measure 103
1000
0001
0100
0010
,  // measure 104
0001
0000
1000
0000
0010
1000
0010
0000
,  // measure 105
1000
0001
0100
0010
,  // measure 106
1000
0000
0001
0000
0100
0001
0100
0000
,  // measure 107
0010
1000
0010
0100
,  // measure 108
0001
0000
0010
0000
1000
0001
1000
0000
,  // measure 109
0010
1000
0100
0010
,  // measure 110
0001
0000
0010
0000
0100
0010
0100
0000
,  // measure 111
0001
0010
1000
0100
,  // measure 112
0010
0000
0001
0000
1000
0001
1000
0000
,  // measure 113
0010
1000
0100
0010
,  // measure 114
0001
0000
0010
0000
0100
0010
0100
0000
,  // measure 115
0001
0000
1000
0000
0001
1000
0001
0000
,  // measure 116
0010
1000
0001
0100
,  // measure 117
0010
0100
0000
0100
0010
0000
0001
0000
,  // measure 118
2100
0000
0000
0100
0000
0000
3010
0000
,  // measure 119
0002
0000
0010
0000
,  // measure 120
0203
0000
0000
1000
0000
0000
1300
0000
,  // measure 121
0002
0000
0100
0000
,  // measure 122
0023
0000
0000
0100
0000
0000
0130
0000
,  // measure 123
2000
0000
0001
3000
,  // measure 124
0010
1000
0001
0100
,  // measure 125
0011
0000
1100
0000
,  // measure 126
0010
1000
0001
0100
,  // measure 127
0110
0000
1001
0010
,  // measure 128
1000
0100
0010
0001
,  // measure 129
0011
0000
0101
0010
,  // measure 130
0100
1000
0010
0010
,  // measure 131
1000
0001
0100
0100
,  // measure 132
0001
0000
0000
0100
0000
0000
1100
0000
,  // measure 133
1000
0000
0000
0010
0000
0000
0011
0000
,  // measure 134
0001
0010
0100
0010
0000
0001
0000
1000
,  // measure 135
0001
0000
1000
0000
0010
0100
0010
0000
,  // measure 136
0001
1000
0010
0100
0000
0001
0000
0010
,  // measure 137
0100
0000
1000
0000
0001
1000
0001
0000
,  // measure 138
0100
0001
0010
1000
0000
0010
0000
0001
,  // measure 139
0100
0000
1000
0000
0010
0001
0010
0000
,  // measure 140
1000
0100
0010
0001
0000
0001
0000
0100
,  // measure 141
0010
0000
1000
0000
0100
1000
0100
0000
,  // measure 142
1000
0010
0100
0001
0000
0001
0000
0100
,  // measure 143
0010
0000
1000
0000
0010
1000
0001
0000
,  // measure 144
0010
1000
0100
0001
0000
0010
0000
0100
,  // measure 145
1000
0000
0001
0000
1000
0010
0100
0000
,  // measure 146
0001
0010
0100
1000
0000
0010
0000
1000
,  // measure 147
1001
0000
0001
0000
1000
0010
0100
0000
,  // measure 148
0001
1000
0010
0100
0000
0010
0000
0010
,  // measure 149
0110
0000
1000
0000
0001
0100
0010
0000
,  // measure 150
0010
1000
0010
0100
0000
1001
0000
0100
,  // measure 151
0010
1000
0010
0100
0000
1001
0000
0100
,  // measure 152
0010
1000
0010
0100
0000
1001
0000
0100
,  // measure 153
0010
0000
1000
0000
0001
0100
0010
0000
,  // measure 154
1000
0100
0010
0001
0000
1001
0000
1001
,  // measure 155
0001
0010
0100
1000
0000
1001
0000
1001
,  // measure 156
1000
0010
0100
0001
0000
1001
0000
1001
,  // measure 157
0011
0000
1100
0000
0001
1000
0010
0110
;
