#TITLE:Lucy;
#SUBTITLE:;
#ARTIST:ELEBLOCK;
#TITLETRANSLIT:;
#SUBTITLETRANSLIT:;
#ARTISTTRANSLIT:;
#GENRE:beatmania IIDX;
#CREDIT:;
#BANNER:;
#BACKGROUND:;
#LYRICSPATH:;
#CDTITLE:;
#MUSIC:Lucy.ogg;
#OFFSET:0.977000;
#SAMPLESTART:66.745789;
#SAMPLELENGTH:15.000000;
#SELECTABLE:YES;
#BPMS:0.000000=156.000000
;
#STOPS:
;
#BGCHANGES:3.500=Lucy.mp4=1.000=0=0=0=StretchNoLoop====,
99999=-nosongbg-=1.000=0=0=0 // don't automatically add -songbackground-
;
#KEYSOUNDS:;
#ATTACKS:;

//---------------dance-single - ----------------
#NOTES:
     dance-single:
     :
     Hard:
     12:
     0.546316,0.554431,0.248014,0.120007,0.016001,478.000000,447.000000,31.000000,15.000000,0.000000,0.000000,0.546316,0.554431,0.248014,0.120007,0.016001,478.000000,447.000000,31.000000,15.000000,0.000000,0.000000:
// measure 0
0000
0000
0000
0000
,  // measure 1
0000
0000
0000
0000
,  // measure 2
0000
0000
0000
0000
,  // measure 3
0000
0000
0000
0000
,  // measure 4
0000
0000
0000
0000
,  // measure 5
0000
0000
0000
0000
,  // measure 6
0020
0000
0000
0000
,  // measure 7
0032
0000
0203
0000
,  // measure 8
2300
0000
0000
0000
0000
0000
0000
3010
,  // measure 9
0000
0001
0010
1000
0000
0001
1000
0000
,  // measure 10
1001
0010
1000
0100
0000
0010
0100
0001
,  // measure 11
0000
0001
0100
1000
0000
1000
0100
0010
,  // measure 12
0100
0001
0010
0100
0000
1000
0100
0001
,  // measure 13
0000
0001
0100
1000
0000
1000
1001
0000
,  // measure 14
0001
1000
0010
1000
0000
1000
0100
0010
,  // measure 15
0000
0100
0010
0001
0000
0001
0010
0100
,  // measure 16
0000
0010
0100
1000
0000
1000
0100
0001
,  // measure 17
0100
1000
0100
0010
0001
0010
0100
1000
,  // measure 18
0100
0100
0001
0100
0000
0001
0100
1000
,  // measure 19
0000
1000
0100
0001
0000
0001
1000
0010
,  // measure 20
0000
0010
1000
0001
0000
0001
0010
1000
,  // measure 21
0010
1000
0100
0010
0001
0100
0001
1000
,  // measure 22
0001
0010
0100
0010
0000
0010
0100
0001
,  // measure 23
0000
0001
0100
1000
0000
1000
0100
0001
,  // measure 24
0000
0001
0010
0100
0000
0100
0010
0011
,  // measure 25
0000
0100
1000
1100
0000
1001
0000
0101
,  // measure 26
0010
1000
0100
0010
0100
0001
0010
0100
,  // measure 27
1000
0000
1100
0000
0001
0000
1001
0001
,  // measure 28
0010
1000
0100
0010
0100
0001
0010
1000
,  // measure 29
0010
0000
1010
0000
1001
0000
0011
0001
,  // measure 30
0100
0010
1000
0100
0010
0100
0001
0010
,  // measure 31
1000
1100
0001
0101
,  // measure 32
0001
0010
0100
1000
0100
0010
0100
0001
,  // measure 33
0020
0100
0100
0130
,  // measure 34
0001
1000
0010
1000
0100
0001
0010
0100
,  // measure 35
0000
0010
0000
0100
0010
0100
0001
0010
,  // measure 36
0100
1000
0010
1000
0100
0010
0001
1000
,  // measure 37
0000
0001
0000
1000
0001
0010
1000
0100
,  // measure 38
0010
0000
1001
0000
0010
1000
0100
0001
,  // measure 39
0010
0000
0110
0000
0001
0010
1000
0100
,  // measure 40
0001
0000
0101
0000
0001
0010
1000
0100
,  // measure 41
0010
0000
1010
0000
0010
1000
0100
0101
,  // measure 42
0000
0001
0010
0100
0000
0010
0100
1000
,  // measure 43
0100
0010
0100
0010
0000
0001
1001
0000
,  // measure 44
1000
0100
0010
0100
0001
0010
0100
0000
,  // measure 45
0001
0010
0100
0010
1000
0100
0010
0000
,  // measure 46
0001
0010
0100
1000
0100
0010
0001
0010
,  // measure 47
0100
0010
0100
0010
0001
1000
0001
1000
,  // measure 48
0001
0010
1000
0100
0010
1000
0001
0000
,  // measure 49
0001
1000
0010
1000
0100
0001
0010
0000
,  // measure 50
0010
0100
1000
0100
0010
0100
0001
0010
,  // measure 51
0100
1000
0100
0010
0000
0010
0110
0000
,  // measure 52
0001
0010
0100
0010
1000
0100
0010
0000
,  // measure 53
1000
0100
0010
0100
0001
0010
0100
0000
,  // measure 54
1000
0100
0010
0001
0010
0100
1000
0100
,  // measure 55
0010
0100
0010
0100
1000
0001
1000
0001
,  // measure 56
1000
0100
0001
0010
0100
0001
1000
0000
,  // measure 57
1000
0001
0100
0001
0010
1000
0100
0000
,  // measure 58
0100
0010
0001
0010
0100
0010
1000
0100
,  // measure 59
0010
0001
0010
0100
0110
0000
1001
0000
,  // measure 60
0001
0010
0100
1000
0000
1001
0000
0010
,  // measure 61
1000
0000
0100
0000
0010
0001
0010
0001
0010
0000
0001
0000
0010
0000
0100
0000
,  // measure 62
2000
0000
0000
3020
0000
0031
0010
1000
,  // measure 63
0200
1300
0200
0301
,  // measure 64
1000
0100
0010
0001
0000
1001
0000
0100
,  // measure 65
0001
0000
0010
0000
0100
1000
0100
1000
0100
0000
1000
0000
0100
0000
0010
0000
,  // measure 66
0002
0000
0000
0203
0000
1300
0100
0001
,  // measure 67
0020
0031
0020
1030
,  // measure 68
0001
0010
1000
0100
0000
0010
1000
0001
,  // measure 69
0000
0001
0010
1000
0000
1000
0100
0001
,  // measure 70
0000
0001
0100
1000
0000
0010
1000
0001
,  // measure 71
0000
0001
1000
0010
0100
0001
0010
0100
,  // measure 72
1000
0010
0100
0101
0000
0001
0100
1100
,  // measure 73
0000
1000
0010
0011
0000
0001
0010
1010
,  // measure 74
0000
1000
0010
1001
0000
0001
0100
1001
,  // measure 75
0001
1000
0010
1000
0100
0010
0001
0010
,  // measure 76
0220
0000
0000
0000
,  // measure 77
0330
0000
0000
0000
;

//---------------dance-single - ----------------
#NOTES:
     dance-single:
     :
     Medium:
     9:
     0.395451,0.462026,0.240013,0.112006,0.000000,346.000000,316.000000,30.000000,14.000000,0.000000,0.000000,0.395451,0.462026,0.240013,0.112006,0.000000,346.000000,316.000000,30.000000,14.000000,0.000000,0.000000:
0000
0000
0000
0000
,
0000
0000
0000
0000
,
0000
0000
0000
0000
,
0000
0000
0000
0000
,
0000
0000
0000
0000
,
0000
0000
0000
0000
,
2000
0000
0000
0000
,
3200
0000
0320
0000
,
0032
0000
0000
0000
0000
0000
0003
1000
,
0000
0001
0010
0100
0000
0000
1001
0000
,
0010
0000
1000
0000
0001
1000
0010
1000
,
0001
1000
0010
0001
,
1000
0000
0010
0000
1000
0001
0100
0001
,
1000
0010
0100
1000
,
0001
0000
0100
0000
0010
0100
0001
0100
,
0010
1000
0001
0100
,
0010
0000
0001
0000
1000
0010
0100
1000
,
0010
0001
0100
1000
,
0010
0100
0010
0100
0000
0001
0000
1000
,
0000
0001
0000
1000
0000
0010
0000
0100
,
0000
0001
0000
0100
0000
1000
0000
0010
,
0000
1000
0100
0001
0000
0001
0010
1000
,
0000
0010
0000
1000
0000
0001
0000
0010
,
0000
1000
0000
0100
0000
0001
0000
0100
,
0000
0010
0000
1000
0000
0100
0000
0001
,
0000
0010
0100
0001
0000
1001
0000
0000
,
0010
1000
0100
0101
,
1000
0010
0100
1100
,
0010
1000
0001
0000
0001
1000
0010
0000
,
1000
0100
0010
0001
0100
0000
1100
0000
,
0100
0000
0001
0000
0010
1000
0010
0000
,
1000
0000
0100
0000
0001
0010
0001
0000
,
0010
1000
0001
0100
,
0010
0010
0110
1001
,
0010
1000
0100
0000
0001
0000
1001
0000
,
0001
0100
0010
0000
1000
0000
1001
0000
,
1000
0010
0100
0000
0010
0100
0001
0000
,
0001
1000
1001
0110
,
0001
0100
1000
0000
0010
0000
0110
0000
,
1000
0100
0001
0000
0100
0000
0110
0000
,
0001
1000
0010
0000
0100
0000
1001
0000
,
0010
1000
0100
0000
0010
0000
1001
0000
,
0220
0000
0000
0330
,
0100
0001
1000
0010
0100
0000
0001
0000
,
1000
0000
0100
0000
1000
0100
0001
0000
,
0100
0000
0010
0000
0100
0010
0001
0000
,
0001
0000
0010
0000
0001
0100
1000
0000
,
0010
0000
0100
0010
0000
0010
0100
0000
,
0001
0000
0000
0000
1000
0000
0100
1000
,
0100
0000
0000
0000
0001
0000
0100
0001
,
0100
1000
0100
0001
,
0101
1001
1001
0000
,
0001
0000
0010
0000
0001
0010
1000
0000
,
0010
0000
0100
0000
0010
0100
1000
0000
,
1000
0000
0100
0000
1000
0010
0001
0000
,
0100
0000
0010
0100
0000
0100
0010
0000
,
1000
0000
0000
0000
0001
0000
0010
0001
,
0010
0000
0000
0000
1000
0000
0010
1000
,
0010
0001
0010
1000
,
1010
1001
0101
1001
,
0021
0000
0000
0000
0031
0000
0001
1000
,
0010
0000
0100
0000
0001
0000
1000
0001
,
0100
0010
1000
0100
,
0001
0100
0001
0000
1000
0001
1000
0000
,
1200
0000
0000
0000
1300
0000
1000
0001
,
0100
0000
0010
0000
1000
0000
0001
1000
,
0010
0100
0001
0010
,
1000
0010
1000
0000
0001
1000
0001
0000
,
0002
0000
0100
0000
0103
0010
1000
0000
,
0001
0010
0100
0001
,
2000
0000
0010
0000
3010
0100
0001
0000
,
1000
0001
0100
0110
,
0002
0000
0100
0000
0103
0010
1000
0000
,
0001
0100
0010
0001
,
2000
0000
0010
0000
3010
0100
0001
0000
,
1000
1100
0101
1001
,
0220
0000
0000
0000
,
0330
0000
0000
0000
;

//---------------dance-single - ----------------
#NOTES:
     dance-single:
     :
     Easy:
     6:
     0.262872,0.308017,0.032002,0.272015,0.000000,230.000000,226.000000,4.000000,34.000000,0.000000,0.000000,0.262872,0.308017,0.032002,0.272015,0.000000,230.000000,226.000000,4.000000,34.000000,0.000000,0.000000:
0000
0000
0000
0000
,
0000
0000
0000
0000
,
0000
0000
0000
0000
,
0000
0000
0000
0000
,
0000
0000
0000
0000
,
0000
0000
0000
0000
,
1000
0100
1000
0000
,
0001
0100
0001
0000
,
1000
0010
1000
0000
,
0002
0000
2000
3003
,
0010
0100
0010
1000
,
0010
0100
0010
0001
,
0010
0100
0010
1000
,
0020
0000
0130
0000
,
0100
0010
0100
0001
,
0100
0010
0100
1000
,
0100
0010
0100
0001
,
0100
0010
0100
1000
,
0010
0100
0010
1000
,
0010
0100
0010
0001
,
0010
0100
0010
1000
,
0020
0000
0230
0000
,
0301
0100
0001
0100
,
1000
0100
1000
0100
,
1000
0010
1000
0010
,
0001
0010
0001
0010
,
0200
0000
0310
1000
,
0002
0000
0103
0000
,
2000
0000
3010
0000
,
0200
0310
0001
1000
,
0020
0000
0130
0000
,
0002
0000
1003
0000
,
0200
0000
1300
0000
,
0020
0000
0031
0100
,
0010
0010
0100
0100
,
0001
1000
0001
0000
,
0100
0010
0100
0010
,
0001
0001
1000
1000
,
0200
0000
1300
0010
,
0002
0000
0020
0003
,
0031
0010
0100
1000
,
0020
0000
2000
0030
,
3100
0001
0100
1000
,
0010
0010
0110
0000
,
0002
0000
1003
0010
,
2000
0000
3001
0010
,
0100
0010
0001
0010
,
0100
0100
0010
1000
,
0002
0000
0103
0010
,
2000
0000
3010
0010
,
0100
0001
1000
0100
,
0010
0010
1001
0000
,
0002
0000
0103
0010
,
2000
0000
3010
0001
,
0100
0000
1001
0000
,
0100
0000
1001
0010
,
2000
0001
0001
3001
,
0020
0000
0130
0000
,
0001
0100
1000
0100
,
0001
0001
1000
1000
,
0020
0000
0000
0000
,
0130
1000
0100
0001
,
0200
0000
0000
0000
,
0310
1000
0010
0001
,
0020
0000
0000
0000
,
0130
1000
0100
0001
,
0200
0000
0000
0000
,
0320
0000
0130
0001
,
1000
0100
0001
0010
,
1000
0100
0001
0010
,
0100
1000
0100
0001
,
0100
0100
0020
0000
,
0031
0010
1000
0100
,
0001
0010
1000
0100
,
0001
0010
0100
1000
,
0010
0010
0200
0000
,
0020
0000
0000
0000
,
0330
0000
0000
0000
;

//---------------dance-single - ----------------
#NOTES:
     dance-single:
     :
     Beginner:
     1:
     0.096005,0.152009,0.008000,0.000000,0.000000,84.000000,83.000000,1.000000,0.000000,0.000000,0.000000,0.096005,0.152009,0.008000,0.000000,0.000000,84.000000,83.000000,1.000000,0.000000,0.000000,0.000000:
0000
0000
0000
0000
,
0000
0000
0000
0000
,
0000
0000
0000
0000
,
0000
0000
0000
0000
,
0000
0000
0000
0000
,
0000
0000
0000
0000
,
0000
0000
0000
0000
,
0000
0000
0000
0000
,
0000
0000
0000
0000
,
0000
0000
0000
0000
,
0100
0000
0010
0000
,
0100
0000
0010
0000
,
0100
0000
0010
0000
,
0100
0000
0000
0000
,
0100
0000
0010
0000
,
0100
0000
0010
0000
,
0100
0000
0010
0000
,
0100
0000
0000
0000
,
0010
0000
0100
0000
,
0010
0000
0100
0000
,
0010
0000
0100
0000
,
0010
0000
0000
0000
,
0010
0000
0100
0000
,
0010
0000
0100
0000
,
0010
0000
0100
0000
,
0010
0000
0000
0000
,
1000
0000
0000
0000
,
0100
0000
0000
0000
,
1000
0000
0000
0000
,
0100
0000
0000
0000
,
0001
0000
0000
0000
,
0100
0000
0000
0000
,
0001
0000
0000
0000
,
0100
0000
0000
0000
,
1000
0000
0000
0000
,
0010
0000
0000
0000
,
1000
0000
0000
0000
,
0010
0000
0000
0000
,
0001
0000
0000
0000
,
0010
0000
0000
0000
,
0001
0000
0000
0000
,
0010
0000
0000
0000
,
1000
0000
0000
0000
,
0001
0000
0000
0000
,
1000
0000
0000
0000
,
0100
0000
0000
0000
,
0010
0000
0000
0000
,
0001
0000
0000
0000
,
1000
0000
0000
0000
,
0010
0000
0000
0000
,
0100
0000
0000
0000
,
0001
0000
0000
0000
,
0001
0000
0000
0000
,
0010
0000
0000
0000
,
0100
0000
0000
0000
,
1000
0000
0000
0000
,
0001
0000
0000
0000
,
0100
0000
0000
0000
,
0010
0000
0000
0000
,
1000
0000
0000
0000
,
0001
0000
0000
0000
,
0000
0000
0000
0000
,
1000
0000
0000
0000
,
0010
0000
0000
0000
,
0100
0000
0000
0000
,
0000
0000
0000
0000
,
0001
0000
0000
0000
,
0100
0000
0000
0000
,
0010
0000
0100
0000
,
0010
0000
0100
0000
,
0010
0000
0100
0000
,
0010
0000
0000
0000
,
0100
0000
0010
0000
,
0100
0000
0010
0000
,
0100
0000
0010
0000
,
0100
0000
0000
0000
,
1001
0000
0000
0000
;

//---------------dance-single - ----------------
#NOTES:
     dance-single:
     :
     Challenge:
     14:
     0.658323,0.677638,0.592033,0.056003,0.128007,576.000000,502.000000,74.000000,7.000000,124.000000,0.000000,0.658323,0.677638,0.592033,0.056003,0.128007,576.000000,502.000000,74.000000,7.000000,124.000000,0.000000:
// measure 0
0000
0000
0000
0000
,  // measure 1
0000
0000
0000
0000
,  // measure 2
0000
0000
0000
0000
,  // measure 3
0000
0000
0000
0000
,  // measure 4
0000
0000
0000
0000
,  // measure 5
0000
0000
0000
0000
,  // measure 6
1200
0000
2300
0000
3100
MMMM
1001
0000
,  // measure 7
0012
0000
0023
0000
0031
MMMM
1001
0000
,  // measure 8
0210
0000
0320
0000
0130
MMMM
1001
0010
,  // measure 9
0000
0000
0100
0000
0010
0000
1001
0000
0000
0000
0010
0000
0100
0001
1000
0000
,  // measure 10
0001
0010
0100
1000
0010
1000
0100
0010
,  // measure 11
0100
0001
0010
0100
1000
0010
1000
0100
,  // measure 12
0010
1000
0001
0010
0100
0010
1000
0001
,  // measure 13
0010
0010
0100
0100
1000
1000
0001
0001
,  // measure 14
0010
0100
0010
1000
0001
0100
0001
0100
,  // measure 15
0010
1000
0100
0010
1000
0001
0010
1000
,  // measure 16
0010
1000
0100
0010
0001
0010
0100
1000
,  // measure 17
0010
0010
0100
0100
0001
0001
1000
1000
,  // measure 18
0001
1000
0000
1001
MMMM
0110
0000
0001
,  // measure 19
0010
0000
0100
0000
1000
0100
0010
0001
0010
0100
1000
0000
0100
0000
0010
0000
,  // measure 20
0001
0100
1000
1001
0000
0001
0010
0100
,  // measure 21
1000
0100
1000
0000
0100
0010
0100
0000
0001
0010
0001
0000
1000
0001
1000
0000
,  // measure 22
1000
0001
0000
1001
MMMM
0110
0000
1000
,  // measure 23
0100
0000
0010
0000
0001
0010
0100
1000
0100
0010
0001
0000
0010
0000
0100
0000
,  // measure 24
1000
0010
0001
1001
0000
0001
0100
1100
,  // measure 25
MMMM
1000
0100
0101
MMMM
1001
MMMM
0001
,  // measure 26
0010
0100
1000
0100
0000
1100
0000
0010
,  // measure 27
0100
0001
0010
0001
0000
0011
0000
0001
,  // measure 28
0100
1000
0010
0100
0000
0110
0000
0001
,  // measure 29
0100
1000
0010
1000
0100
0001
1000
0001
,  // measure 30
0110
0000
1001
0000
0010
1000
0100
0010
,  // measure 31
0101
0000
0100
0000
1000
0010
0100
0001
,  // measure 32
1100
0000
0100
0000
0001
0010
0100
1000
,  // measure 33
0100
1000
0100
0000
0010
0001
0010
0000
0100
0010
0100
0000
0010
0001
1000
0000
,  // measure 34
0001
0010
0100
1000
0010
0100
0001
1001
,  // measure 35
0000
0010
1000
0100
0010
0100
0001
0101
,  // measure 36
0000
0010
0100
1000
0000
1000
0100
0010
,  // measure 37
0011
MMMM
0110
MMMM
1100
MMMM
1001
0001
,  // measure 38
0010
0100
1000
0010
0100
0001
0100
0010
,  // measure 39
1100
0000
0100
0001
0101
0000
0010
1000
,  // measure 40
1010
0001
0100
0010
1000
0010
0100
0001
,  // measure 41
1001
0000
0010
0100
1100
0000
0100
0110
,  // measure 42
0000
0001
0010
0100
0000
0100
1000
0010
,  // measure 43
1001
0100
0010
0100
0000
0100
1100
0000
,  // measure 44
0010
0100
0010
0100
0001
1000
0001
1000
,  // measure 45
0001
0010
1000
0100
0010
0100
0001
0100
,  // measure 46
0010
0000
1100
MMMM
0101
MMMM
1001
MMMM
,  // measure 47
0010
1000
0001
0100
0000
0110
MMMM
1001
,  // measure 48
0000
0010
1000
0001
0000
1001
MMMM
0110
,  // measure 49
0000
0001
0100
1000
0000
1100
MMMM
0101
,  // measure 50
0001
0010
0100
1000
0010
1000
0100
0001
,  // measure 51
0010
0000
0100
0000
0100
0000
0010
0000
0000
0000
0001
0000
1000
0001
1000
0000
,  // measure 52
0010
1000
0100
0010
0100
0001
0010
0100
,  // measure 53
1000
0010
1000
0001
0010
0100
1000
0010
,  // measure 54
0100
0001
0010
0100
1000
0010
1000
0001
,  // measure 55
0100
0100
0010
0010
1000
1000
0001
0001
,  // measure 56
0011
MMMM
1100
MMMM
0101
MMMM
1001
MMMM
,  // measure 57
1010
MMMM
1001
MMMM
0101
MMMM
0110
MMMM
,  // measure 58
0001
0010
0100
1000
0010
0100
0001
1000
,  // measure 59
1100
0000
0101
0001
1001
MMMM
0110
0000
,  // measure 60
0001
0010
0100
1000
0000
1100
0000
1000
,  // measure 61
0010
0000
0100
0000
0001
1000
0010
0100
0001
1000
0010
0000
0100
0000
0001
0000
,  // measure 62
0010
0100
1000
1100
0000
1000
0100
0010
,  // measure 63
0100
0010
0001
0000
1000
0100
0010
0000
0100
0001
0010
0000
1000
0010
0100
0000
,  // measure 64
1000
0100
0010
0001
0000
0011
0000
0001
,  // measure 65
0100
0000
0010
0000
1000
0001
0100
0010
1000
0001
0100
0000
0010
0000
1000
0000
,  // measure 66
0100
0010
0001
0011
0000
0001
0010
0100
,  // measure 67
0010
0100
1000
0000
0001
0010
0100
0000
0010
1000
0100
0000
0001
0100
0010
0000
,  // measure 68
0001
0010
0100
1100
0000
1000
0100
1100
,  // measure 69
0000
0001
0010
0011
0000
0010
1000
1010
,  // measure 70
0000
0001
1000
1001
0000
0010
1000
0100
,  // measure 71
0001
0100
0010
0100
1000
0100
1100
0000
,  // measure 72
1000
0010
0100
0110
MMMM
0001
0010
0011
,  // measure 73
MMMM
1000
0010
1010
MMMM
0001
1000
1001
,  // measure 74
MMMM
0010
0100
0110
MMMM
0001
1000
0110
,  // measure 75
0001
0000
0100
0000
0010
0000
1000
0000
0100
0000
0010
0000
0100
0001
1000
0010
,  // measure 76
0200
0000
0000
0000
,  // measure 77
0300
0000
0000
0000
;
