#TITLE:Little Star;
#SUBTITLE:;
#ARTIST:REDALiCE feat. Ayumi Nomiya;
#TITLETRANSLIT:;
#SUBTITLETRANSLIT:;
#ARTISTTRANSLIT:;
#GENRE:beatmania IIDX;
#CREDIT:;
#BANNER:;
#BACKGROUND:;
#LYRICSPATH:;
#CDTITLE:;
#MUSIC:Little Star.ogg;
#OFFSET:1.080000;
#SAMPLESTART:37.275013;
#SAMPLELENGTH:15.000000;
#LASTBEATHINT:0.122591;
#SELECTABLE:YES;
#DISPLAYBPM:183.000000;
#BPMS:0.000000=183.000000
;
#STOPS:
;
#BGCHANGES:;
#KEYSOUNDS:;
#ATTACKS:;

//---------------dance-single - ----------------
#NOTES:
     dance-single:
     :
     Beginner:
     3:
     0.127416,0.227696,0.017152,0.034304,0.000000,104.000000,102.000000,2.000000,4.000000,0.000000,0.000000,0.127416,0.227696,0.017152,0.034304,0.000000,104.000000,102.000000,2.000000,4.000000,0.000000,0.000000:
0000
0000
0000
0000
,
0000
0000
0000
0000
,
0000
0000
0000
0000
,
0000
0000
0000
0000
,
0000
0000
0000
0000
,
0000
0000
0000
0000
,
1000
0000
1000
0000
,
0100
0000
0100
0000
,
0010
0000
0010
0000
,
0001
0000
0001
0000
,
1000
0000
0000
0000
,
0010
0000
0000
0000
,
0100
0000
0000
0000
,
1000
0000
0000
0000
,
0001
0000
0000
0000
,
0100
0000
0000
0000
,
0010
0000
0000
0000
,
0001
0000
0000
0000
,
1000
0000
0000
0000
,
0010
0000
0000
0000
,
0100
0000
0000
0000
,
0001
0000
0000
0000
,
0001
0000
0000
0000
,
0100
0000
0000
0000
,
0010
0000
0000
0000
,
1000
0000
0000
0000
,
0010
0000
0000
0000
,
1000
0000
0000
0000
,
0001
0000
0000
0000
,
0000
0000
0000
0000
,
0001
0000
0001
0000
,
0100
0000
0000
0000
,
1000
0000
1000
0000
,
0100
0000
0000
0000
,
0001
0000
0001
0000
,
0010
0000
0000
0000
,
1000
0000
1000
0000
,
0010
0000
0000
0000
,
1000
0000
0100
0000
,
0010
0000
0000
0000
,
0001
0000
0010
0000
,
0100
0000
0000
0000
,
1000
0000
1000
0000
,
0001
0000
0001
0000
,
2002
0000
0000
0000
,
3003
0000
0000
0000
,
0100
0000
0000
0000
,
0010
0000
0000
0000
,
0000
0000
0000
0000
,
0000
0000
0000
0000
,
0000
0000
0000
0000
,
1000
0000
0000
0000
,
0001
0000
0000
0000
,
0100
0000
0000
0000
,
0010
0000
0000
0000
,
1000
0000
0000
0000
,
0100
0000
0000
0000
,
0010
0000
0000
0000
,
0001
0000
0000
0000
,
0001
0000
0000
0000
,
0010
0000
0000
0000
,
0100
0000
0000
0000
,
1000
0000
0000
0000
,
0000
0000
0000
0000
,
1000
0000
1000
0000
,
0010
0000
0000
0000
,
0001
0000
0001
0000
,
0010
0000
0000
0000
,
1000
0000
1000
0000
,
0100
0000
0000
0000
,
0001
0000
0001
0000
,
0100
0000
0000
0000
,
0001
0000
0010
0000
,
0100
0000
0000
0000
,
1000
0000
0100
0000
,
0010
0000
0000
0000
,
0001
0000
0001
0000
,
1000
0000
1000
0000
,
2002
0000
0000
0000
,
3003
0000
0000
0000
,
0010
0000
0000
0000
,
1000
0000
0100
0000
,
0010
0000
0000
0000
,
0001
0000
0010
0000
,
0100
0000
0000
0000
,
0001
0000
0001
0000
,
0010
0000
0010
0000
,
0100
0000
0100
0000
,
1000
0000
1000
0000
;

//---------------dance-single - ----------------
#NOTES:
     dance-single:
     :
     Easy:
     6:
     0.340594,0.456678,0.197251,0.566023,0.000000,278.000000,255.000000,23.000000,66.000000,0.000000,0.000000,0.340594,0.456678,0.197251,0.566023,0.000000,278.000000,255.000000,23.000000,66.000000,0.000000,0.000000:
0000
0000
0000
0000
,
0000
0000
0000
0000
,
0000
0000
0000
0000
,
0000
0000
0000
0000
,
0000
0000
0000
0000
,
0000
0000
0000
0000
,
1000
0100
1000
0100
,
0010
0100
0010
0100
,
0001
0010
0001
0010
,
1000
0001
2002
3003
,
0002
0000
0103
0000
,
2000
0000
3100
0000
,
0002
0000
0013
0000
,
2000
0000
0010
3010
,
0002
0000
0103
0000
,
2000
0000
3100
0000
,
0002
0000
0013
0000
,
2000
0000
0010
3010
,
0001
1000
0100
1001
,
0010
1000
0001
0100
,
1000
0100
0001
1001
,
0001
0100
0010
1000
,
0001
0100
1000
1001
,
1000
0010
0100
0001
,
1000
0000
0000
2000
0000
0000
0000
0000
,
3001
0000
0000
0002
0000
0000
0000
0000
,
0013
0000
0000
0020
0000
0000
0000
0000
,
0130
0000
0000
0100
0000
0000
0100
0000
,
0020
0000
0000
0000
,
0130
0000
0000
0000
,
1001
1001
0010
0100
,
1000
0100
0010
0001
,
1001
1001
0010
0010
,
1000
0100
0010
0001
,
0100
0010
2000
0000
,
0001
0001
3001
0000
,
0001
0100
0010
1000
,
1002
0000
1003
0000
,
0010
0100
1000
0001
,
0100
0010
1000
1001
,
0010
1000
0100
0010
,
0001
0100
1001
0000
,
0001
0000
0000
0001
0000
0000
1000
0000
,
0000
1000
0000
0000
0010
0000
0100
0000
,
0020
0000
0100
0000
0100
0000
0100
0030
,
0001
0100
0010
1000
,
2002
0000
0000
3003
,
0002
0000
0000
0103
,
0020
0000
2030
0000
,
3200
0320
0032
2003
,
3020
0000
0230
0000
,
0302
0000
0000
1003
,
0020
0000
2030
0000
,
3100
0020
0032
0000
,
0103
0020
2030
0000
,
3002
0000
0000
0203
,
0320
0000
2030
0000
,
3002
0023
0230
2300
,
3002
0000
2003
0000
,
3020
0000
0230
0302
,
2000
0003
3020
0230
,
0302
0000
2000
3003
,
0010
0010
0100
0100
,
2002
0000
0000
3003
,
1001
1001
0100
0010
,
0001
0010
0100
1000
,
1001
1001
0100
0100
,
0001
0010
0100
1000
,
0010
0100
0002
0000
,
1000
1000
1003
0000
,
1000
0010
0100
0001
,
2001
0000
3001
0000
,
0100
0010
0001
1000
,
0010
0100
0001
1001
,
0100
0001
0010
0100
,
1000
0010
1001
0000
,
1000
0000
0000
1000
0000
0000
0001
0000
,
0000
0001
0000
0000
0100
0000
0010
0000
,
0200
0000
0010
0000
0010
0000
0010
0300
,
1000
0010
0100
0001
,
2002
0000
0000
3003
,
1000
0100
0020
0000
,
0031
0010
0200
0000
,
0301
0100
0010
1000
,
0010
0100
2002
3003
,
0001
0010
0001
0010
,
0100
0010
0100
0010
,
1000
0100
1000
0100
,
0001
1000
2002
3003
;

//---------------dance-single - ----------------
#NOTES:
     dance-single:
     :
     Medium:
     9:
     0.474136,0.570847,0.214403,0.480262,0.021440,387.000000,362.000000,25.000000,56.000000,0.000000,0.000000,0.474136,0.570847,0.214403,0.480262,0.021440,387.000000,362.000000,25.000000,56.000000,0.000000,0.000000:
0000
0000
0000
0000
,
0000
0000
0000
0000
,
0000
0000
0000
0000
,
0000
0000
0000
0000
,
0000
0000
0000
0000
,
0000
0000
0000
0000
,
0010
0000
0100
0000
0001
1000
0010
0000
,
0100
0000
0010
0000
1000
0001
0100
0000
,
1000
0100
0010
0000
0100
0001
0010
0000
,
0100
0000
0000
0010
0000
0000
1000
0000
2002
0000
0000
0000
3003
0000
0000
0000
,
0010
0000
0200
0000
,
0310
1000
0001
0100
,
0020
0000
2030
0000
,
3001
0100
0010
1000
,
0002
0000
2003
0000
,
3010
0100
1000
0001
,
0200
0000
0302
0000
,
1003
0010
1001
0110
,
0001
0100
0010
0000
1000
0000
1001
0000
,
1000
0010
0100
0000
0001
0000
1001
0000
,
0001
0100
1000
0000
1000
0010
0001
0000
,
1000
0010
0100
0001
1000
0000
1001
0000
,
0001
0100
1000
0000
0001
0000
1001
0000
,
1000
0010
0001
0000
1000
0000
1001
0000
,
0002
0000
0000
0203
0000
0000
0000
0000
,
2300
0000
0000
3200
0000
0000
0000
0000
,
0302
0000
0000
0023
0000
0000
0000
0000
,
2030
0000
0000
3001
0000
0000
0100
0020
,
0000
0000
0100
0100
,
0200
0000
0000
0330
,
0001
0100
1000
0000
0001
0000
1001
0000
,
1000
0010
0001
0000
1000
0000
1001
0000
,
1000
0100
0010
0000
0001
0010
0100
0000
,
0010
0100
0010
0100
0001
1000
0001
0000
,
1000
0100
0010
0000
1001
0000
1001
0000
,
0001
0010
0100
0000
1001
0000
1001
0000
,
0020
0000
0000
0100
0000
0100
0000
0130
,
0000
0001
0000
1000
0000
0000
0000
0000
,
0020
0000
0130
0000
1000
0010
0100
0000
,
0002
0000
0103
0000
0010
1000
0001
0000
,
2000
0000
3010
0000
0100
0001
1000
0000
,
0010
0100
0001
0000
0001
1000
0010
0000
,
1000
0100
0000
0100
0010
0000
0010
0001
,
0000
0001
1000
0000
1000
0010
0100
0000
,
0002
0100
0100
0103
,
0010
0100
0010
0100
0001
1000
0001
1000
,
0020
0000
0000
0000
,
0230
0000
0000
2300
,
3020
0000
0000
0000
0230
0000
0000
0300
,
0002
0203
0320
2030
,
3002
0000
0203
0000
,
2300
0000
0000
3020
,
0230
0000
0320
0000
,
2030
3002
0203
0320
,
1030
0001
0100
0010
1000
0000
1001
0000
,
0010
1000
0100
0000
0010
0000
1001
0000
,
0010
0100
0001
0000
1000
0000
1001
0000
,
0001
0100
1000
0000
0010
0000
0110
0000
,
2000
0000
3002
0000
,
1003
0000
0010
0000
1000
0001
0100
0000
,
0010
0000
1000
0000
0001
0100
0020
0000
,
0130
0000
0001
0000
1000
0010
0200
0000
,
0310
0000
0001
0000
1000
0010
0100
0001
,
2000
0000
0001
3001
,
1000
0010
0001
0000
1000
0000
1001
0000
,
0001
0100
1000
0000
0001
0000
1001
0000
,
0001
0010
0100
0000
1000
0100
0010
0000
,
0100
0010
0100
0010
1000
0001
1000
0000
,
0001
0010
0100
0000
1001
0000
1001
0000
,
1000
0100
0010
0000
1001
0000
1001
0000
,
0200
0000
0000
0010
0000
0010
0000
0310
,
0000
1000
0000
0001
0000
0000
0000
0000
,
0200
0000
0310
0000
0001
0100
0010
0000
,
2000
0000
3010
0000
0100
0001
1000
0000
,
0002
0000
0103
0000
0010
1000
0001
0000
,
0100
0010
1000
0000
1000
0001
0100
0000
,
0001
0010
0000
0010
0100
0000
0100
1000
,
0000
1000
0001
0000
0001
0100
0010
0000
,
2000
0010
0010
3010
,
0100
0010
0100
0010
1000
0001
1000
0001
,
0200
0000
0000
0000
,
1300
0000
0010
0000
0100
0001
1000
0000
,
0010
0000
0100
0000
0001
1000
0010
0000
,
1000
0000
0000
0001
0000
0000
1000
0000
0001
0000
0000
1000
0000
0000
0001
0000
,
1000
0000
0000
0001
0000
0000
1000
0000
0002
0000
0000
0000
0000
0000
0000
0000
,
0103
0000
0010
0000
1000
0001
0100
0000
,
0010
0000
0100
0000
0001
1000
0010
0000
,
0001
0010
0100
0000
0010
1000
0100
0000
,
0010
0000
0000
0100
0000
0000
0001
0000
2002
0000
0000
0000
3003
0000
0000
0000
;

//---------------dance-single - ----------------
#NOTES:
     dance-single:
     :
     Hard:
     13:
     0.602778,0.799186,0.334468,0.454534,0.081473,492.000000,453.000000,39.000000,53.000000,0.000000,0.000000,0.602778,0.799186,0.334468,0.454534,0.081473,492.000000,453.000000,39.000000,53.000000,0.000000,0.000000:
// measure 0
0000
0000
0000
0000
,  // measure 1
0000
0000
0000
0000
,  // measure 2
0000
0000
0000
0000
,  // measure 3
0000
0000
0000
0000
,  // measure 4
0000
0000
0000
0000
,  // measure 5
0000
0000
0000
0000
,  // measure 6
1000
0010
0100
0001
0010
0100
1000
0010
,  // measure 7
0100
0001
1000
0010
0100
0001
1000
0000
,  // measure 8
0010
0100
1000
0001
0100
0010
1000
0001
,  // measure 9
1001
0000
0000
1001
0000
0000
0010
0000
0220
0000
0000
0000
0330
0000
0000
0000
,  // measure 10
2000
0000
0000
0100
0000
0000
0100
0000
,  // measure 11
0020
0000
3030
1001
,  // measure 12
0200
0000
0000
0010
0000
0000
0310
0000
,  // measure 13
0001
1000
0020
0000
0100
0000
0130
0000
,  // measure 14
0002
0000
0000
0100
0000
0000
0010
0000
,  // measure 15
0203
1000
0301
0100
,  // measure 16
0010
1000
0100
0000
0010
0100
0001
0000
,  // measure 17
1000
0000
0000
0110
0000
0000
0100
0000
1001
0000
0000
0000
0001
0000
0010
0000
,  // measure 18
1000
0100
0001
0100
1000
0000
1001
0000
,  // measure 19
0001
0010
1000
0010
0001
0000
1001
0000
,  // measure 20
1000
0010
0100
0001
1000
0010
0100
0001
,  // measure 21
1000
0001
0010
0100
1000
0000
1001
0000
,  // measure 22
1000
0010
0100
0001
1000
0000
1001
0000
,  // measure 23
0001
0100
0010
1000
0001
0000
1001
0000
,  // measure 24
1000
0000
0000
0100
0000
0000
0020
0000
0000
0000
0000
0000
0000
0000
0000
0000
,  // measure 25
0031
0000
0000
0100
0000
0000
0020
0000
0000
0000
0000
0000
0000
0000
0000
0000
,  // measure 26
1030
0000
0000
0010
0000
0000
0200
0000
0000
0000
0000
0000
0000
0000
0000
0000
,  // measure 27
0301
0000
0000
0100
0000
0000
0010
0000
0000
1000
0000
0000
0100
0000
0010
0000
,  // measure 28
0200
0010
0010
0010
,  // measure 29
0020
0000
0000
0330
,  // measure 30
0001
0100
1000
0010
0100
0001
1001
0000
,  // measure 31
1000
0010
0100
0001
1000
0001
1001
0000
,  // measure 32
0001
0100
1000
0000
0001
0010
1000
0000
,  // measure 33
1000
0010
0001
0010
1000
0010
0001
0010
,  // measure 34
1000
0100
0010
0100
0001
1000
1001
0000
,  // measure 35
0001
0100
0010
1000
0100
0001
1001
0000
,  // measure 36
0001
0000
0100
2000
0000
0010
0000
0100
,  // measure 37
0000
0001
0000
0020
0000
0000
3030
0000
,  // measure 38
0001
0100
1000
0010
0100
0001
1001
0000
,  // measure 39
1000
0010
0100
0001
1000
0001
1001
0000
,  // measure 40
0100
1000
0100
0001
0100
1000
0100
0001
,  // measure 41
0010
1000
0010
0001
0010
1000
0010
0001
,  // measure 42
1000
1010
0000
0010
0011
0000
0001
1001
,  // measure 43
0000
0001
0101
0001
1000
0010
0100
1000
,  // measure 44
0010
0100
0010
0100
0001
1000
0001
1000
,  // measure 45
0010
0000
0100
0000
1000
0000
0001
0000
0010
0100
0010
0100
0010
0100
0010
0100
,  // measure 46
0020
0000
0000
0000
,  // measure 47
0230
0000
0000
0302
,  // measure 48
0023
0000
2030
0000
,  // measure 49
3200
0302
0203
0320
,  // measure 50
2030
0000
3002
0000
,  // measure 51
0203
0000
0000
0302
,  // measure 52
2003
0000
3020
0000
,  // measure 53
0032
0000
0000
0000
0203
0000
0300
1000
,  // measure 54
0100
0110
0000
0001
0110
0000
0010
1000
,  // measure 55
0002
0000
0000
2003
,  // measure 56
3020
0000
0000
0000
0230
0000
0000
0010
,  // measure 57
0320
0000
2030
0000
3002
0000
0203
0010
,  // measure 58
0320
0100
2030
0001
,  // measure 59
3002
0000
0103
0000
0010
1000
0001
0100
,  // measure 60
0020
0000
1030
0000
0100
0001
1000
0010
,  // measure 61
0200
0010
0010
0310
,  // measure 62
0001
0100
0010
0100
1000
0010
1000
0001
,  // measure 63
0200
0000
0000
0310
,  // measure 64
1000
0010
0001
0100
0010
1000
1001
0000
,  // measure 65
0001
0100
0010
1000
0001
1000
1001
0000
,  // measure 66
1000
0010
0001
0000
1000
0100
0001
0000
,  // measure 67
0001
0100
1000
0100
0001
0100
1000
0100
,  // measure 68
0001
0010
0100
0010
1000
0001
1001
0000
,  // measure 69
1000
0010
0100
0001
0010
1000
1001
0000
,  // measure 70
1000
0000
0010
0002
0000
0100
0000
0010
,  // measure 71
0000
1000
0000
0200
0000
0000
0303
0000
,  // measure 72
1000
0010
0001
0100
0010
1000
1001
0000
,  // measure 73
0001
0100
0010
1000
0001
1000
1001
0000
,  // measure 74
0010
0001
0010
1000
0010
0001
0010
1000
,  // measure 75
0100
0001
0100
1000
0100
0001
0100
1000
,  // measure 76
0001
0101
0000
0100
1100
0000
1000
1001
,  // measure 77
0000
1000
1010
1000
0001
0100
0010
0001
,  // measure 78
0100
0010
0100
0010
1000
0001
1000
0001
,  // measure 79
0100
0000
0010
0000
0001
0000
1000
0000
0100
0010
0100
0010
0100
0010
0100
0010
,  // measure 80
0200
0000
0000
0000
,  // measure 81
1300
0000
0010
0100
0001
0000
1001
0000
,  // measure 82
0001
0000
0100
0010
1000
0000
1001
0000
,  // measure 83
0001
0000
0000
0100
0000
0000
1000
0000
0010
0000
0000
0100
0000
0000
0001
0000
,  // measure 84
1000
0000
0000
0010
0000
0000
0100
0000
0220
0000
0000
0000
0330
0000
0000
0000
,  // measure 85
0001
0100
0010
1000
0100
0010
0001
0100
,  // measure 86
0010
1000
0001
0100
0010
1000
0001
0000
,  // measure 87
0100
0010
0001
1000
0010
0100
0001
1000
,  // measure 88
1001
0000
0000
1001
0000
0000
0100
0000
0220
0000
0000
0000
0330
0000
0000
0000
;
