#TITLE:リリーゼと炎龍レーヴァテイン;
#SUBTITLE:;
#ARTIST:黒猫ダンジョン;
#TITLETRANSLIT:Lilieze to enryuu Laevateinn;
#SUBTITLETRANSLIT:;
#ARTISTTRANSLIT:Kuroneko Dungeon;
#GENRE:REFLEC BEAT;
#CREDIT:;
#BANNER:;
#BACKGROUND:;
#LYRICSPATH:;
#CDTITLE:;
#MUSIC:Lilieze to enryuu Laevateinn.ogg;
#OFFSET:0.680000;
#SAMPLESTART:81.513832;
#SAMPLELENGTH:15.000000;
#SELECTABLE:YES;
#BPMS:0.000000=200.000000
;
#STOPS:
;
#BGCHANGES:2.000=Lilieze to enryuu Laevateinn.avi=1.000=0=0=0=StretchNoLoop====,
99999=-nosongbg-=1.000=0=0=0 // don't automatically add -songbackground-
;
#KEYSOUNDS:;
#ATTACKS:;

//---------------dance-single - ----------------
#NOTES:
     dance-single:
     :
     Easy:
     7:
     0.415111,0.438389,0.269053,0.152464,0.008968,324.000000,294.000000,30.000000,17.000000,0.000000,0.000000,0.415111,0.438389,0.269053,0.152464,0.008968,324.000000,294.000000,30.000000,17.000000,0.000000,0.000000:
0000
0000
0000
0000
,
0000
0000
0000
0000
,
0000
0000
0000
0000
,
0000
0000
0000
0000
,
0000
0000
0000
0000
,
0100
0000
0010
0000
,
0100
0000
0010
0000
,
1000
0000
0001
0000
,
1000
0000
0001
0000
,
1000
0100
1000
0100
,
1100
0000
0101
0000
,
0001
0010
0001
0010
,
0011
0000
1010
0000
,
1000
0010
0100
0001
,
0011
0000
0101
0000
,
0001
0100
0010
1000
,
1100
0000
1010
0000
,
1000
0010
0100
0010
,
1000
0001
0100
0000
,
0001
0100
0010
0100
,
0001
0100
1000
0000
,
0010
0100
0001
0100
,
0010
1000
0100
0000
,
0010
1000
0010
0100
,
0010
0001
0100
0000
,
0001
1000
0100
1000
,
0001
0010
1000
0010
,
1000
0010
0001
0100
,
0010
0000
1000
0000
0001
0100
0010
1000
,
0000
0000
1000
0010
,
0100
0000
0001
0000
1000
0000
0001
1000
,
0000
0110
1000
0010
,
0100
0000
0001
0000
1000
0000
0010
0100
,
0000
0110
1000
0010
,
0100
0000
0001
0000
0010
0000
1000
0010
,
0000
1001
0010
1000
,
0010
0000
0100
0000
0001
0000
0001
0100
,
0000
1001
0010
1000
,
0100
0010
0001
1000
,
0010
0100
0010
0000
0001
0000
1000
0000
,
0010
0100
0010
1000
,
0001
1000
0001
0000
0010
0000
1000
0000
,
0100
0001
1000
0010
,
0100
0010
0100
0000
0001
0000
1000
0000
,
0010
1000
0100
0001
,
0010
0100
0010
0000
0001
0000
0000
0100
,
0000
0000
1000
0000
0000
0010
0000
0000
,
1010
0000
1010
0000
0010
0000
0000
0100
,
0000
0000
0001
0000
0000
1000
0000
0000
,
0101
0000
0101
0000
0010
0000
0000
0100
,
0000
0000
1000
0000
0000
0001
0000
0000
,
1001
0000
1001
0000
0010
0000
0000
1000
,
0000
0000
0001
0000
0000
0100
0000
0000
,
0110
0110
1000
0010
,
0100
0001
0100
0010
,
1000
0001
1000
0010
,
0100
0001
0100
0010
,
1000
0010
1000
0100
,
0010
0001
1000
0010
,
0100
0001
1000
0100
,
0001
0100
1000
0100
,
0001
0100
0010
0100
,
0220
0000
0330
0000
,
0001
0000
1000
0000
0001
0000
2002
0000
0000
0000
0000
0000
,
3003
0000
0100
1000
,
2200
3300
0010
0001
,
0022
0033
0001
1000
,
2002
0000
0000
0000
,
3003
0000
0001
0100
,
0010
1000
0010
0100
,
0001
0100
0010
0000
1000
0000
0010
0000
,
0100
0001
0010
1000
,
0010
0100
1000
0000
0010
0000
0100
0000
,
0001
1000
0010
0100
,
1000
0000
0001
0000
0101
0000
0000
1100
,
0000
0000
1001
0000
0020
0000
0000
0130
,
0000
0001
1000
0010
,
0100
0001
0010
1000
,
0001
1000
0001
0000
0010
0000
1000
0000
,
0100
0010
0001
1000
,
0010
0100
0010
0000
0001
0000
0100
0000
,
0010
1000
0001
0100
,
0010
0000
1000
0000
0100
0000
0000
1000
,
0000
0000
0100
0000
0000
1000
0000
0000
,
1100
0000
0000
0000
0010
0000
0000
0001
,
0000
0000
0010
0000
0000
0001
0000
0000
,
0011
0000
0000
0000
0200
0000
0000
0320
,
0000
0000
2030
0000
0000
3002
0000
0000
,
0203
0000
0000
0320
0000
0000
0100
0130
;

//---------------dance-single - ----------------
#NOTES:
     dance-single:
     :
     Beginner:
     4:
     0.179369,0.239121,0.080716,0.206274,0.000000,140.000000,131.000000,9.000000,23.000000,0.000000,0.000000,0.179369,0.239121,0.080716,0.206274,0.000000,140.000000,131.000000,9.000000,23.000000,0.000000,0.000000:
0000
0000
0000
0000
,
0000
0000
0000
0000
,
0000
0000
0000
0000
,
0000
0000
0000
0000
,
0000
0000
0000
0000
,
1000
0000
0000
0000
0000
0100
0000
0000
,
0000
0000
0010
0000
0000
0000
0000
0001
,
0000
0000
1000
0000
,
0000
0001
0000
0000
0000
0000
0000
0000
,
0110
0000
0100
0000
,
0010
0000
0000
0000
,
1001
0000
1000
0000
,
0001
0000
0000
0000
,
1100
0000
1000
0000
,
0100
0000
0000
0000
,
0011
0000
0001
0000
,
0010
0000
0000
0000
,
0100
0000
0010
0000
,
1000
0000
0010
0000
,
0100
0000
0001
0000
,
0100
0000
0010
0000
,
0001
0000
0100
0000
,
1000
0000
0010
0000
,
1000
0000
0100
0000
,
0001
0000
0010
0000
,
0200
0000
0000
0000
,
0320
0000
0000
0000
,
2030
0000
0000
0000
,
3002
0000
0000
0000
,
0003
0000
1000
0000
,
0100
0000
0010
0000
,
0000
0000
0100
0000
,
0010
0000
0001
0000
,
0000
0000
1000
0000
,
0100
0000
0001
0000
,
0000
0000
1000
0000
,
0010
0000
0001
0000
,
0000
0000
0100
0000
,
1000
0000
0100
0000
,
0100
0000
0001
0000
,
0010
0000
0001
0000
,
0001
0000
1000
0000
,
0010
0000
1000
0000
,
1000
0000
0010
0000
,
0001
0000
0010
0000
,
0010
0000
0200
0000
,
0000
0000
0300
0000
,
0100
0000
0020
0000
,
0000
0000
0030
0000
,
0010
0000
2000
0000
,
0000
0000
3000
0000
,
1000
0000
0002
0000
,
0000
0000
0000
0003
0000
0000
0000
0000
,
0001
0000
1000
0000
,
0100
0000
0010
0000
,
0001
0000
1000
0000
,
0010
0000
0100
0000
,
0001
0000
0100
0000
,
0010
0000
1000
0000
,
0001
0000
0100
0000
,
0100
0000
0010
0000
,
0010
0000
2002
0000
,
3003
0000
0000
0000
,
0220
0000
0330
0000
,
0000
0000
2200
0000
,
3300
0000
0220
0000
,
0330
0000
0022
0000
,
0033
0000
0000
0000
,
0000
0000
1000
0000
,
0100
0000
1000
0000
,
0100
0000
0010
0000
,
0100
0000
0020
0000
,
0030
0000
0001
0000
,
0010
0000
0001
0000
,
0010
0000
0100
0000
,
0010
0000
0200
0000
,
0300
0000
1000
0000
,
0100
0000
0010
0000
,
0001
0000
1000
0000
,
0100
0000
0020
0000
,
0030
0000
0001
0000
,
0010
0000
0100
0000
,
1000
0000
0001
0000
,
0001
0000
2000
0000
,
3000
0000
0010
0000
,
0010
0000
0200
0000
,
0300
0000
1000
0000
,
0000
0010
0000
0000
,
0100
0000
0000
0000
0000
0000
0001
0001
;

//---------------dance-single - ----------------
#NOTES:
     dance-single:
     :
     Medium:
     11:
     0.586793,0.717364,0.394612,0.278022,0.017937,458.000000,414.000000,44.000000,31.000000,0.000000,0.000000,0.586793,0.717364,0.394612,0.278022,0.017937,458.000000,414.000000,44.000000,31.000000,0.000000,0.000000:
// measure 0
0000
0000
0000
0000
,  // measure 1
0000
0000
0000
0000
,  // measure 2
0000
0000
0000
0000
,  // measure 3
0000
0000
0000
0000
,  // measure 4
0000
0000
0000
0000
,  // measure 5
1000
0000
0100
0000
1000
0010
0100
0001
,  // measure 6
0100
0000
0010
0000
0100
0001
0100
0010
,  // measure 7
1000
0000
0010
0000
0100
0010
1000
0001
,  // measure 8
0100
0000
0010
0000
0010
0100
0001
1000
,  // measure 9
0020
0000
0000
0030
0200
0000
0000
0000
,  // measure 10
0302
0000
0000
0003
1000
0000
0010
0100
,  // measure 11
0002
0000
0203
0000
,  // measure 12
0320
0000
0000
0000
1030
0000
0010
0100
,  // measure 13
0002
0000
0203
0000
,  // measure 14
2300
0000
0000
0000
3020
0000
0130
0001
,  // measure 15
1000
0000
0020
0000
,  // measure 16
0230
0000
0000
0300
0001
1000
0001
0000
,  // measure 17
0010
0000
1000
0000
0010
0100
0001
0000
,  // measure 18
0010
0100
1000
0000
0010
0000
1001
0000
,  // measure 19
0010
0000
0100
0000
0010
1000
0001
0000
,  // measure 20
0100
0001
1000
0000
0010
0000
0110
0000
,  // measure 21
0001
0100
0010
0000
1000
0010
0100
0000
,  // measure 22
0001
0100
0010
1000
0001
0000
1001
0000
,  // measure 23
1000
0010
0100
0000
0001
0100
0010
0000
,  // measure 24
1000
0010
0100
0001
1000
0000
1001
0000
,  // measure 25
0020
0000
0000
2030
0000
0000
3002
0000
,  // measure 26
0000
0203
0000
0000
0320
0000
0000
2030
,  // measure 27
0000
0000
3002
0000
0000
0203
0000
0000
,  // measure 28
0320
0000
0000
1030
0100
0010
0001
1000
,  // measure 29
0000
0000
1001
0000
1000
0010
0100
0000
,  // measure 30
0001
0100
0000
0010
0100
0000
1000
0100
,  // measure 31
0000
0000
1001
0000
0010
1000
0001
0000
,  // measure 32
0100
0010
0000
1000
0010
0000
0100
0001
,  // measure 33
0000
0000
1001
0000
0001
0100
0010
0000
,  // measure 34
1000
0010
0000
0010
0100
0000
0001
0010
,  // measure 35
0000
0000
1001
0000
0010
0100
0001
0000
,  // measure 36
0001
0010
0000
0010
0100
0000
1000
0010
,  // measure 37
0000
0000
1001
0000
0001
1000
0100
0000
,  // measure 38
0100
0001
1000
0000
0010
0100
0001
1000
,  // measure 39
0010
0000
0110
0000
1000
0010
0100
0000
,  // measure 40
0010
0100
0001
0000
0001
0100
0010
1000
,  // measure 41
0001
0000
1001
0000
0010
1000
0100
0000
,  // measure 42
0001
0100
0010
0000
1000
0010
0100
0001
,  // measure 43
1000
0000
1001
0000
0001
0100
0010
0000
,  // measure 44
0010
1000
0100
0000
0010
0001
0010
0100
,  // measure 45
1000
0000
1001
0000
0010
0000
1000
0100
,  // measure 46
0000
0100
0010
0000
0010
0001
0000
0000
,  // measure 47
1001
0000
1001
0000
0001
0000
0001
0010
,  // measure 48
0000
0010
0100
0000
0100
1000
0000
0000
,  // measure 49
1001
0000
1001
0000
1000
0000
0010
1000
,  // measure 50
0000
0010
0100
0000
0001
0100
0000
0000
,  // measure 51
0101
0000
0101
0000
0001
0000
0001
0100
,  // measure 52
0000
0010
0100
0000
0010
1000
0000
0000
,  // measure 53
1001
0000
1001
0000
0010
1000
0001
0000
,  // measure 54
0100
0000
1001
0000
0010
0100
1000
0000
,  // measure 55
0010
0000
0011
0000
1000
0010
0001
0000
,  // measure 56
0100
0000
1100
0000
1000
0010
0100
0001
,  // measure 57
1000
1001
0010
0100
,  // measure 58
0010
1000
0001
0100
,  // measure 59
0010
0000
1000
0000
0001
0100
0010
0000
,  // measure 60
1000
0010
0100
0000
0001
0010
0100
1000
,  // measure 61
0010
0100
0001
0010
0100
0000
0100
0000
,  // measure 62
2200
0000
3300
0000
,  // measure 63
0001
0000
0100
0000
0010
0000
2020
0000
0000
3030
0000
0000
,  // measure 64
1000
0001
0100
0000
0010
0000
0001
0000
,  // measure 65
0022
0033
0100
0010
,  // measure 66
0220
0330
0100
1000
,  // measure 67
2200
0000
3300
0000
,  // measure 68
0010
0000
0100
0000
0010
0000
0100
0000
0000
0000
0000
0000
0001
0000
0000
0000
0000
0000
0010
0000
0000
0100
0000
0000
,  // measure 69
0000
1000
0010
0000
0001
1000
0010
0100
,  // measure 70
0001
0000
1001
0000
0010
0000
1000
0100
,  // measure 71
0000
0100
0010
0000
0001
0100
0010
1000
,  // measure 72
0001
0000
1001
0000
0001
0100
0010
1000
,  // measure 73
0000
1000
1010
0000
0010
1000
0001
0100
,  // measure 74
0000
0010
0011
0000
0001
0100
1000
0001
,  // measure 75
0000
0000
1001
0000
0110
0000
0000
1001
,  // measure 76
0000
0000
0010
1000
0001
0000
0001
1000
,  // measure 77
0000
1000
0010
0000
0100
0010
1000
0001
,  // measure 78
0100
0000
0101
0000
0010
0000
0100
0010
,  // measure 79
0000
0010
1000
0000
0001
0100
0010
1000
,  // measure 80
0001
0000
1001
0000
0010
1000
0100
0001
,  // measure 81
0100
0000
1001
0000
0001
0100
0010
1000
,  // measure 82
0010
0000
1010
0000
0010
1000
0000
1000
,  // measure 83
0010
0000
0010
0001
0000
0001
0010
0000
,  // measure 84
0010
0110
0000
0000
0001
0100
0000
0100
,  // measure 85
0010
0000
0010
1000
0000
1000
0001
0000
,  // measure 86
0001
1001
0000
0000
0001
0100
1000
0100
,  // measure 87
0001
0100
1000
0010
0001
0010
1000
0010
,  // measure 88
0001
0010
0100
1000
0100
0010
0100
0110
;

//---------------dance-single - ----------------
#NOTES:
     dance-single:
     :
     Hard:
     14:
     0.799473,0.797071,0.520170,0.035874,0.215243,624.000000,566.000000,58.000000,4.000000,0.000000,0.000000,0.799473,0.797071,0.520170,0.035874,0.215243,624.000000,566.000000,58.000000,4.000000,0.000000,0.000000:
// measure 0
0000
0000
0000
0000
,  // measure 1
0000
0000
0000
0000
,  // measure 2
0000
0000
0000
0000
,  // measure 3
0000
0000
0000
0000
,  // measure 4
0000
0000
0000
0000
,  // measure 5
1000
0100
0010
0100
0001
0100
0010
1000
,  // measure 6
0010
0100
0001
0010
0100
1000
0010
1000
,  // measure 7
0100
0010
0100
0001
0010
1000
0100
0010
,  // measure 8
0001
0100
0010
1000
0001
0100
0010
0100
,  // measure 9
0001
0000
0000
1000
0010
0100
0001
0000
0000
0001
0000
0000
,  // measure 10
1001
0000
0000
0001
0100
0010
1000
0000
0000
0001
0000
0000
,  // measure 11
1001
0000
0000
1000
0010
0100
0001
0000
0000
0001
0000
0000
,  // measure 12
1001
0000
0000
0001
0100
0010
1000
0000
0000
0001
0000
0000
,  // measure 13
1001
0000
0000
0010
1000
0010
0100
0000
0000
0001
0000
0000
,  // measure 14
1001
0000
0000
0010
0100
0001
0100
0000
0000
0010
0000
0000
,  // measure 15
0110
0000
0000
0001
1000
0010
0100
0000
0000
0010
0000
0000
,  // measure 16
0110
0000
0000
0100
0000
0000
0001
1000
0001
0100
0000
0000
,  // measure 17
0010
0000
0000
0100
0000
0000
0001
1000
0001
1000
0000
0000
,  // measure 18
0010
0100
0010
0100
0000
0000
0001
0000
0000
1001
0000
0000
,  // measure 19
0010
0000
0000
1000
0000
0000
0100
1000
0100
1000
0000
0000
,  // measure 20
0010
0001
0010
0001
0000
0000
1000
0000
0000
1001
0000
0000
,  // measure 21
0001
0000
0000
0100
0000
0000
1000
0100
0010
0100
0000
0000
,  // measure 22
0001
0010
0100
0010
0000
0000
0001
0000
0000
1001
0000
0000
,  // measure 23
0010
0000
0000
0100
0000
0000
0010
1000
0010
0100
0000
0000
,  // measure 24
0010
0100
0001
0100
0000
0000
0010
0000
0000
0110
0000
0000
,  // measure 25
0100
0010
1000
0001
0100
0010
0100
1000
,  // measure 26
0100
0010
0001
0100
0010
1000
0001
0100
,  // measure 27
0010
0001
0100
1000
0010
1000
0100
0010
,  // measure 28
0001
0100
0010
1000
0001
0001
0001
0001
,  // measure 29
0000
0000
0000
0000
0001
1000
0001
1000
0001
0000
0100
0000
0010
0000
0100
0000
,  // measure 30
0001
0010
1000
0100
0110
0000
0001
1001
,  // measure 31
0000
1000
1100
0000
0100
0010
0100
0001
,  // measure 32
0010
0100
1000
0010
0100
0000
0010
0110
,  // measure 33
0000
0000
0001
0000
0001
1000
0001
0000
1000
0000
0010
0000
0100
0000
0010
0000
,  // measure 34
1000
0100
0001
0010
0110
0000
1000
1001
,  // measure 35
0000
0001
0011
0000
0010
0100
0010
1000
,  // measure 36
0100
0010
0001
0100
0010
0000
0100
0110
,  // measure 37
0000
0000
1000
0000
1000
0001
1000
0000
0010
0000
1000
0000
0100
0000
0010
0000
,  // measure 38
0100
0001
0010
0100
1000
1000
0010
0010
,  // measure 39
0100
0100
0001
0001
0100
0010
1000
0001
,  // measure 40
0010
0100
1000
0010
0001
0001
0100
0100
,  // measure 41
0010
0010
1000
1000
0001
0100
0010
1000
,  // measure 42
0100
0010
0100
0001
0010
0010
0100
0100
,  // measure 43
0001
0001
1000
1000
0010
0100
0001
0010
,  // measure 44
1000
0100
0010
0100
0001
0001
1000
1000
,  // measure 45
0010
0010
0100
0100
0001
0010
0100
1000
,  // measure 46
0000
1000
0100
0010
0001
0010
0000
1000
,  // measure 47
0001
1000
1001
0000
1000
0010
0100
0001
,  // measure 48
0000
1000
0001
1000
0010
0100
0000
0100
,  // measure 49
0010
0100
1001
0000
1000
0100
0010
0001
,  // measure 50
0000
0001
0010
0100
1000
0100
0000
0001
,  // measure 51
1000
0001
1001
0000
0001
0100
0010
1000
,  // measure 52
0000
0001
1000
0001
0100
0010
0000
0010
,  // measure 53
0100
0010
1001
0000
0001
1000
0100
0010
,  // measure 54
0100
0001
0010
0100
1000
0010
1000
0100
,  // measure 55
0010
0000
1001
0000
0010
1000
0100
0010
,  // measure 56
0100
0001
0010
0100
1000
0010
0100
0001
,  // measure 57
0010
0000
0110
0000
1000
0001
0010
0100
,  // measure 58
0010
1000
0100
0010
0001
0100
0001
0010
,  // measure 59
0100
0000
1001
0000
0100
0001
0010
0100
,  // measure 60
0010
1000
0100
0010
0001
0100
0010
1000
,  // measure 61
0100
0110
1100
0100
,  // measure 62
2002
0000
0000
3003
0000
0000
0001
1000
0001
1000
0000
0000
,  // measure 63
0010
0000
1000
0000
0001
0000
2002
0000
0000
3003
0000
0000
,  // measure 64
0010
0100
0010
0100
0000
0000
0001
0000
0000
0010
0000
0000
,  // measure 65
1100
1000
0010
0001
,  // measure 66
0011
0001
0100
0010
,  // measure 67
0110
0000
0000
0001
0000
0000
0100
0000
0000
0001
0010
0001
,  // measure 68
0010
0000
0100
0000
0010
0000
1000
0000
0100
0000
1000
0000
0010
0000
0000
0100
0000
0000
0001
0000
0000
1000
0000
0000
,  // measure 69
0010
0100
0010
1000
0010
0100
0001
1000
,  // measure 70
0010
0000
0110
0000
0010
1000
0001
0100
,  // measure 71
0010
0001
0100
0010
1000
0100
0010
0100
,  // measure 72
0001
0000
1001
0000
0010
0100
1000
0001
,  // measure 73
0010
0100
1000
0010
0100
0010
0100
0001
,  // measure 74
0010
1000
1010
0000
1001
0000
1000
1100
,  // measure 75
0000
0100
0101
0000
0001
0100
1000
1001
,  // measure 76
0000
0001
0011
0000
0100
0010
1000
0001
,  // measure 77
0100
0010
0100
0001
0100
0010
1000
0001
,  // measure 78
0100
0000
0110
0000
0100
0001
1000
0010
,  // measure 79
0100
1000
0010
0100
0001
0010
0100
0010
,  // measure 80
1000
0000
1001
0000
0100
0010
0001
1000
,  // measure 81
0100
0010
0001
0100
0010
0100
0010
1000
,  // measure 82
0100
0001
0101
0000
0001
0101
0000
0100
,  // measure 83
1100
0000
1000
1010
0000
0010
0011
0000
,  // measure 84
1001
1001
0000
0000
1000
1010
0000
0010
,  // measure 85
0011
0000
0001
0101
0000
0100
1100
0000
,  // measure 86
1001
1001
0000
0000
0001
0010
0100
1000
,  // measure 87
0010
1000
0100
0010
0100
0001
0010
0100
,  // measure 88
1000
0010
0100
0001
0010
0100
0110
0110
;
