#TITLE:Light Shine;
#SUBTITLE:;
#ARTIST:Ryu☆;
#TITLETRANSLIT:;
#SUBTITLETRANSLIT:;
#ARTISTTRANSLIT:;
#GENRE:beatmania IIDX;
#CREDIT:;
#BANNER:;
#BACKGROUND:;
#LYRICSPATH:;
#CDTITLE:;
#MUSIC:Light Shine.ogg;
#OFFSET:1.280000;
#SAMPLESTART:56.951275;
#SAMPLELENGTH:15.000000;
#LASTBEATHINT:0.571984;
#SELECTABLE:YES;
#BPMS:0.000000=140.000000
;
#STOPS:
;
#BGCHANGES:;
#KEYSOUNDS:;
#ATTACKS:;

//---------------dance-single - ----------------
#NOTES:
     dance-single:
     :
     Beginner:
     1:
     0.089719,0.140356,0.009516,0.000000,0.000000,66.000000,65.000000,1.000000,0.000000,0.000000,0.000000,0.089719,0.140356,0.009516,0.000000,0.000000,66.000000,65.000000,1.000000,0.000000,0.000000,0.000000:
0000
0000
0000
0000
,
0000
0000
0000
0000
,
0000
0000
0000
0000
,
0000
0000
0000
0000
,
0000
0000
0000
0000
,
0000
0000
0000
0000
,
1000
0000
1000
0000
,
0001
0000
0001
0000
,
1000
0000
0000
0000
,
0010
0000
0000
0000
,
0100
0000
0000
0000
,
0001
0000
0000
0000
,
0001
0000
0000
0000
,
0100
0000
0000
0000
,
0010
0000
0000
0000
,
1000
0000
0000
0000
,
0000
0000
0000
0000
,
1000
0000
0100
0000
,
1000
0000
0000
0000
,
0001
0000
0010
0000
,
0001
0000
0000
0000
,
1000
0000
0010
0000
,
1000
0000
0000
0000
,
0001
0000
0100
0000
,
0001
0000
0000
0000
,
1000
0000
0000
0000
,
0010
0000
0000
0000
,
0100
0000
0000
0000
,
0001
0000
0000
0000
,
0001
0000
0000
0000
,
0100
0000
0000
0000
,
0010
0000
0000
0000
,
1000
0000
0000
0000
,
0000
0000
0000
0000
,
1000
0000
0100
0000
,
1000
0000
0000
0000
,
0001
0000
0010
0000
,
0001
0000
0000
0000
,
1000
0000
0010
0000
,
1000
0000
0000
0000
,
0001
0000
0100
0000
,
0001
0000
0000
0000
,
0000
0000
0000
0000
,
1000
0000
0000
0000
,
0100
0000
0000
0000
,
0010
0000
0000
0000
,
0001
0000
0000
0000
,
0001
0000
0000
0000
,
0010
0000
0000
0000
,
0100
0000
0000
0000
,
1000
0000
0000
0000
,
0010
0000
0000
0000
,
0010
0000
0010
0000
,
0100
0000
0000
0000
,
0100
0000
0100
0000
,
0001
0000
0000
0000
,
0001
0000
0001
0000
,
1000
0000
0000
0000
,
1000
0000
1000
0000
,
1001
0000
0000
0000
;

//---------------dance-single - ----------------
#NOTES:
     dance-single:
     :
     Easy:
     5:
     0.282751,0.308783,0.190313,0.142735,0.000000,208.000000,188.000000,20.000000,15.000000,0.000000,0.000000,0.282751,0.308783,0.190313,0.142735,0.000000,208.000000,188.000000,20.000000,15.000000,0.000000,0.000000:
0000
0000
0000
0000
,
0000
0000
0000
0000
,
0000
0000
0000
0000
,
0000
0000
0000
0000
,
0000
0000
0000
0000
,
0000
0000
0000
0000
,
1000
0100
0010
0001
,
0000
0001
1000
1001
,
0001
0100
1000
0100
,
0010
0010
0110
0000
,
1000
0100
0010
0001
,
0100
0100
0110
0000
,
0001
0010
1000
0010
,
0100
0100
0110
0000
,
1000
0100
0010
0001
,
0100
0100
0110
0000
,
0000
0000
0001
1001
,
0100
1000
0100
0001
,
0010
1000
0010
0001
,
0100
0001
0100
1000
,
0010
0100
0001
1001
,
1000
0010
0100
0001
,
0001
0100
0010
1000
,
0001
0001
1000
1000
,
0010
0100
0220
0330
,
1000
1000
0100
0010
,
0001
0001
0100
0010
,
1000
1000
0010
0100
,
0001
0001
0010
0100
,
1000
0100
0220
0330
,
0001
0010
0220
0330
,
1000
0100
2002
3003
,
0001
0100
2002
3003
,
0020
0100
0100
0130
,
1000
0100
0010
0001
,
0100
0100
0110
0000
,
0001
0010
0100
1000
,
0010
0010
0110
0000
,
1000
0010
0100
0001
,
1000
1000
1001
0000
,
0001
0100
0010
1000
,
0001
0001
1001
0000
,
0000
0010
0100
0110
,
0001
0100
0000
0100
,
1000
0100
0000
0100
,
0001
0100
0000
0100
,
1000
0100
0010
0100
,
1000
0100
0000
0100
,
0001
0100
0000
0100
,
1000
0100
0000
0100
,
0001
0100
0010
0100
,
0001
0100
0010
1000
,
0010
0010
0100
0100
,
1000
0010
0100
0001
,
0100
0100
0220
0330
,
0001
0100
0010
1000
,
0010
0010
0100
0100
,
1000
0010
0100
0001
,
0010
0010
0220
0330
,
1001
0000
0000
0000
;

//---------------dance-single - ----------------
#NOTES:
     dance-single:
     :
     Medium:
     7:
     0.320813,0.364925,0.180797,0.218860,0.000000,236.000000,217.000000,19.000000,23.000000,0.000000,0.000000,0.320813,0.364925,0.180797,0.218860,0.000000,236.000000,217.000000,19.000000,23.000000,0.000000,0.000000:
// measure 0
0000
0000
0000
0000
,  // measure 1
0000
0000
0000
0000
,  // measure 2
0000
0000
0000
0000
,  // measure 3
0000
0000
0000
0000
,  // measure 4
0000
0000
0000
0000
,  // measure 5
0000
0000
0000
0000
,  // measure 6
0010
0000
0100
0000
0001
0100
0010
1000
,  // measure 7
0000
0010
0100
0000
0001
0000
1001
0000
,  // measure 8
1000
0100
0010
0001
,  // measure 9
1000
0001
2002
3003
,  // measure 10
0001
0100
0010
1000
,  // measure 11
0001
1000
2002
3003
,  // measure 12
1000
0010
0100
0001
,  // measure 13
0100
0010
0220
0330
,  // measure 14
0001
0100
0010
1000
,  // measure 15
0010
0100
0220
0330
,  // measure 16
1000
0100
0010
1001
,  // measure 17
0001
0100
1000
0010
,  // measure 18
1000
0010
0001
0100
,  // measure 19
0001
0100
0010
1000
,  // measure 20
0010
0100
0001
1001
,  // measure 21
0100
1000
0010
0100
,  // measure 22
0001
0010
0100
0010
,  // measure 23
1000
0001
0100
0010
,  // measure 24
1000
1000
0001
0001
,  // measure 25
0100
0000
0010
0000
1000
0000
0001
1000
,  // measure 26
0001
0000
0100
0000
0010
0000
1000
0001
,  // measure 27
1000
0000
0010
0000
1000
0000
0001
0010
,  // measure 28
0001
0000
0100
0000
0010
0000
1000
0100
,  // measure 29
1000
0000
0010
0000
1000
0000
0001
0100
,  // measure 30
0001
0000
0010
0000
0100
0000
1000
0100
,  // measure 31
1000
0000
0010
0000
0100
0000
0001
1000
,  // measure 32
0001
0000
0100
0000
0010
0000
1000
0001
,  // measure 33
2000
0000
0001
3001
,  // measure 34
0001
0100
0010
1000
,  // measure 35
0010
0100
0220
0330
,  // measure 36
1000
0010
0100
0001
,  // measure 37
0100
0010
0220
0330
,  // measure 38
0001
0100
1000
0010
,  // measure 39
1000
0010
0001
0100
,  // measure 40
0001
0100
0010
1000
,  // measure 41
0010
0100
0220
0330
,  // measure 42
2002
0000
0000
3003
,  // measure 43
0001
0000
0100
0000
1000
1000
0100
0000
,  // measure 44
0010
0000
0001
0000
0100
0100
0001
0000
,  // measure 45
0010
0000
1000
0000
0001
0001
0010
0000
,  // measure 46
1000
0010
0100
0001
,  // measure 47
1000
0000
0010
0000
0100
0000
1000
0100
,  // measure 48
1000
0000
0100
0000
0010
0000
0001
0010
,  // measure 49
0001
0000
1000
0000
0010
0000
0100
1000
,  // measure 50
0100
0000
0010
0000
1000
0000
0010
0001
,  // measure 51
0010
0100
0001
1000
,  // measure 52
0010
0100
0220
0330
,  // measure 53
0001
0100
0010
1000
,  // measure 54
1100
0101
2002
3003
,  // measure 55
0001
0100
0010
1000
,  // measure 56
0010
0000
0100
0000
0001
1000
0001
0000
,  // measure 57
0100
1000
0010
0100
,  // measure 58
0011
1010
2002
3003
,  // measure 59
0110
0000
0000
0000
;

//---------------dance-single - ----------------
#NOTES:
     dance-single:
     :
     Hard:
     11:
     0.575017,0.645637,0.428204,0.057094,0.137977,423.000000,378.000000,45.000000,6.000000,0.000000,0.000000,0.575017,0.645637,0.428204,0.057094,0.137977,423.000000,378.000000,45.000000,6.000000,0.000000,0.000000:
// measure 0
0000
0000
0000
0000
,  // measure 1
0000
0000
0000
0000
,  // measure 2
0000
0000
0000
0000
,  // measure 3
0000
0000
0000
0000
,  // measure 4
0000
0000
0000
0000
,  // measure 5
0000
0000
0000
0000
,  // measure 6
0001
0000
0100
0000
0010
0100
0010
0100
0010
0000
1000
0000
0001
0000
0100
0000
,  // measure 7
0000
1000
0010
0100
0001
1000
1001
0000
,  // measure 8
0001
0100
1000
0100
0001
0010
1000
0000
,  // measure 9
0010
1010
1001
0101
,  // measure 10
0001
0100
0010
1000
0010
0100
0001
0000
,  // measure 11
1000
1100
0101
1001
,  // measure 12
0001
1000
0010
0100
0001
1000
0010
0000
,  // measure 13
1000
1100
0101
1001
,  // measure 14
0001
0100
0010
1000
0001
0100
0010
0000
,  // measure 15
0011
1010
2002
3003
,  // measure 16
0001
0000
0100
0000
0010
0000
1000
0000
0010
0000
0100
0000
0001
0100
0001
0100
,  // measure 17
0001
1000
0010
0100
0001
0100
0010
1000
,  // measure 18
0001
0100
0001
1000
0001
0100
0001
1000
,  // measure 19
0010
1000
0001
0100
0010
1000
0001
0100
,  // measure 20
1000
0010
1000
0001
1000
0010
1000
0001
,  // measure 21
1000
0100
0010
0100
0001
0010
0100
1000
,  // measure 22
0001
0100
0010
0100
0001
0100
0010
0100
,  // measure 23
0001
1000
0010
0100
0001
0010
1000
0100
,  // measure 24
0010
1000
0010
0100
0010
1000
0010
0100
,  // measure 25
0001
0000
0001
0000
1000
0000
0010
0000
0100
0000
0001
0000
0100
0010
0100
0010
,  // measure 26
0100
0000
0001
0000
1000
0000
0010
0000
0100
0000
0001
0000
1000
0001
1000
0001
,  // measure 27
1000
0000
0010
0000
1000
0000
0100
0000
0001
0000
0010
0000
0001
0100
0001
0100
,  // measure 28
0001
0000
0010
0000
1000
0000
0100
0000
0001
0000
0010
0000
1000
0010
1000
0010
,  // measure 29
1000
0000
0001
0000
0100
0000
0010
0000
1000
0000
0001
0000
1000
0001
1000
0001
,  // measure 30
1000
0000
0010
0000
0100
0000
0001
0000
1000
0000
0010
0000
0100
0010
0100
0010
,  // measure 31
0100
0000
0001
0000
1000
0000
0010
0000
1000
0000
0100
0000
0001
1000
0001
1000
,  // measure 32
0001
0000
0010
0000
0100
0000
1000
0000
0010
0000
0100
0000
0001
0100
0001
0100
,  // measure 33
0001
0000
1000
0000
0010
0100
0000
0010
0100
0000
0001
0000
0010
0100
0010
0100
,  // measure 34
0010
1000
0001
0100
0001
0010
0011
0000
,  // measure 35
0101
1001
1100
1001
,  // measure 36
0001
0100
0010
1000
0100
0001
0101
0000
,  // measure 37
0110
1100
1001
0110
,  // measure 38
0001
0100
0010
1000
0100
0001
0101
0000
,  // measure 39
1100
1010
0011
0101
,  // measure 40
0001
0100
0010
1000
0100
0010
0001
0000
,  // measure 41
0110
1100
0202
0303
,  // measure 42
0001
0100
0010
1000
0010
0100
0110
0000
,  // measure 43
0001
0000
0100
0000
1000
0000
0010
0000
0100
0000
0000
0010
0100
0000
0001
0000
,  // measure 44
1000
0000
0000
0001
1000
0000
0100
0000
0010
0000
0000
0000
0110
0000
0000
0000
,  // measure 45
1000
0000
0010
0000
0100
0000
0001
0000
1000
0000
0000
0001
0100
0000
1000
0000
,  // measure 46
0100
1100
0101
1001
,  // measure 47
0010
0000
0100
0000
0001
0000
1000
0000
0010
0000
0000
1000
0010
0000
0100
0000
,  // measure 48
0010
0000
0000
0001
0100
0000
0010
0000
0100
0000
1000
0000
0010
0000
0100
0000
,  // measure 49
0001
0001
0100
0010
1000
1000
0010
0100
,  // measure 50
0001
1100
0101
1001
,  // measure 51
0001
0100
1000
1000
0000
1000
0100
0001
,  // measure 52
0000
0001
0100
1000
0010
0100
0110
0000
,  // measure 53
1000
0010
0001
0001
0000
0001
0010
1000
,  // measure 54
0100
0010
0220
0330
,  // measure 55
0001
0010
1000
1000
0000
1000
0010
0001
,  // measure 56
0000
0001
0010
1000
0010
0100
0110
0000
,  // measure 57
1000
0100
0001
0001
0000
0001
0100
1000
,  // measure 58
0010
0100
0001
1000
1100
0000
0011
0000
,  // measure 59
0110
0000
0000
0000
;
