#TITLE:Life Will Change;
#SUBTITLE:;
#ARTIST:目黒将司 feat. Lyn (From ペルソナ5);
#TITLETRANSLIT:;
#SUBTITLETRANSLIT:;
#ARTISTTRANSLIT:Shoji Meguro feat. Lyn (From Persona 5);
#GENRE:Anime/Game;
#CREDIT:;
#BANNER:;
#BACKGROUND:;
#LYRICSPATH:;
#CDTITLE:;
#MUSIC:Life Will Change.ogg;
#OFFSET:1.515000;
#SAMPLESTART:85.714935;
#SAMPLELENGTH:15.000000;
#LASTBEATHINT:0.843369;
#SELECTABLE:YES;
#BPMS:0.000000=132.000000
;
#STOPS:
;
#BGCHANGES:3.250=Life Will Change.avi=1.000=0=0=0=StretchNoLoop====,
99999=-nosongbg-=1.000=0=0=0 // don't automatically add -songbackground-
;
#KEYSOUNDS:;
#ATTACKS:;

//---------------dance-single - ----------------
#NOTES:
     dance-single:
     :
     Hard:
     11:
     0.527009,0.567922,0.256570,0.055475,0.235767,532.000000,495.000000,37.000000,8.000000,0.000000,0.000000,0.527009,0.567922,0.256570,0.055475,0.235767,532.000000,495.000000,37.000000,8.000000,0.000000,0.000000:
// measure 0
0000
0000
0000
0000
,  // measure 1
0000
0000
0000
0000
,  // measure 2
0000
0000
0000
0000
,  // measure 3
0000
0000
0000
0000
,  // measure 4
0000
0000
0000
0000
,  // measure 5
0002
0010
0010
0013
,  // measure 6
2000
0010
0010
3010
,  // measure 7
0002
0100
0100
0103
,  // measure 8
2000
0100
0100
3100
,  // measure 9
0001
0000
0100
0001
0000
0000
0000
0000
1000
0000
0000
0000
1001
0000
0000
0000
,  // measure 10
1000
0000
0100
1000
0000
0000
0000
0000
0001
0000
0000
0000
1001
0000
0000
0000
,  // measure 11
0010
0000
0100
0010
0000
0000
0000
0000
1000
0000
0000
0000
1001
0000
0000
0000
,  // measure 12
0010
0000
0100
0010
0000
0000
0000
0000
0001
0000
0000
0000
1001
0000
0000
0000
,  // measure 13
0100
0000
1000
0010
0000
0000
0010
0000
0001
0100
0000
0000
0100
0000
1000
0010
,  // measure 14
0000
0000
0010
0000
0001
0100
0000
0000
1000
0001
0000
0000
1001
0000
0000
0000
,  // measure 15
1000
0000
0100
0010
0000
0000
0001
0000
0010
0100
0000
0000
0001
0000
1000
0001
,  // measure 16
2000
0000
0001
3001
,  // measure 17
0001
0100
1000
0100
0001
0100
1000
0100
,  // measure 18
0001
0010
1000
0010
0001
0010
1000
0010
,  // measure 19
0001
0100
0010
0000
1000
0010
0100
0000
,  // measure 20
0001
0100
1000
0000
1000
0010
0001
0000
,  // measure 21
1000
0100
0010
0100
1000
0100
0010
0100
,  // measure 22
0001
0010
0100
0010
0001
0010
0100
0010
,  // measure 23
0001
0010
0100
1000
0001
0100
0010
1000
,  // measure 24
0100
0001
0010
0100
1000
0001
1001
0000
,  // measure 25
1000
0000
0100
0000
1000
0000
0100
0000
0010
0000
0100
0010
0000
0000
0100
0010
,  // measure 26
0000
0000
0000
0000
0001
0000
1000
0000
0001
1000
0000
1001
0000
0000
0000
0000
,  // measure 27
0001
0000
0010
0000
1000
0000
0100
0000
0001
0000
1000
0001
0000
0000
1000
0001
,  // measure 28
0000
0000
0000
0000
0100
0000
0010
0000
0100
0010
0000
0110
0000
0000
0000
0000
,  // measure 29
0001
0000
0100
0000
0010
0000
1000
0000
0100
0000
0010
0100
0000
0000
0010
0100
,  // measure 30
0000
0000
0000
0000
0001
0000
1000
0000
0100
0010
0000
0110
0000
0000
0000
0000
,  // measure 31
0001
0100
1000
0100
0001
0100
1000
0100
,  // measure 32
0001
0010
1000
0010
0001
0010
1000
0010
,  // measure 33
0001
0000
1000
0000
0010
0000
0100
0000
0001
0000
1000
0001
0000
0000
0001
1000
,  // measure 34
0000
0000
0000
0000
0010
0000
1000
0000
0100
0001
0000
0101
0000
0000
0000
0000
,  // measure 35
0001
0000
1000
0000
0010
0000
0100
0000
0001
0000
0100
0010
0000
0000
0010
0100
,  // measure 36
0000
0000
0000
0000
0001
0000
0100
0000
0010
1000
0000
1010
0000
0000
0000
0000
,  // measure 37
0001
0000
0100
0000
0010
0000
1000
0000
0001
0000
1000
0010
0000
0000
0001
0100
,  // measure 38
0000
0000
0000
0000
1000
0000
0100
0000
0010
0001
0000
1001
0000
0000
0100
0000
,  // measure 39
0001
0100
1000
0100
0001
0100
1000
0100
,  // measure 40
0001
0010
1000
0010
0001
0010
1000
0010
,  // measure 41
0001
1000
0001
1000
0100
0010
0100
0010
,  // measure 42
1000
0100
1000
0100
0001
0010
0011
0000
,  // measure 43
1000
0010
0100
0001
0100
0010
1000
0010
,  // measure 44
0100
0001
0100
0010
1000
0010
1001
0000
,  // measure 45
0100
0010
0100
0010
1000
0100
0010
0001
,  // measure 46
0010
0100
0010
0100
0001
0010
0100
1000
,  // measure 47
0001
0100
0010
1000
0010
0100
0001
1000
,  // measure 48
2001
0000
0001
3001
,  // measure 49
0100
0000
1000
0000
0010
0000
0100
0000
0001
0000
0001
0010
0000
0000
0001
0100
,  // measure 50
0000
0000
0000
0000
0010
0000
1000
0000
0001
0100
0000
1001
0000
0000
0100
0000
,  // measure 51
0010
0000
0100
0000
0001
0000
1000
0000
0010
0000
1000
0010
0000
0000
1000
0100
,  // measure 52
0000
0000
0000
0000
1000
0000
0010
0000
0100
0001
0000
1001
0000
0000
0010
0000
,  // measure 53
0001
0000
1000
0000
0100
0000
0010
0000
0001
0000
0100
0010
0000
0000
1000
0001
,  // measure 54
0000
0000
0000
0000
0010
0000
1000
0000
0100
0001
0000
1001
0000
0000
0000
0000
,  // measure 55
0001
0000
0000
1100
0000
0000
1010
0000
0000
0110
0000
0000
0010
0000
0100
0000
,  // measure 56
0010
0000
0000
0011
0000
0000
0101
0000
0000
1001
0000
0000
0100
0000
1000
0000
,  // measure 57
1010
0000
1000
0000
0001
0000
0100
0000
0010
0000
0001
1000
0000
0000
0100
0010
,  // measure 58
0000
0000
1000
0000
0001
0000
1000
0000
0010
0100
0000
0110
0000
0000
1000
0000
,  // measure 59
0001
0000
1000
0000
0100
0000
0010
0000
0001
0000
1000
0100
0000
0000
0001
0010
,  // measure 60
0000
0000
0001
0000
0010
0000
0100
0000
1000
0001
0000
1001
0000
0000
0100
0000
,  // measure 61
1000
0000
0100
0000
0010
0000
0001
0000
0100
0000
1000
0010
0000
0000
0001
0100
,  // measure 62
0000
0000
0001
0000
0010
0000
1000
0000
0100
0001
0000
1001
0000
0000
0100
0000
,  // measure 63
0001
0100
1000
0100
0001
0100
1000
0100
,  // measure 64
0001
0010
1000
0010
0001
0010
1000
0010
,  // measure 65
0001
0100
1000
0000
1000
0100
0001
0000
,  // measure 66
0001
0010
1000
0000
1000
0010
0001
0000
,  // measure 67
1000
0010
0100
0000
0001
0100
0010
0000
,  // measure 68
1000
0010
0100
0001
0100
0010
1000
0000
,  // measure 69
0001
0100
1000
0100
0001
0100
1000
0100
,  // measure 70
0001
0010
1000
0010
0001
0010
1000
0010
,  // measure 71
0011
0000
0000
0110
0000
0000
1100
0000
0000
1001
0000
0000
0001
0000
1000
0000
,  // measure 72
1100
0000
0000
0110
0000
0000
0011
0000
0000
1001
0000
0000
0001
0000
0100
0000
,  // measure 73
1000
0010
0001
0000
0001
0010
1000
0000
,  // measure 74
1000
0100
0001
0000
0001
0100
1000
0000
,  // measure 75
0001
0100
0010
0000
1000
0010
0100
0000
,  // measure 76
0001
0100
0010
1000
0010
0100
0001
0000
,  // measure 77
2002
0000
0000
0000
,  // measure 78
3003
0000
0000
0000
;

//---------------dance-single - ----------------
#NOTES:
     dance-single:
     :
     Medium:
     8:
     0.390304,0.432702,0.291242,0.110949,0.000000,394.000000,352.000000,42.000000,16.000000,0.000000,0.000000,0.390304,0.432702,0.291242,0.110949,0.000000,394.000000,352.000000,42.000000,16.000000,0.000000,0.000000:
// measure 0
0000
0000
0000
0000
,  // measure 1
0000
0000
0000
0000
,  // measure 2
0000
0000
0000
0000
,  // measure 3
0000
0000
0000
0000
,  // measure 4
0000
0000
0000
0000
,  // measure 5
1000
0100
0000
1000
0100
0000
0001
0100
,  // measure 6
0000
0001
0100
0000
1001
0000
1001
0000
,  // measure 7
0001
0010
0000
0001
0010
0000
1000
0010
,  // measure 8
0000
1000
0010
0000
1001
0000
1001
0000
,  // measure 9
0100
0100
0000
0010
0010
0000
0100
0100
,  // measure 10
0000
0010
0010
0000
1000
0000
1001
0000
,  // measure 11
0010
0010
0000
0100
0100
0000
0010
0010
,  // measure 12
0000
0100
0100
0000
0001
0000
1001
0000
,  // measure 13
1000
0100
0000
1000
0010
0000
0001
0100
,  // measure 14
0000
0001
0010
0000
1000
0000
1001
0000
,  // measure 15
0001
0010
0000
0001
0100
0000
1000
0010
,  // measure 16
0000
1000
0100
0000
1000
0000
1001
0000
,  // measure 17
1000
0100
0010
0000
1000
0000
0100
0000
,  // measure 18
1000
0001
0010
0000
0100
0000
0010
0000
,  // measure 19
0001
0010
0100
0000
0010
0000
1000
0000
,  // measure 20
0100
1000
0010
0000
0100
0000
0110
0000
,  // measure 21
0001
0100
0010
0000
1000
0000
1001
0000
,  // measure 22
1000
0010
0100
0000
0001
0000
1001
0000
,  // measure 23
0100
1000
0010
0000
0100
0001
0010
0000
,  // measure 24
1000
0100
0001
0010
1000
0100
0001
0000
,  // measure 25
0020
0100
0001
0130
,  // measure 26
1000
0000
1001
0000
0000
0001
1001
0000
,  // measure 27
0020
1000
0100
0031
,  // measure 28
0100
0101
0010
1010
,  // measure 29
2000
0100
0010
3001
,  // measure 30
0010
0110
0001
1001
,  // measure 31
1000
0100
0010
0000
0001
0000
1001
0000
,  // measure 32
0001
0010
0100
0000
1000
0000
1001
0000
,  // measure 33
2000
0100
0010
3100
,  // measure 34
0001
0100
0010
0000
1000
0010
0100
0000
,  // measure 35
0002
0000
0010
0000
0100
0000
1000
0003
,  // measure 36
0010
0100
0001
0000
1000
0010
0100
0000
,  // measure 37
2000
0000
0010
0000
0100
0000
0001
3000
,  // measure 38
0100
0010
1000
0000
0010
0100
0001
0000
,  // measure 39
0200
1000
0001
1300
,  // measure 40
0020
1000
0001
1030
,  // measure 41
0100
1000
0100
0000
0010
0000
0010
0000
,  // measure 42
0010
0001
0010
0000
0100
0000
0100
0000
,  // measure 43
0100
1000
0010
0000
0001
0000
0001
0000
,  // measure 44
0010
0001
0100
0000
1000
0000
1000
0000
,  // measure 45
1000
0100
0010
0000
0001
0000
1001
0000
,  // measure 46
0001
0010
0100
0000
1000
0000
1001
0000
,  // measure 47
0100
0010
1000
0000
0010
0100
0001
0000
,  // measure 48
2002
0000
0000
3003
,  // measure 49
1000
0000
0100
0000
0010
0010
0010
0000
,  // measure 50
0001
0000
0100
0000
0010
0010
0010
0100
,  // measure 51
1000
0000
1000
0000
0100
0100
0100
0000
,  // measure 52
0001
0000
0001
0000
0100
0100
0100
1000
,  // measure 53
0010
0000
0010
0000
1000
1000
1000
0000
,  // measure 54
0010
0000
0010
0000
0001
0001
0001
1000
,  // measure 55
0020
0100
0001
0130
,  // measure 56
0200
0010
1000
0310
,  // measure 57
1000
0100
0010
0000
0001
0000
1001
0000
,  // measure 58
0001
0010
0100
0000
1000
0000
1001
0000
,  // measure 59
0100
1000
0010
0000
1001
0000
0110
0000
,  // measure 60
0001
0100
0010
0000
1001
0000
0110
0000
,  // measure 61
1000
0100
0010
0000
0001
0000
1001
0000
,  // measure 62
0001
0010
0100
0000
1000
0000
1001
0000
,  // measure 63
0200
1000
0010
0301
,  // measure 64
0020
0001
0100
1030
,  // measure 65
0100
1000
0100
0000
1000
0000
1001
0000
,  // measure 66
0001
0010
0001
0000
1000
0000
1001
0000
,  // measure 67
0100
1000
0010
0000
0100
0000
0110
0000
,  // measure 68
0010
0100
0001
0000
1000
0000
1001
0000
,  // measure 69
0100
1000
0010
0000
0001
0000
1001
0000
,  // measure 70
0001
0100
0010
0000
1000
0000
1001
0000
,  // measure 71
1000
0100
0000
0001
0010
0000
0001
0100
,  // measure 72
0000
1000
0010
0000
1000
0000
1001
0000
,  // measure 73
1000
0100
0010
0000
0001
0100
0010
0000
,  // measure 74
1000
1001
0100
0110
,  // measure 75
0001
0100
0010
0000
1000
0010
0100
0000
,  // measure 76
0001
1001
0100
0110
,  // measure 77
2002
0000
0000
0000
,  // measure 78
3003
0000
0000
0000
;

//---------------dance-single - ----------------
#NOTES:
     dance-single:
     :
     Easy:
     6:
     0.284308,0.378615,0.090146,0.214964,0.000000,287.000000,274.000000,13.000000,31.000000,0.000000,0.000000,0.284308,0.378615,0.090146,0.214964,0.000000,287.000000,274.000000,13.000000,31.000000,0.000000,0.000000:
// measure 0
0000
0000
0000
0000
,  // measure 1
0000
0000
0000
0000
,  // measure 2
0000
0000
0000
0000
,  // measure 3
0000
0000
0000
0000
,  // measure 4
0000
0000
0000
0000
,  // measure 5
1000
0100
1000
0100
,  // measure 6
0001
0010
0001
0010
,  // measure 7
1000
0100
0001
0010
,  // measure 8
1000
0100
0001
0010
,  // measure 9
2000
0100
0100
3100
,  // measure 10
0002
0100
0100
0103
,  // measure 11
2000
0010
0010
3010
,  // measure 12
0002
0010
0010
0013
,  // measure 13
0200
1000
0010
1300
,  // measure 14
0020
0100
0001
0130
,  // measure 15
0002
0100
0010
0103
,  // measure 16
2002
0000
0000
3003
,  // measure 17
1000
0100
0010
0010
,  // measure 18
0001
0010
0100
0100
,  // measure 19
1000
0100
0010
0010
,  // measure 20
0001
0010
0100
0100
,  // measure 21
1000
0100
1000
0100
,  // measure 22
0001
0010
0001
0010
,  // measure 23
1000
0100
0001
0010
,  // measure 24
2000
0000
3002
0000
,  // measure 25
0103
1000
0010
0010
,  // measure 26
0100
0001
0010
0010
,  // measure 27
1000
0100
0001
0001
,  // measure 28
0001
0010
1000
1000
,  // measure 29
1000
0100
0010
0010
,  // measure 30
0001
0010
0100
0100
,  // measure 31
2000
3000
0002
0003
,  // measure 32
0200
0300
0020
0030
,  // measure 33
1000
0100
0001
0001
,  // measure 34
0010
0100
1000
1001
,  // measure 35
0001
0010
1000
1000
,  // measure 36
0100
0010
0001
1001
,  // measure 37
0100
1000
0010
0010
,  // measure 38
0010
0001
0100
0100
,  // measure 39
0100
1000
0100
0001
,  // measure 40
0100
1000
0100
0001
,  // measure 41
0020
0100
0001
0130
,  // measure 42
0200
0010
1000
0310
,  // measure 43
2000
0100
0010
3001
,  // measure 44
0002
0010
0100
1003
,  // measure 45
0100
1000
0010
0010
,  // measure 46
1000
0001
0100
0100
,  // measure 47
0001
0010
1000
1000
,  // measure 48
0200
0000
0320
0000
,  // measure 49
1030
0100
0001
0010
,  // measure 50
0001
0100
1000
1010
,  // measure 51
1000
0100
0001
0010
,  // measure 52
0001
0100
0010
1010
,  // measure 53
0100
1000
0001
0010
,  // measure 54
0100
1000
0100
0001
,  // measure 55
0020
0100
0001
0130
,  // measure 56
0200
0010
1000
0310
,  // measure 57
1000
0100
0010
0010
,  // measure 58
0001
0100
0010
1001
,  // measure 59
0100
1000
0001
0001
,  // measure 60
0100
0010
1000
1001
,  // measure 61
0100
1000
0001
0001
,  // measure 62
0010
0001
1000
1000
,  // measure 63
0200
1000
0010
1300
,  // measure 64
0020
0100
0001
0130
,  // measure 65
2000
0001
0000
3001
,  // measure 66
0002
1000
0000
1003
,  // measure 67
0020
0100
0000
0130
,  // measure 68
0200
0010
0000
0310
,  // measure 69
1000
0100
0010
0010
,  // measure 70
0001
0010
0100
0100
,  // measure 71
1100
0001
0101
0001
,  // measure 72
0011
1010
1010
1000
,  // measure 73
0100
0001
0010
0010
,  // measure 74
0100
1000
0010
0010
,  // measure 75
0001
0100
1000
1000
,  // measure 76
0100
0010
0001
0001
,  // measure 77
2002
0000
0000
0000
,  // measure 78
3003
0000
0000
0000
;

//---------------dance-single - ----------------
#NOTES:
     dance-single:
     :
     Beginner:
     2:
     0.087174,0.133486,0.006934,0.055475,0.000000,88.000000,87.000000,1.000000,8.000000,0.000000,0.000000,0.087174,0.133486,0.006934,0.055475,0.000000,88.000000,87.000000,1.000000,8.000000,0.000000,0.000000:
// measure 0
0000
0000
0000
0000
,  // measure 1
0000
0000
0000
0000
,  // measure 2
0000
0000
0000
0000
,  // measure 3
0000
0000
0000
0000
,  // measure 4
0000
0000
0000
0000
,  // measure 5
1000
0000
1000
0000
,  // measure 6
1000
0000
0000
0000
,  // measure 7
0001
0000
0001
0000
,  // measure 8
0001
0000
0000
0000
,  // measure 9
0100
0000
0100
0000
,  // measure 10
0100
0000
0000
0000
,  // measure 11
0010
0000
0010
0000
,  // measure 12
0010
0000
0000
0000
,  // measure 13
1000
0000
1000
0000
,  // measure 14
1000
0000
0000
0000
,  // measure 15
0001
0000
0001
0000
,  // measure 16
0001
0000
0000
0000
,  // measure 17
1000
0000
0000
0000
,  // measure 18
0100
0000
0000
0000
,  // measure 19
0010
0000
0000
0000
,  // measure 20
0001
0000
0000
0000
,  // measure 21
0001
0000
0000
0000
,  // measure 22
0010
0000
0000
0000
,  // measure 23
0100
0000
0000
0000
,  // measure 24
1000
0000
0000
0000
,  // measure 25
1000
0000
0100
0000
,  // measure 26
1000
0000
0000
0000
,  // measure 27
0001
0000
0010
0000
,  // measure 28
0001
0000
0000
0000
,  // measure 29
0100
0000
0010
0000
,  // measure 30
0100
0000
0000
0000
,  // measure 31
0002
0000
0003
0000
,  // measure 32
2000
0000
3000
0000
,  // measure 33
0001
0000
0010
0000
,  // measure 34
0001
0000
0000
0000
,  // measure 35
1000
0000
0100
0000
,  // measure 36
1000
0000
0000
0000
,  // measure 37
0001
0000
1000
0000
,  // measure 38
0001
0000
0000
0000
,  // measure 39
2000
0000
3000
0000
,  // measure 40
0002
0000
0003
0000
,  // measure 41
0200
0000
0000
0000
,  // measure 42
0300
0000
0000
0000
,  // measure 43
0020
0000
0000
0000
,  // measure 44
0030
0000
0000
0000
,  // measure 45
2000
0000
0000
0000
,  // measure 46
3000
0000
0000
0000
,  // measure 47
0002
0000
0000
0000
,  // measure 48
0003
0000
0000
0000
,  // measure 49
1000
0000
0000
0000
,  // measure 50
0010
0000
0000
0000
,  // measure 51
0100
0000
0000
0000
,  // measure 52
0001
0000
0000
0000
,  // measure 53
0001
0000
0000
0000
,  // measure 54
0100
0000
0000
0000
,  // measure 55
0010
0000
0000
0000
,  // measure 56
1000
0000
0000
0000
,  // measure 57
0001
0000
0000
0000
,  // measure 58
0100
0000
0000
0000
,  // measure 59
0010
0000
0000
0000
,  // measure 60
1000
0000
0000
0000
,  // measure 61
1000
0000
0000
0000
,  // measure 62
0010
0000
0000
0000
,  // measure 63
0100
0000
0000
0000
,  // measure 64
0001
0000
0000
0000
,  // measure 65
0100
0000
0100
0000
,  // measure 66
0100
0000
0000
0000
,  // measure 67
0010
0000
0010
0000
,  // measure 68
0010
0000
0000
0000
,  // measure 69
1000
0000
1000
0000
,  // measure 70
1000
0000
0000
0000
,  // measure 71
0001
0000
0001
0000
,  // measure 72
0001
0000
0000
0000
,  // measure 73
1000
0000
0100
0000
,  // measure 74
1000
0000
0000
0000
,  // measure 75
0001
0000
0010
0000
,  // measure 76
0001
0000
0000
0000
,  // measure 77
1001
0000
0000
0000
;
