#TITLE:Les Vague;
#SUBTITLE:;
#ARTIST:m@sumi;
#TITLETRANSLIT:;
#SUBTITLETRANSLIT:;
#ARTISTTRANSLIT:;
#GENRE:pop'n music;
#CREDIT:;
#BANNER:;
#BACKGROUND:;
#LYRICSPATH:;
#CDTITLE:;
#MUSIC:Les Vague.ogg;
#OFFSET:0.945000;
#SAMPLESTART:82.051117;
#SAMPLELENGTH:15.000000;
#SELECTABLE:YES;
#BPMS:0.000000=100.000000
,25.000000=180.000000
;
#STOPS:
;
#BGCHANGES:;
#KEYSOUNDS:;
#ATTACKS:;

//---------------dance-single - ----------------
#NOTES:
     dance-single:
     :
     Beginner:
     3:
     0.162432,0.313806,0.024540,0.204501,0.000000,139.000000,136.000000,3.000000,25.000000,0.000000,0.000000,0.162432,0.313806,0.024540,0.204501,0.000000,139.000000,136.000000,3.000000,25.000000,0.000000,0.000000:
0000
0000
0000
0000
,
0000
0000
0000
0000
,
0000
0000
0000
0000
,
0000
0000
0000
0000
,
1000
0000
0000
0001
,
0000
0000
1000
0000
,
0000
0002
0000
0000
,
0003
0000
0000
2000
,
0000
0000
0000
3000
,
0000
0002
0000
0000
,
0000
0003
0000
2000
,
0000
0000
0000
3000
,
0000
0010
0000
0010
,
0000
0010
0000
0010
,
0000
0000
0000
0100
,
0000
0000
0000
0010
,
0000
0000
0000
0100
,
0000
0000
0000
0001
,
0000
0000
0000
1000
,
0000
0000
0000
0001
,
0000
0000
0000
1000
,
0000
0000
0000
0001
,
0000
0010
0000
0100
,
0100
0100
0000
1000
,
0000
0100
0000
0010
,
0010
0010
0010
0000
,
0000
0001
0000
1000
,
1000
1000
0000
1000
,
0000
0001
0000
1000
,
1000
1000
0000
0020
,
0000
0000
0030
0000
,
0000
0100
0200
0000
,
0000
0000
0300
0000
,
0000
0001
0000
1000
,
0000
0001
0000
1000
,
0000
0001
0000
2000
,
0000
0000
0000
3000
,
0000
0001
0002
0000
,
0000
0000
0003
0000
,
1000
2000
0000
0000
,
3000
0002
0000
0000
,
0003
0200
0000
0000
,
0000
0010
0000
0310
,
0000
0020
0000
0000
,
0000
0100
0000
0130
,
0000
1000
0100
0010
,
0000
0001
0000
0001
,
0000
0001
0010
0100
,
0000
2000
0000
0000
,
3000
1000
0000
0100
,
0000
0020
0000
0030
,
0000
0001
0000
0010
,
0000
0200
0000
0300
,
0000
1000
0000
0001
,
0000
1000
0000
0001
,
0000
0100
0000
0010
,
0000
0100
0000
0010
,
0000
1000
0000
0100
,
0000
0010
0000
0010
,
0000
0001
0000
0010
,
0000
0100
0000
0100
,
0000
1000
0000
0001
,
0000
0100
0000
0100
,
0000
0001
0000
1000
,
0000
0020
0000
0000
,
0000
0130
0000
0100
,
0000
0200
0000
0000
,
0000
0310
0000
0010
,
0000
2000
0000
0000
,
0000
3001
0000
0001
,
0000
0002
0000
0000
,
0000
1003
0000
1000
,
0000
2002
0000
0000
,
0000
3003
0000
0100
,
0000
1000
0000
0010
,
0000
0001
0001
0001
,
0000
0001
0000
0010
,
0000
1000
1000
1000
,
0000
0100
0000
1000
,
0000
0010
0010
0010
,
0000
0001
0001
1000
,
1000
0001
0001
1000
,
1000
0020
0000
0200
,
0330
0110
2002
0000
,
0000
0000
0000
0000
,
0000
3003
0000
0000
;

//---------------dance-single - ----------------
#NOTES:
     dance-single:
     :
     Easy:
     6:
     0.337718,0.418408,0.261761,0.335381,0.008180,289.000000,257.000000,32.000000,41.000000,0.000000,0.000000,0.337718,0.418408,0.261761,0.335381,0.008180,289.000000,257.000000,32.000000,41.000000,0.000000,0.000000:
0000
0000
0000
0000
,
0000
0000
0000
0000
,
0000
0000
0000
0000
,
0000
0000
0000
0000
,
1000
0100
1000
0001
,
0010
0001
1000
0001
,
1000
2001
0000
0001
,
0000
3001
0000
0210
,
0000
0010
0000
0310
,
0010
0210
0000
0010
,
0000
0310
0000
2001
,
0000
0001
0000
3001
,
0001
0100
1000
0100
,
0001
0010
0100
2100
,
0000
0100
0000
0010
,
0000
3010
0000
0012
,
0000
0010
0000
0100
,
0000
0103
0000
0100
,
0010
1000
0000
0002
,
0000
1003
0000
0100
,
1000
0010
0001
0200
,
0000
0310
0000
0001
,
0100
0010
1000
1000
,
0010
0100
0001
0100
,
0010
1000
0001
0100
,
0010
1001
2002
3003
,
0010
0100
0010
1000
,
0001
0100
0010
1100
,
0001
0101
0001
0021
,
0000
0100
0000
0130
,
0001
0100
1000
0100
,
0002
0000
1003
0010
,
0001
0010
0001
0200
,
0000
0310
1000
0010
,
0100
0001
0100
0001
,
1000
0010
0100
0002
,
1000
0100
0013
1000
,
0001
1001
2000
0001
,
0010
3100
0010
0100
,
1001
0000
2000
0000
0000
3020
0000
0000
,
0230
0000
0300
0002
0000
0000
1003
0000
,
0001
1002
0000
1003
,
0000
2001
0000
3001
,
0000
0120
0000
0130
,
0000
0210
0000
0310
,
0000
0001
0100
0010
,
1000
0001
0001
2002
,
3003
1000
0010
0100
,
0001
2002
0000
0000
,
3003
0200
0000
1000
,
0000
0010
0000
0001
,
0000
0320
0000
0001
,
0000
0100
0000
1000
,
0000
1030
0000
0001
,
0000
1000
0001
0000
0000
0000
0010
0000
,
0000
0100
0010
0000
0000
0000
1001
0000
,
0000
0000
0000
0001
0000
1000
0000
0002
0000
2000
0000
0000
,
3003
0100
1000
0010
,
0100
0001
1000
2002
,
3003
0010
0100
0001
,
1000
0001
1000
2002
,
3003
0100
1000
0010
,
0010
0100
0001
0010
,
0010
0100
1000
0001
,
0010
1000
0100
0001
,
0100
1000
0100
0001
,
0101
0010
1000
0010
,
0001
0010
1000
0010
,
0011
0001
0100
0010
,
1000
0001
0100
0010
,
1010
1000
0010
0100
,
0001
1000
0010
0100
,
0101
0200
0000
0000
,
0000
0010
0010
0310
,
0001
0100
1000
0010
,
0100
0001
1000
1001
,
2002
3003
0010
0010
,
0100
0001
1000
0010
,
0100
0101
0100
1100
,
1000
2010
0000
0010
,
3010
0001
0100
1000
,
0010
1000
0010
0001
,
0100
0000
0010
0000
0000
0100
0000
0000
,
0010
0100
0000
0000
0220
0000
0000
0000
,
0000
0000
0000
0000
,
0000
0330
0000
0000
;

//---------------dance-single - ----------------
#NOTES:
     dance-single:
     :
     Medium:
     10:
     0.495476,0.627612,0.319021,0.122700,0.024540,424.000000,385.000000,39.000000,15.000000,0.000000,0.000000,0.495476,0.627612,0.319021,0.122700,0.024540,424.000000,385.000000,39.000000,15.000000,0.000000,0.000000:
// measure 0
0000
0000
0000
0000
,  // measure 1
0000
0000
0000
0000
,  // measure 2
0000
0000
0000
0000
,  // measure 3
0000
0000
0000
0000
,  // measure 4
1000
0100
0010
0001
0010
0100
1000
0010
,  // measure 5
0100
0001
0100
0010
1000
0100
0100
0001
,  // measure 6
0010
0010
1001
0000
0001
0000
0100
0000
,  // measure 7
1000
0000
0010
0000
0100
0010
1001
0000
,  // measure 8
0100
0000
0010
0000
1000
0000
0001
1000
,  // measure 9
0001
1000
0010
0000
0100
0000
1000
0000
,  // measure 10
0001
0000
0100
0000
0010
0100
1001
0000
,  // measure 11
0010
0000
0100
0000
0001
0000
1000
0001
,  // measure 12
1000
0001
1000
0000
1000
0100
0000
0100
,  // measure 13
0010
0000
0010
0001
0000
0001
1000
0000
,  // measure 14
1001
0000
1000
0010
0100
0001
0000
0001
,  // measure 15
0100
0000
0001
0100
0010
1000
0100
0000
,  // measure 16
0001
0100
0000
1000
0100
0000
0001
1000
,  // measure 17
0010
0110
2002
3003
,  // measure 18
0010
0000
1000
0001
0000
1001
0000
0100
,  // measure 19
0010
0000
1000
0010
0100
0000
0001
0100
,  // measure 20
0010
0000
1000
0010
0100
0002
0000
0000
,  // measure 21
1000
0000
1000
0000
1003
0000
0010
1000
,  // measure 22
0001
0100
0010
0000
1001
0000
0010
1000
,  // measure 23
0001
0100
0010
0000
0110
0000
0001
1000
,  // measure 24
0010
0000
0010
1000
0001
0000
0001
0100
,  // measure 25
1000
0010
0001
0000
1001
0000
0000
0000
,  // measure 26
0110
0000
0010
0100
0000
1001
0000
0100
,  // measure 27
0010
0000
0010
0100
0001
0000
0100
0010
,  // measure 28
1000
0000
0010
0100
0001
2000
0000
0000
,  // measure 29
0001
0001
3001
0011
,  // measure 30
0001
0010
0000
0010
0100
0000
0100
1000
,  // measure 31
0000
1000
0001
0000
1100
0000
1000
0100
,  // measure 32
0000
0100
0010
0000
0010
0002
0000
0000
,  // measure 33
1000
0000
1003
0000
0010
1000
0001
0000
,  // measure 34
1000
0000
1010
0000
0010
0000
0100
0001
,  // measure 35
1000
0001
0101
0011
,  // measure 36
0001
0100
0000
0100
1000
0000
1000
0010
,  // measure 37
0000
0010
0001
0000
1100
0000
1000
0100
,  // measure 38
0000
0100
0010
0000
0010
0001
0000
0001
,  // measure 39
1000
0000
1001
0000
1000
0100
0000
0100
,  // measure 40
0010
0000
0010
0001
0000
0001
0100
1000
,  // measure 41
0100
0002
0000
1000
,  // measure 42
0000
1000
0000
1003
,  // measure 43
0010
2010
0000
0010
,  // measure 44
0000
0010
0000
3010
,  // measure 45
0100
0000
1001
0000
0100
0010
0000
0010
,  // measure 46
0100
0000
0001
0000
1000
0001
0000
0001
,  // measure 47
1000
0000
0001
0100
1000
0000
1000
0100
,  // measure 48
0001
2002
0000
0000
,  // measure 49
3003
0002
0000
0010
,  // measure 50
0000
0100
0000
1000
,  // measure 51
0000
2003
0000
0010
,  // measure 52
0000
0100
0000
3001
,  // measure 53
0000
1001
0100
0010
,  // measure 54
0100
0010
0010
0000
0001
0000
1000
0000
,  // measure 55
0001
1000
1000
0000
0001
0000
0100
0000
,  // measure 56
0010
0000
0000
1000
0000
0001
0000
1000
0000
0010
0000
0100
,  // measure 57
0000
0000
0010
0000
0000
0000
1001
0000
0000
0000
0000
0000
0010
0000
0000
1000
0000
0000
0100
0000
0000
0000
0000
0000
,  // measure 58
0010
0001
1000
0000
0001
0000
1100
0000
,  // measure 59
0101
0000
0001
0000
0100
1000
0010
0000
,  // measure 60
1000
0010
0001
0000
0100
0000
0011
0000
,  // measure 61
1010
0000
0001
0100
1000
0000
0010
0000
,  // measure 62
1001
0000
1000
0010
0001
0000
0100
0000
,  // measure 63
1001
0000
1000
0100
1000
0100
0001
0010
,  // measure 64
0001
0010
0001
0000
1000
0000
0010
0000
,  // measure 65
0100
0000
0001
1000
0010
0000
0010
1000
,  // measure 66
0001
0100
0010
1000
,  // measure 67
0001
0000
0100
0001
1000
0000
1000
0001
,  // measure 68
0100
0000
0010
0100
1000
0000
0100
0000
,  // measure 69
1010
0000
0010
0100
0001
0000
0010
0000
,  // measure 70
0101
0000
0100
1000
0010
0000
0010
0001
,  // measure 71
0100
0000
0100
1000
0001
1000
0010
0000
,  // measure 72
1001
0200
0000
0000
,  // measure 73
0000
0010
0010
0310
,  // measure 74
1001
0000
0010
1000
0100
0000
0010
0100
,  // measure 75
0001
0000
0001
0100
1000
0010
1000
0000
,  // measure 76
1001
0000
0000
0000
0110
0000
0001
0100
,  // measure 77
0000
1001
0000
0010
1000
0000
1000
0010
,  // measure 78
0001
0000
1000
0100
0001
0000
0010
1000
,  // measure 79
0100
0002
0000
0000
0100
0000
0100
0000
,  // measure 80
0103
0000
0010
0000
1000
0010
0000
0010
,  // measure 81
0100
0000
0100
0001
0000
0001
1000
0000
,  // measure 82
1001
0000
0000
0000
0001
0000
0000
0100
0000
0000
1000
0000
0000
0010
0000
0000
,  // measure 83
0001
0000
2002
0000
,  // measure 84
0000
0000
0000
0000
,  // measure 85
0000
3003
0000
0000
;

//---------------dance-single - ----------------
#NOTES:
     dance-single:
     :
     Hard:
     14:
     0.677774,0.871684,0.409001,0.155420,0.220861,580.000000,530.000000,50.000000,19.000000,0.000000,0.000000,0.677774,0.871684,0.409001,0.155420,0.220861,580.000000,530.000000,50.000000,19.000000,0.000000,0.000000:
// measure 0
0000
0000
0000
0000
,  // measure 1
0000
0000
0000
0000
,  // measure 2
0000
0000
0000
0000
,  // measure 3
0000
0000
0000
0000
,  // measure 4
1000
0010
0100
0001
0100
0010
1000
0001
,  // measure 5
0100
0001
1000
0010
0100
1000
1100
0010
,  // measure 6
0001
0011
1001
0000
1000
0010
0100
0010
,  // measure 7
0001
0010
0000
0001
0100
0010
1010
0000
,  // measure 8
1000
0010
0100
0001
0010
0001
0000
0001
,  // measure 9
0100
0010
1010
0000
0001
0100
0010
0100
,  // measure 10
1000
0100
0000
1000
0010
0100
0101
0000
,  // measure 11
0001
0100
0010
1000
0100
1000
0000
1000
,  // measure 12
0010
0100
0001
0010
1000
0001
0100
1000
,  // measure 13
0001
0010
0100
1000
0100
0010
0001
0000
,  // measure 14
0010
1000
0001
0100
0010
0110
0000
0100
,  // measure 15
0010
1000
0001
0100
0010
1000
1100
0000
,  // measure 16
0001
0101
0000
0100
1000
0010
0000
0010
,  // measure 17
1000
0001
1001
0000
2002
0000
3003
0000
,  // measure 18
0110
0000
0110
1001
0000
1001
0000
1000
,  // measure 19
0100
0010
0100
0001
0010
0100
0000
1000
,  // measure 20
0100
0010
0000
0001
0010
0200
0000
0000
,  // measure 21
0010
0000
1000
0000
0310
0000
0001
1000
,  // measure 22
0010
0100
0001
1000
0000
1001
0000
1000
,  // measure 23
0010
0100
0001
0010
0100
1000
1010
0000
,  // measure 24
0001
1001
0000
1000
0010
0100
0000
0001
,  // measure 25
0100
0010
1000
0000
2002
0000
3003
0000
,  // measure 26
0110
0000
0110
1001
0000
1001
0000
0010
,  // measure 27
1000
0100
0010
0001
0100
0010
0000
0010
,  // measure 28
0100
1000
0000
1000
0100
0002
0000
0000
,  // measure 29
1000
0000
0010
0000
0103
0000
0001
0100
,  // measure 30
1000
0100
0001
0100
1000
0010
0001
0010
,  // measure 31
1000
0010
0001
1000
0001
0100
1000
0100
,  // measure 32
0001
0100
1000
0010
0001
0010
2000
0000
,  // measure 33
3001
0000
1000
0001
1000
0000
0001
0000
0010
0000
0001
0000
0100
0000
1000
0000
,  // measure 34
0100
1000
0010
0100
0001
1000
0001
1000
,  // measure 35
0100
0010
0100
0001
1001
0000
0001
0010
,  // measure 36
1000
0010
0001
0010
1000
0100
0001
0100
,  // measure 37
1000
0100
0001
1000
0001
0010
1000
0010
,  // measure 38
0001
0010
1000
0100
0001
0100
1000
0100
,  // measure 39
0001
0000
1000
0000
0001
0000
0010
0100
0010
0000
0100
0000
0001
1000
0001
0000
,  // measure 40
1000
0000
0010
0100
0010
0000
0100
0000
0001
1000
0001
0000
1000
0001
1000
0001
,  // measure 41
0100
0010
0100
0010
0002
0000
0000
0000
0000
0000
0000
0000
1000
0000
0000
0000
,  // measure 42
0000
0000
0000
0000
0100
0000
0000
0000
0000
0000
0000
0000
0013
0000
0000
0001
,  // measure 43
0000
0100
2000
0000
0000
0000
0010
0000
,  // measure 44
0000
0000
0000
0000
0000
0000
0000
0000
0100
0000
0000
0000
3100
0000
0000
0001
,  // measure 45
0000
1000
0010
0100
0001
0010
0000
1000
,  // measure 46
0100
0000
0001
0000
0000
0000
0001
0000
0100
0000
1000
0000
0010
0000
0000
0001
,  // measure 47
0000
0000
1001
0000
0001
0000
0100
0010
0100
0000
0001
1000
0001
0000
1000
0010
,  // measure 48
0100
0000
0001
0100
0020
0000
0000
0000
0000
0000
0000
0000
0000
0000
0000
0000
,  // measure 49
1030
0100
1000
0100
0010
0000
0000
0001
0000
0000
0100
0000
1000
0000
0000
0010
,  // measure 50
0000
0000
1000
0000
0001
0000
0000
0100
0000
0000
0010
0000
2000
0000
0000
0000
,  // measure 51
0000
0000
0000
0000
3010
0000
0000
1000
0000
0000
0001
0000
0100
0000
0000
0010
,  // measure 52
0000
0000
1000
0000
0100
0000
0000
0010
0000
0000
0001
0000
0200
0000
0000
0010
,  // measure 53
0000
0000
0310
0000
0110
0000
0000
1000
0000
0000
0001
0000
0100
0000
0000
0010
,  // measure 54
0000
0000
0001
0000
1001
0000
0000
0001
0000
0000
1000
0000
0010
0000
0000
0100
,  // measure 55
0000
0000
0001
0000
0110
0000
0000
1000
0000
0000
0100
0000
1001
0000
0000
0010
,  // measure 56
0000
0000
0000
0100
0000
0000
1000
0000
0000
0000
0001
0000
0000
0000
1001
0000
0000
0000
0010
0000
0000
0000
0100
0000
,  // measure 57
0000
0000
0000
0000
0110
0000
0000
0000
0000
0000
0000
0000
1001
0000
0000
0000
0000
0000
0000
0000
0000
0100
0000
0000
0000
0000
0000
0000
0000
0000
0010
0000
0000
0000
0000
0000
1010
0000
0000
0000
0000
0000
0000
0000
0000
0010
0000
0000
,  // measure 58
0000
0000
0100
0000
0101
0000
0000
0100
0000
0000
1000
0000
1020
0000
0000
0000
,  // measure 59
0130
0000
0000
0000
0011
0000
0000
1000
0000
0000
0010
0000
1100
0000
0000
0001
,  // measure 60
0000
0000
0100
0000
1001
0000
0000
0010
0000
0000
1000
0000
0001
0000
0000
1000
,  // measure 61
0000
0000
0010
0000
0100
0000
0010
0100
0010
0000
1000
0000
0001
0000
0100
0000
,  // measure 62
0010
0000
1000
0000
0001
0000
1000
0001
1000
0000
0010
0000
0100
0000
0001
0000
,  // measure 63
0010
0000
0100
0000
1000
0010
1000
0010
1000
0000
0001
0100
0001
0100
0001
0000
,  // measure 64
1000
0001
1000
0001
1000
0000
0100
0000
0001
0000
0100
0000
1000
0000
0100
0000
,  // measure 65
0001
0100
1000
0010
0001
0010
1000
0010
,  // measure 66
0001
0010
1000
0100
0010
0100
1000
0100
,  // measure 67
0010
0100
0001
0010
0100
0010
0001
0010
,  // measure 68
0100
0010
0001
0100
0010
1000
0001
0100
,  // measure 69
0010
1000
0001
0010
0100
1000
0001
0010
,  // measure 70
0100
1000
1000
0010
0100
0001
1000
0010
,  // measure 71
0100
0001
1000
0100
0010
0001
1000
0100
,  // measure 72
0010
0001
0020
0000
0000
0000
0000
0000
,  // measure 73
0000
0000
0000
0000
0100
0000
0130
1000
,  // measure 74
0100
0001
0011
0000
1000
1010
0000
0001
,  // measure 75
1000
0010
0000
0010
0100
0001
1001
0000
,  // measure 76
2002
0000
3003
0000
0110
0000
0110
1001
,  // measure 77
0000
1001
0000
0010
1000
0100
0010
0100
,  // measure 78
0001
0101
0000
0001
0100
1100
0000
1000
,  // measure 79
0010
1020
0000
0000
1000
0000
1000
0000
,  // measure 80
1030
0000
0001
0010
1000
0001
0100
1000
,  // measure 81
0001
0010
1000
0001
0100
1000
0010
0100
,  // measure 82
0001
0000
1000
0000
0010
0000
1000
0010
0000
0000
0001
0000
1000
0001
0000
0000
,  // measure 83
0010
0100
0010
0100
0000
0000
0000
0000
2002
0000
0000
0000
0000
0000
0000
0000
,  // measure 84
0000
0000
0000
0000
,  // measure 85
0000
3003
0000
0000
;
