#TITLE:LUV CAN SAVE U;
#SUBTITLE:;
#ARTIST:HIDEKI NAGANUMA;
#TITLETRANSLIT:;
#SUBTITLETRANSLIT:;
#ARTISTTRANSLIT:;
#GENRE:beatmania IIDX;
#CREDIT:;
#BANNER:;
#BACKGROUND:;
#LYRICSPATH:;
#CDTITLE:;
#MUSIC:LUV CAN SAVE U.ogg;
#OFFSET:1.540000;
#SAMPLESTART:40.479744;
#SAMPLELENGTH:15.000000;
#LASTBEATHINT:1.178651;
#SELECTABLE:YES;
#BPMS:0.000000=140.000000
;
#STOPS:
;
#BGCHANGES:0.000=LUV CAN SAVE U.avi=1.000=0=0=0=StretchNoLoop====,
99999=-nosongbg-=1.000=0=0=0 // don't automatically add -songbackground-
;
#KEYSOUNDS:;
#ATTACKS:;

//---------------dance-single - ----------------
#NOTES:
     dance-single:
     :
     Beginner:
     2:
     0.101311,0.169236,0.048353,0.000000,0.000000,88.000000,82.000000,6.000000,0.000000,0.000000,0.000000,0.101311,0.169236,0.048353,0.000000,0.000000,88.000000,82.000000,6.000000,0.000000,0.000000,0.000000:
0000
0000
0000
0000
,
0000
0000
0000
0000
,
0000
0000
0000
0000
,
0000
0000
0000
0000
,
0000
0000
0000
0000
,
1000
0000
0000
0000
,
0010
0000
0000
0000
,
0100
0000
0000
0000
,
0001
0000
0000
0000
,
0001
0000
0000
0000
,
0100
0000
0000
0000
,
0010
0000
0000
0000
,
1000
0000
0000
0000
,
0001
0000
0010
0000
,
0100
0000
0000
0000
,
1000
0000
0100
0000
,
0010
0000
0000
0000
,
1000
0000
0001
0000
,
0100
0000
0000
0000
,
0001
0000
1000
0000
,
0010
0000
0000
0000
,
0100
0000
0000
0000
,
0010
0000
0000
0000
,
1000
0000
0000
0000
,
0001
0000
0000
0000
,
1001
0000
0010
0000
,
0100
0000
0000
0000
,
1001
0000
0100
0000
,
0010
0000
0000
0000
,
1000
0000
0010
0000
,
0100
0000
0000
0000
,
0001
0000
0100
0000
,
0010
0000
0000
0000
,
1000
0000
0000
0000
,
0010
0000
0000
0000
,
0100
0000
0000
0000
,
0001
0000
0000
0000
,
0001
0000
0000
0000
,
0100
0000
0000
0000
,
0010
0000
0000
0000
,
1000
0000
0000
0000
,
1000
0000
0100
0000
,
0010
0000
0000
0000
,
0001
0000
0010
0000
,
0100
0000
0000
0000
,
1000
0000
0010
0000
,
0100
0000
0000
0000
,
0001
0000
0100
0000
,
0010
0000
0000
0000
,
1000
0000
0000
0000
,
0010
0000
0000
0000
,
0100
0000
0000
0000
,
0001
0000
0000
0000
,
1001
0000
0000
0000
,
0010
0000
0010
0000
,
0100
0000
0000
0000
,
0100
0000
0100
0000
,
0010
0000
0000
0000
,
1001
0000
0100
0000
,
0010
0000
0000
0000
,
1001
0000
0010
0000
,
0100
0000
0000
0000
,
1000
0000
0000
0000
,
0010
0000
0000
0000
,
0100
0000
0000
0000
,
0001
0000
0000
0000
,
0001
0000
0000
0000
,
0010
0000
0000
0000
,
0100
0000
0000
0000
,
1000
0000
0000
0000
,
1001
0000
0000
0000
;

//---------------dance-single - ----------------
#NOTES:
     dance-single:
     :
     Easy:
     6:
     0.291270,0.348143,0.120883,0.338472,0.000000,253.000000,238.000000,15.000000,42.000000,0.000000,0.000000,0.291270,0.348143,0.120883,0.338472,0.000000,253.000000,238.000000,15.000000,42.000000,0.000000,0.000000:
0000
0000
0000
0000
,
0000
0000
0000
0000
,
0000
0000
0000
0000
,
0000
0000
0000
0000
,
0000
1001
0000
0000
,
1000
0010
0100
0001
,
0100
0100
0010
0010
,
0001
0100
0010
1000
,
0010
0010
0100
0100
,
1000
0100
0010
0110
,
0001
0010
0100
0110
,
1000
0100
0001
0010
,
1000
1000
0001
0001
,
1000
0010
0100
0101
,
0020
0130
2000
3001
,
0010
1000
0010
1001
,
0100
0010
1000
1001
,
0001
0100
0010
1000
,
0002
1003
0200
0310
,
0001
0100
1000
1010
,
1000
0010
0001
0101
,
2000
0100
0000
0100
,
3002
0100
0000
0100
,
2003
0010
0000
0010
,
3002
0010
0000
0013
,
1000
0010
0100
0101
,
0001
0100
0010
1010
,
1000
0100
0010
0001
,
0100
0010
1000
0001
,
0100
0001
0010
1000
,
0100
0010
1000
0001
,
0200
0000
0320
0000
,
2030
0001
0001
3001
,
0002
0103
2000
3100
,
0010
0100
0010
0100
,
0002
0013
2000
3010
,
0100
0010
0100
0010
,
2000
3200
0320
0031
,
0001
0001
0100
0100
,
0002
0023
0230
1300
,
1000
1000
0010
0010
,
2000
0100
0000
0001
,
3002
0100
0000
1000
,
0013
0100
0010
0100
,
1000
0001
1000
0001
,
2000
0100
0000
3010
,
0002
0010
0000
0103
,
1000
0010
0100
0101
,
0001
0100
0010
1010
,
0002
1000
0100
0013
,
0001
0100
0010
1000
,
2000
0001
0010
3100
,
0010
0100
0001
1000
,
0020
0200
0000
0330
,
0001
0100
0010
1010
,
1000
0010
0001
0101
,
0001
1000
0010
0110
,
1000
0010
0100
0001
,
0100
0100
0010
0010
,
1000
0010
0001
0100
,
0020
0000
0230
0000
,
0301
1000
0010
0100
,
0002
0100
0000
0100
,
2003
0100
0000
0100
,
3002
0100
0000
0100
,
2003
0100
0000
0100
,
3002
0010
0000
0010
,
2003
0010
0000
0010
,
3002
0000
0203
0000
,
0320
0000
2030
0000
,
0002
0000
0000
0000
,
0000
0000
0000
0000
,
3003
0000
0000
0000
;

//---------------dance-single - ----------------
#NOTES:
     dance-single:
     :
     Medium:
     8:
     0.367254,0.435179,0.185354,0.338472,0.000000,319.000000,296.000000,23.000000,42.000000,0.000000,0.000000,0.367254,0.435179,0.185354,0.338472,0.000000,319.000000,296.000000,23.000000,42.000000,0.000000,0.000000:
0000
0000
0000
0000
,
0000
0000
0000
0000
,
0000
0000
0000
0000
,
0000
0000
0000
0000
,
0000
0110
0000
1000
,
0001
0100
0010
0000
1000
0000
1001
0000
,
1000
0010
0100
0000
0001
0000
1001
0000
,
0100
1000
0010
0000
0100
0000
0001
0000
,
0001
0010
0100
0000
1000
0000
0010
0000
,
1000
0010
0100
0000
0001
0000
1001
0000
,
0001
0100
0010
0000
1000
0000
1001
0000
,
1000
0000
0000
0010
0000
0000
0100
0000
,
0001
0000
0000
0100
0000
0000
0010
0000
,
1000
0010
1000
0001
0100
0000
0010
0000
,
1001
1001
0020
0030
,
0001
0100
0010
1000
0001
0000
0100
0000
,
0110
0110
0002
0003
,
1000
0010
0100
0001
1000
0000
0010
0000
,
1001
1001
0200
0300
,
0001
0100
0010
1000
0001
0000
0100
0000
,
0110
0110
2000
3000
,
0020
1000
0100
0031
,
0200
0001
0010
1300
,
0002
1003
2000
3001
,
0020
0100
0200
0330
,
0001
0100
0010
0000
0001
0000
1000
0000
,
0010
1000
0001
0000
0100
0000
0001
0000
,
1000
0010
0100
0000
0001
0000
1000
0000
,
0010
0100
0010
1000
0001
0000
0100
0000
,
0001
0100
1000
0000
0010
0000
0100
0000
,
1000
0010
0001
0000
0100
0000
0010
0000
,
2000
0000
0000
3020
0000
0000
0230
0000
,
0302
1000
1000
1003
,
0001
0100
1000
0000
0010
0000
0110
0000
,
1000
0010
0001
0000
0100
0000
0110
0000
,
0001
0100
0010
0000
1000
0000
1010
0000
,
1000
0010
0100
0000
0001
0000
0011
0000
,
0001
0100
1000
0000
0010
1000
0001
0000
,
1000
0010
0001
0000
0100
0001
1000
0000
,
0010
0100
0010
0000
1000
0001
1000
0000
,
1000
0010
0100
0001
1000
0010
0100
0001
,
2000
0010
0000
0100
,
3020
0100
0000
0031
,
0002
0100
0000
0013
,
2000
0010
0000
3100
,
0020
1000
0100
0031
,
0001
0100
0010
0000
1000
0010
0100
0000
,
0002
0100
0010
1003
,
0100
0010
1000
0000
0010
0100
0001
0000
,
2000
0010
0100
3010
,
0002
0100
0010
0103
,
2000
0100
0010
3001
,
0002
0010
0100
1003
,
0110
2002
0000
3003
,
0001
0100
0010
1000
0001
0000
1001
0000
,
1000
0010
0100
0001
1000
0000
1001
0000
,
1000
0100
0001
0000
1000
0010
0001
0000
,
0001
1000
0010
0000
1000
0001
0010
0000
,
0001
1000
0010
0100
0002
0000
1003
0000
,
0001
0010
0100
0001
2000
0000
3001
0000
,
2000
0000
0000
3020
0000
0000
0230
0000
,
0302
1000
1000
1003
,
0020
1000
0100
0031
,
0200
0001
0010
1300
,
0002
0100
0010
1003
,
2000
0010
0100
3001
,
0200
0010
1000
0310
,
0020
0100
0001
0130
,
2002
0000
0000
0000
,
3003
0000
0110
0000
0001
0000
0010
2000
,
0002
0000
0000
0000
,
0000
0000
0000
0000
,
3003
0000
0000
0000
;

//---------------dance-single - ----------------
#NOTES:
     dance-single:
     :
     Hard:
     11:
     0.444389,0.522214,0.120883,0.411002,0.060441,386.000000,371.000000,15.000000,51.000000,0.000000,0.000000,0.444389,0.522214,0.120883,0.411002,0.060441,386.000000,371.000000,15.000000,51.000000,0.000000,0.000000:
// measure 0
0000
0000
0000
0000
,  // measure 1
0000
0000
0000
0000
,  // measure 2
0000
0000
0000
0000
,  // measure 3
0000
0000
0000
0000
,  // measure 4
0000
0011
0000
0100
,  // measure 5
0010
1000
0001
0100
0010
0010
0100
0100
,  // measure 6
0001
1000
0010
0100
0001
0001
1000
1000
,  // measure 7
0010
1000
0100
0001
0010
0010
0100
0100
,  // measure 8
0001
1000
0010
0100
0001
0001
1000
1000
,  // measure 9
0010
1000
0100
0010
0001
0001
0100
0100
,  // measure 10
0010
1000
0001
0100
0010
0010
1000
1000
,  // measure 11
0010
0000
0000
0100
0000
0000
1001
0000
0000
0000
0010
0000
1000
0000
0001
0000
,  // measure 12
0200
0010
0001
1300
,  // measure 13
0010
1000
0002
0000
1003
0000
0010
0000
,  // measure 14
0001
0100
2000
0000
3010
0000
0100
0000
,  // measure 15
0010
1000
0001
0000
0001
1000
0010
0000
,  // measure 16
1000
0010
0100
0001
0010
0100
0002
0000
,  // measure 17
1003
0010
0100
0001
2000
0000
3001
0000
,  // measure 18
0010
0100
0001
1000
0002
0000
1003
0000
,  // measure 19
1000
0100
0010
0000
0001
0010
0100
0000
,  // measure 20
1000
0010
0100
0001
0100
0010
1000
0000
,  // measure 21
0002
0100
0010
0103
,  // measure 22
2000
0010
0100
3010
,  // measure 23
0020
0100
0001
0130
,  // measure 24
0200
0010
2000
3300
,  // measure 25
0010
1000
0010
0100
0001
0100
0010
1000
,  // measure 26
0001
0001
1000
1000
0010
0100
0110
0000
,  // measure 27
1000
0010
0100
0001
0010
0100
1000
0001
,  // measure 28
0010
0010
0100
0100
1000
0001
1001
0000
,  // measure 29
1000
0100
0001
0100
1000
0010
0100
0001
,  // measure 30
0010
0010
0100
0100
0001
1000
1001
0000
,  // measure 31
0010
0000
0000
1000
0000
0000
1001
0000
0000
0000
0100
0000
0010
0000
1000
0000
,  // measure 32
0002
1000
1000
1003
,  // measure 33
0200
1000
0010
0001
,  // measure 34
2300
0000
3010
0200
0000
0310
0002
0000
,  // measure 35
0023
0001
0100
1000
,  // measure 36
2030
0000
3010
0200
0000
0301
0010
0000
,  // measure 37
0002
0010
0100
0010
,  // measure 38
2003
0000
3010
0200
0000
0301
0010
0000
,  // measure 39
2000
0100
0010
3100
,  // measure 40
2000
3002
2003
3002
,  // measure 41
1003
0010
0100
0001
1000
0000
1001
0000
,  // measure 42
0001
0100
0010
1000
0001
0000
1001
0000
,  // measure 43
2000
3020
0230
0302
,  // measure 44
0013
0100
0001
0000
1000
0010
0100
0000
,  // measure 45
0001
0100
0010
1000
0001
0000
1001
0000
,  // measure 46
1000
0010
0100
0001
1000
0000
1001
0000
,  // measure 47
0002
0103
2000
3100
,  // measure 48
0002
0023
0230
2300
,  // measure 49
3001
0000
0000
0000
0100
0000
0010
0000
1000
0000
0000
0010
0000
0000
0100
0000
,  // measure 50
0001
0000
0000
0100
0000
0000
0010
0000
1000
0000
0000
0001
0000
0000
1000
0000
,  // measure 51
0010
0000
0000
0000
0100
0000
0001
0000
1000
0000
0000
0010
0000
0000
1000
0000
,  // measure 52
0001
0000
0000
0100
0000
0000
0010
0000
1000
0000
0000
0001
0000
0000
0100
0000
,  // measure 53
0020
0200
0000
0330
,  // measure 54
0001
0100
0010
1000
0001
0100
0010
1000
,  // measure 55
0001
0001
1000
1000
0010
0100
0110
0000
,  // measure 56
1000
0010
0100
0001
0010
0100
1000
0010
,  // measure 57
0100
0100
0010
0010
1000
0001
1001
0000
,  // measure 58
1000
0100
0001
0100
1000
0010
0001
0010
,  // measure 59
1000
0010
0100
0001
0010
1000
0010
0100
,  // measure 60
0001
0000
0000
0101
0000
0000
1100
0000
0000
0000
0010
0000
1000
0000
0001
0000
,  // measure 61
0200
0010
1000
0301
,  // measure 62
0002
0100
0010
0103
,  // measure 63
2000
0010
0100
3010
,  // measure 64
0002
0100
0010
0103
,  // measure 65
2000
0010
0100
3010
,  // measure 66
0020
0000
0000
0100
0000
0000
0100
0000
0000
0000
0100
0000
0000
0130
0000
0000
,  // measure 67
0200
0000
0000
0010
0000
0000
0010
0000
0000
0000
0010
0000
0000
0310
0000
0000
,  // measure 68
0002
0000
0000
1000
0000
0000
1000
0000
0000
0000
1000
0000
0000
1003
0000
0000
,  // measure 69
2000
0002
0000
3003
,  // measure 70
0220
0000
0000
0000
,  // measure 71
0000
0000
0000
0000
,  // measure 72
0330
0000
0000
0000
;
