#TITLE:LOL -lots of laugh-;
#SUBTITLE:;
#ARTIST:mikumix;
#TITLETRANSLIT:AC;
#SUBTITLETRANSLIT:;
#ARTISTTRANSLIT:;
#GENRE:Anime/Game;
#CREDIT:;
#BANNER:;
#BACKGROUND:;
#LYRICSPATH:;
#CDTITLE:;
#MUSIC:LOL -lots of laugh-.ogg;
#OFFSET:1.625000;
#SAMPLESTART:69.645103;
#SAMPLELENGTH:15.000000;
#LASTBEATHINT:1.354470;
#SELECTABLE:YES;
#DISPLAYBPM:138.000000;
#BPMS:0.000000=138.000000
,227.000000=130.000000
,228.000000=138.000000
;
#STOPS:
;
#BGCHANGES:1.500=LOL -lots of laugh-.avi=1.000=0=0=0=StretchNoLoop====,
99999=-nosongbg-=1.000=0=0=0 // don't automatically add -songbackground-
;
#KEYSOUNDS:;
#ATTACKS:;

//---------------dance-single - ----------------
#NOTES:
     dance-single:
     :
     Beginner:
     2:
     0.090169,0.140456,0.006936,0.000000,0.000000,91.000000,90.000000,1.000000,0.000000,0.000000,0.000000,0.090169,0.140456,0.006936,0.000000,0.000000,91.000000,90.000000,1.000000,0.000000,0.000000,0.000000:
0000
0000
0000
0000
,
0000
0000
0000
0000
,
0000
0000
0000
0000
,
0000
0000
0000
0000
,
0000
0000
0000
0000
,
1000
0000
0000
0000
,
0001
0000
0000
0000
,
1000
0000
0000
0000
,
0001
0000
0000
0000
,
0100
0000
1000
0000
,
0100
0000
0000
0000
,
0010
0000
0000
0000
,
0100
0000
0000
0000
,
0001
0000
0100
0000
,
0001
0000
0000
0000
,
0100
0000
0000
0000
,
0010
0000
0000
0000
,
1000
0000
0000
0000
,
0100
0000
0000
0000
,
0010
0000
0000
0000
,
0001
0000
0000
0000
,
0100
0000
0000
0000
,
0010
0000
0000
0000
,
0001
0000
0000
0000
,
1000
0000
0000
0000
,
0100
0000
0000
0000
,
0010
0000
0000
0000
,
1000
0000
0000
0000
,
0001
0000
0000
0000
,
1000
0000
0000
0000
,
0100
0000
0000
0000
,
0010
0000
0000
0000
,
0001
0000
0000
0000
,
0010
0000
0000
0000
,
0100
0000
0000
0000
,
1000
0000
0000
0000
,
0001
0000
0000
0000
,
0100
0000
0000
0000
,
0010
0000
0000
0000
,
1000
0000
0000
0000
,
0001
0000
0000
0000
,
0100
0000
1000
0000
,
0100
0000
0000
0000
,
0010
0000
0000
0000
,
0001
0000
0000
0000
,
0100
0000
0001
0000
,
0100
0000
0000
0000
,
1000
0000
0000
0000
,
0010
0000
0000
0000
,
0010
0000
0001
0000
,
0010
0000
0000
0000
,
0100
0000
0000
0000
,
1000
0000
0000
0000
,
0010
0000
1000
0000
,
0010
0000
0000
0000
,
0100
0000
0000
0000
,
0010
0000
0000
0000
,
1000
1000
1000
0000
,
0001
0000
0000
0000
,
0010
0000
0000
0000
,
0100
0000
0000
0000
,
0001
0001
0001
0000
,
0100
0000
0000
0000
,
1000
0000
0000
0000
,
0010
0000
0000
0000
,
0100
0000
0000
0000
,
0001
0000
0000
0000
,
0010
0000
0000
0000
,
0100
0000
0000
0000
,
0010
0000
1000
0000
,
0010
0000
0000
0000
,
0100
0000
0000
0000
,
0001
0000
0000
0000
,
0100
0000
1000
0000
,
0100
0000
0000
0000
,
0010
0000
0000
0000
,
0001
0000
0000
0000
,
0100
0000
0001
0000
,
0100
0000
0000
0000
,
1000
0000
0000
0000
,
0001
0000
0000
0000
,
1001
0000
0000
0000
;

//---------------dance-single - ----------------
#NOTES:
     dance-single:
     :
     Easy:
     6:
     0.276454,0.337095,0.221956,0.083233,0.000000,279.000000,247.000000,32.000000,12.000000,0.000000,0.000000,0.276454,0.337095,0.221956,0.083233,0.000000,279.000000,247.000000,32.000000,12.000000,0.000000,0.000000:
0000
0000
0000
0000
,
0000
0000
0000
0000
,
0000
0000
0000
0000
,
0000
0000
0000
0000
,
0000
0000
0000
0000
,
1000
0100
1000
0100
,
0001
0100
0001
0100
,
0020
0000
0000
0000
,
0200
0000
0000
0330
,
1000
0100
0010
0001
,
1001
0000
0000
0000
,
0010
0100
0010
0000
,
1000
0001
1000
0000
,
1000
1000
1100
0000
,
0110
1001
0110
0000
,
0010
0010
0011
0000
,
0001
0100
0010
1000
,
0001
0100
0010
0000
,
0100
0010
1000
0001
,
0100
0100
0010
0000
,
1000
0001
0100
0000
,
0010
0010
0011
0000
,
0110
1001
0110
0000
,
1000
1000
1100
0000
,
1000
0010
0100
0001
,
0100
0010
0100
0000
,
0001
0100
1000
0000
,
0010
1000
0001
0000
,
1000
0100
0010
0001
,
0100
0010
1000
0000
,
0001
0100
0010
0000
,
1000
0100
0001
0010
,
1100
0101
1100
0000
,
0010
1000
0001
0000
,
0100
0010
1000
0001
,
0100
0010
0100
0000
,
0001
0010
0100
1000
,
0001
0100
0010
0000
,
1000
0010
0100
0001
,
0100
0100
0010
1000
,
0002
0000
0000
1003
,
0010
0100
0010
1000
,
0010
0100
0010
0000
,
0100
0010
0100
0001
,
0100
0010
0100
0000
,
0001
0010
0100
1000
,
0100
0010
0001
0000
,
1000
0100
0010
0001
,
0010
1100
0101
1100
,
0001
1000
0001
0000
,
0100
0010
1000
0001
,
0100
0010
0100
0000
,
0001
1000
0010
0100
,
0002
0000
0103
1000
,
2000
0000
3010
0100
,
0002
0000
0000
0000
,
1003
1000
0010
1001
,
0100
1000
0100
1000
,
0200
0000
0310
0000
,
0001
1000
0010
0000
,
1000
0001
0100
0000
,
1000
1000
1100
0000
,
0110
1001
0110
0000
,
0010
0010
0011
0000
,
0100
0001
1000
0000
,
0010
0000
0000
0100
,
1001
0100
0010
1000
,
0002
0100
0103
1000
,
0020
0000
0130
1000
,
0200
1000
1300
0010
,
1000
0001
0100
0000
,
1000
0001
0010
1000
,
0100
0001
0011
1010
,
0001
0010
2000
0000
,
3010
0100
0001
0100
,
0010
1000
0200
0000
,
0310
0001
0100
1000
,
0100
0100
0110
0000
,
0110
1001
0110
0000
,
0100
0100
0110
0000
,
0001
0100
0010
1000
,
1001
0000
0000
0000
;

//---------------dance-single - ----------------
#NOTES:
     dance-single:
     :
     Medium:
     9:
     0.376532,0.421369,0.208083,0.083233,0.000000,380.000000,350.000000,30.000000,12.000000,0.000000,0.000000,0.376532,0.421369,0.208083,0.083233,0.000000,380.000000,350.000000,30.000000,12.000000,0.000000,0.000000:
0000
0000
0000
0000
,
0000
0000
0000
0000
,
0000
0000
0000
0000
,
0000
0000
0000
0000
,
0000
0000
0000
0000
,
1000
0100
1000
0100
,
0001
0100
0001
0100
,
0010
0100
0010
0100
,
0001
0000
1000
0000
0001
1000
0010
0000
,
1000
0000
0001
0000
0100
0010
1000
0000
,
0002
0100
0100
0103
,
0010
1000
0100
0000
0010
0000
1001
0000
,
0100
0001
0010
0000
0100
0000
0110
0000
,
0001
1000
0010
0100
,
0002
1000
1000
1003
,
0010
1000
0100
0000
0010
0000
0110
0000
,
0100
0001
0010
0000
0100
0000
0110
0000
,
0001
0100
0010
1000
,
0200
1000
1000
1300
,
0010
0000
1000
0000
0001
0100
1000
0000
,
0010
0000
1000
0000
1000
0100
0001
0000
,
0020
0100
0100
0130
,
0001
0000
1000
0000
0010
0100
0010
0000
,
1000
1000
0100
0000
0010
0000
0100
0000
,
0001
0001
0010
0000
0001
0000
1000
0000
,
0010
0100
0001
0000
1000
0000
1100
0000
,
1000
0010
0100
0000
0001
0000
0011
0000
,
1000
0010
0100
0001
0010
0000
1000
0000
,
0010
0100
0100
0110
,
0001
0000
1000
0000
0010
1000
0001
0000
,
0100
0000
0010
0000
1000
0001
0100
0000
,
0010
0000
1000
0000
0010
0100
0001
0000
,
0110
1001
1001
0110
,
0001
0000
1000
0000
0010
1000
0001
0000
,
0100
0010
1000
0001
,
0010
1000
0100
0000
0001
0000
1000
0000
,
0010
0100
0100
0110
,
0001
1000
0010
0000
1000
0000
0001
0000
,
1000
0010
0100
0000
0001
0000
0100
0000
,
0001
0000
1000
0010
0100
0000
0001
0000
,
0010
0000
0001
0100
0010
0000
0000
0000
,
1000
0000
0100
0000
0010
1000
0001
0000
,
0100
0010
1001
0000
,
0001
0000
0010
0000
0100
0010
1000
0000
,
0001
0100
0010
1000
,
0100
0000
1100
0000
0001
1000
0010
0000
,
0100
0001
1001
0000
,
0100
0000
0011
0000
0001
0100
0010
0000
,
1000
1100
0101
1001
,
0010
1000
0010
0000
0001
0000
1001
0000
,
0100
0001
0100
0000
1000
0000
0110
0000
,
0001
0000
0100
0000
0010
1000
0001
0000
,
0100
0000
0010
0000
0001
1000
0010
0000
,
1000
0000
0100
0001
0100
0000
1000
0000
,
1100
0000
1000
0100
1000
0000
0020
0000
,
0100
0100
0100
0130
,
0001
0100
0010
0000
1001
0000
0000
0000
,
1001
0000
0010
0000
1000
0010
0100
0000
,
0001
0000
0010
0000
0100
0000
0010
0001
,
0001
0000
1000
0000
0100
0010
1000
0000
,
0001
0100
0220
0330
,
0001
0000
0100
0000
0010
1000
0001
0000
,
0100
0000
0001
0000
0010
0000
0100
1000
,
1000
0000
0010
0000
0100
0001
1000
0000
,
0020
0100
0000
0130
,
0002
0000
0000
1003
,
0010
1000
0001
0000
0100
0000
1001
0000
,
0010
0000
1000
0000
0001
0100
0010
0000
,
1000
0100
1000
0010
,
0001
0000
0100
0000
0010
1000
0001
0000
,
0100
0001
0010
1000
,
0100
0000
0001
0000
1000
0001
0100
0000
,
1000
1100
0101
1001
,
0010
1000
0001
0000
0100
0000
0010
0000
,
1000
0001
0100
0000
0010
0000
1000
0000
,
0001
1000
0010
0000
1000
0000
0100
0000
,
0001
0100
1000
0000
0010
0000
0100
0000
,
0002
0000
1000
0000
1003
0000
0010
1000
,
0200
0000
0010
0000
0010
0000
0310
0002
,
1000
1000
1000
1003
,
0010
1000
0001
0000
0100
0001
1000
0000
,
0110
0000
0000
0000
;

//---------------dance-single - ----------------
#NOTES:
     dance-single:
     :
     Hard:
     12:
     0.513272,0.561825,0.325997,0.041617,0.069361,518.000000,471.000000,47.000000,6.000000,0.000000,0.000000,0.513272,0.561825,0.325997,0.041617,0.069361,518.000000,471.000000,47.000000,6.000000,0.000000,0.000000:
// measure 0
0000
0000
0000
0000
,  // measure 1
0000
0000
0000
0000
,  // measure 2
0000
0000
0000
0000
,  // measure 3
0000
0000
0000
0000
,  // measure 4
0000
0000
0000
0000
,  // measure 5
1000
1000
1100
0000
,  // measure 6
0110
1001
0110
0000
,  // measure 7
0010
0010
0011
0000
,  // measure 8
0110
0000
0010
0000
0100
0010
1000
0001
,  // measure 9
0100
0000
0010
0000
1000
0001
0100
0010
,  // measure 10
1000
1100
1000
0001
,  // measure 11
0100
0010
1000
0001
0100
0010
1000
0000
,  // measure 12
0001
0100
0010
1000
0001
0100
0010
0000
,  // measure 13
1000
0000
0010
0000
0100
0001
1000
0000
,  // measure 14
0101
0000
1000
0000
0010
1000
0001
0000
,  // measure 15
0001
0100
0010
1000
0001
0100
0010
0000
,  // measure 16
1000
0010
0100
0001
1000
0010
0100
0000
,  // measure 17
0001
0000
0100
0000
0010
1000
0001
0000
,  // measure 18
0101
0000
0001
0000
0010
0100
1000
0000
,  // measure 19
0100
0001
1000
0010
0100
0001
1000
0000
,  // measure 20
0010
0100
0001
1000
0010
0100
0001
0000
,  // measure 21
0100
0010
1000
0100
0001
0100
0010
0000
,  // measure 22
0001
0000
1001
0000
0010
1000
0100
0001
,  // measure 23
0010
0100
0010
0100
0001
1000
0001
1000
,  // measure 24
0001
0010
1000
0000
0100
0000
1100
0000
,  // measure 25
0010
0100
0001
0000
1000
0010
0100
0000
,  // measure 26
0001
0000
0010
0000
0100
0000
1000
0100
0000
0000
0000
0000
0010
0000
0000
0000
,  // measure 27
1000
0001
0100
0000
0010
1000
0001
0000
,  // measure 28
0011
1010
1100
0101
,  // measure 29
1000
0010
0100
0000
0001
0100
0010
0000
,  // measure 30
1000
0000
0001
0000
0100
0000
0001
0010
0000
0000
0000
0000
0001
0000
0100
0000
,  // measure 31
0010
0000
1000
0100
0000
0100
0010
0001
,  // measure 32
0100
1100
0101
1001
,  // measure 33
0010
1000
0100
0001
0010
0000
0010
0100
,  // measure 34
1000
0000
0001
0000
0100
0000
0010
1000
0000
0000
0000
0000
0001
0000
0000
0000
,  // measure 35
1000
0010
0001
0000
1100
0000
1000
0010
,  // measure 36
0100
1100
1001
0011
,  // measure 37
0001
1000
0010
1000
0100
0000
0001
0100
,  // measure 38
0010
0000
1000
0000
0100
0000
0010
0001
0000
0000
0000
0000
0010
0000
0100
0000
,  // measure 39
0002
0000
0100
0103
0000
1000
0010
0100
,  // measure 40
2000
0000
0100
3100
0000
0100
0010
0000
,  // measure 41
0001
0010
0100
1000
0010
0100
0001
1000
,  // measure 42
0010
1000
0100
0000
1100
0000
0101
0000
,  // measure 43
0010
0000
1000
0000
0001
0000
0100
0010
0000
0000
1000
0000
0001
0000
0010
0000
,  // measure 44
1000
0100
0001
0010
0010
0000
1001
0000
,  // measure 45
0010
1000
0100
0000
0001
0100
0010
1000
,  // measure 46
0100
0001
0100
1000
0010
0000
0200
0000
,  // measure 47
0310
0000
0001
0010
1000
0000
0010
1000
,  // measure 48
0001
1100
0101
1001
,  // measure 49
0010
1000
0100
0010
0100
0001
0010
0000
,  // measure 50
0001
0100
0010
0100
1000
0010
0100
0000
,  // measure 51
0001
0010
0100
0000
0010
0100
1000
0000
,  // measure 52
1000
0010
0100
0001
0010
0100
1000
0000
,  // measure 53
0020
0000
0000
0100
0130
0000
0001
1000
,  // measure 54
0010
0000
0100
0000
0001
0000
0010
1010
,  // measure 55
1000
0000
0110
0000
0001
0100
1000
0000
,  // measure 56
0001
1000
0010
1000
0100
0001
0100
0000
,  // measure 57
1000
0000
1000
1100
0000
0100
0110
0000
,  // measure 58
1001
0000
0110
0000
0001
0010
0100
1000
,  // measure 59
0010
0000
1000
0010
0000
1000
0010
0000
0001
0000
0010
0000
1000
0000
0100
0000
,  // measure 60
0010
0000
0001
0100
0000
0001
0100
0000
0001
0000
0010
0000
0100
0000
1000
0000
,  // measure 61
0100
0000
0100
0110
0000
0010
0011
0000
,  // measure 62
1001
0000
0010
0000
0001
0010
0100
1000
,  // measure 63
0010
0000
1000
0010
0000
1000
0010
0000
0001
0000
0010
0000
1000
0000
0100
0000
,  // measure 64
0010
0000
0001
1000
0000
0001
1000
0000
0001
0000
0010
1000
0001
0000
0000
0000
,  // measure 65
0001
0020
0000
0100
0000
0130
0001
0010
,  // measure 66
1000
0100
0010
0000
1100
0000
0101
0000
,  // measure 67
0001
0000
0010
0000
1000
0000
0100
0010
0000
0000
0001
0000
0010
0000
0100
0000
,  // measure 68
1000
0010
1000
0001
0010
0000
0011
0000
,  // measure 69
0001
0100
0010
1000
0100
0000
1100
0000
,  // measure 70
1000
0010
0100
0001
0010
0000
0011
0000
,  // measure 71
0001
0100
0010
1000
0100
0010
0001
0010
,  // measure 72
0100
0000
1000
0100
1000
0000
0001
0010
0001
0000
1000
0100
0001
0000
0000
0000
,  // measure 73
0010
0100
1000
0010
1000
0100
0001
0000
,  // measure 74
0010
0100
0001
0100
0010
1000
0100
0000
,  // measure 75
0010
0000
1000
0000
0001
0000
0010
1000
0000
0000
0010
0000
1000
0000
0001
0000
,  // measure 76
0010
0100
0010
1000
0001
0000
0011
0100
,  // measure 77
1000
0000
1100
0100
0001
0000
0010
0100
,  // measure 78
0020
0000
0100
0000
0100
0000
0130
0001
,  // measure 79
1000
0010
1001
0110
,  // measure 80
0001
0000
0010
0000
0100
0000
1000
0000
0010
0000
0001
1000
0010
0000
0000
0000
,  // measure 81
1001
0000
0000
0000
;
