#TITLE:恋とキングコング;
#SUBTITLE:;
#ARTIST:日向美ビタースイーツ♪;
#TITLETRANSLIT:Koi to King Kong;
#SUBTITLETRANSLIT:;
#ARTISTTRANSLIT:Hinatabi Bittersweets♪;
#GENRE:jubeat;
#CREDIT:;
#BANNER:;
#BACKGROUND:;
#LYRICSPATH:;
#CDTITLE:;
#MUSIC:Koi to King Kong.ogg;
#OFFSET:0.120000;
#SAMPLESTART:74.318970;
#SAMPLELENGTH:15.000000;
#SELECTABLE:YES;
#DISPLAYBPM:158.000000;
#BPMS:0.000000=158.000000
;
#STOPS:
;
#BGCHANGES:;
#KEYSOUNDS:;
#ATTACKS:;

//---------------dance-single - ----------------
#NOTES:
     dance-single:
     :
     Beginner:
     1:
     0.090313,0.126871,0.008660,0.000000,0.000000,72.000000,1.000000,0.000000,0.000000,0.000000,0.000000,0.090313,0.126871,0.008660,0.000000,0.000000,72.000000,1.000000,0.000000,0.000000,0.000000,0.000000:
0000
0000
0000
0000
,
0000
0000
0000
0000
,
0000
0000
0000
0000
,
0000
0000
0000
0000
,
0000
0000
0000
0000
,
1000
0000
0000
0000
,
1000
0000
0000
0000
,
0001
0000
0000
0000
,
0001
0000
0000
0000
,
1000
0000
0000
0000
,
0010
0000
0000
0000
,
0100
0000
0000
0000
,
0001
0000
0000
0000
,
1000
0000
0000
0000
,
0100
0000
0000
0000
,
0010
0000
0000
0000
,
0001
0000
0000
0000
,
0001
0000
0000
0000
,
0100
0000
0000
0000
,
0010
0000
0000
0000
,
1000
0000
0000
0000
,
0001
0000
0000
0000
,
0010
0000
0000
0000
,
0100
0000
0000
0000
,
1000
0000
0000
0000
,
0100
0000
0000
0000
,
1000
0000
0000
0000
,
0010
0000
0000
0000
,
0000
0000
0000
0000
,
0001
0000
0000
0000
,
0100
0000
0000
0000
,
0010
0000
0000
0000
,
0000
0000
0000
0000
,
1000
0000
0000
0000
,
0100
0000
0000
0000
,
1000
0000
0000
0000
,
0010
0000
0000
0000
,
1000
0000
0000
0000
,
0100
0000
0000
0000
,
1000
0000
0000
0000
,
0010
0000
0000
0000
,
0001
0000
0000
0000
,
0100
0000
0000
0000
,
0001
0000
0000
0000
,
0010
0000
0000
0000
,
0001
0000
0000
0000
,
0100
0000
0000
0000
,
0001
0000
0000
0000
,
0010
0000
0000
0000
,
1000
0000
0100
0000
,
1000
0000
0000
0000
,
0001
0000
0000
0000
,
0001
0000
0000
0000
,
0001
0000
0100
0000
,
0001
0000
0000
0000
,
1000
0000
0000
0000
,
1000
0000
0000
0000
,
1000
0000
0010
0000
,
1000
0000
0000
0000
,
0001
0000
0000
0000
,
0001
0000
0000
0000
,
0001
0000
0010
0000
,
0001
0000
0000
0000
,
1000
0000
0000
0000
,
1000
0000
0000
0000
,
0100
0000
0000
0000
,
0100
0000
0000
0000
,
0010
0000
0000
0000
,
0010
0000
0000
0000
,
1000
0000
0000
0000
,
1000
0000
0000
0000
,
0001
0000
0000
0000
,
1001
0000
0000
0000
,
0010
0010
0000
0000
;

//---------------dance-single - ----------------
#NOTES:
     dance-single:
     :
     Easy:
     5:
     0.238772,0.253741,0.051961,0.051961,0.000000,181.000000,6.000000,6.000000,0.000000,0.000000,0.000000,0.238772,0.253741,0.051961,0.051961,0.000000,181.000000,6.000000,6.000000,0.000000,0.000000,0.000000:
0000
0000
0000
0000
,
0000
0000
0000
0000
,
0000
0000
0000
0000
,
0000
0000
0000
0000
,
0000
0000
0000
0000
,
1000
1000
0000
0000
,
0001
0001
0000
0000
,
1000
1000
0000
0000
,
0001
0000
0100
0000
,
1000
0000
0010
0000
,
0100
0000
1000
0000
,
0010
0000
0100
0000
,
0001
0000
0010
0000
,
0001
0000
0100
0000
,
0010
0000
0100
0000
,
1000
0000
0010
0000
,
0100
0100
0100
0000
,
0001
0000
0100
0000
,
0010
0000
1000
0000
,
0100
0000
0010
0000
,
0100
0000
0001
0000
,
1000
0000
0010
0000
,
0100
0000
0001
0000
,
0100
0000
0001
0000
,
0010
0000
1000
0000
,
0100
1000
1000
0000
,
0100
0001
0001
0000
,
0010
1000
1000
0000
,
0010
0001
0001
0000
,
1000
0100
0100
0000
,
0001
0100
0100
0000
,
0010
0100
1000
0001
,
0110
0000
0000
0000
,
1000
0100
1000
0000
,
0001
0100
0001
0000
,
1000
0010
1000
0000
,
0001
0010
0001
0000
,
1000
0100
0001
0000
,
1000
0010
0001
0000
,
1000
0100
0001
0000
,
1000
0010
0001
0000
,
1000
0100
1000
0100
,
0020
0000
0000
0000
,
0031
0100
0001
0100
,
0020
0000
0000
0000
,
1030
0000
1000
0000
,
0200
0000
0300
0000
,
0001
0000
0001
0000
,
0200
0000
0300
0000
,
1000
0100
0010
0100
,
1100
0000
1000
0000
,
0010
0100
0010
0100
,
1000
0100
0001
0000
,
0010
1000
0001
0010
,
0100
1000
0100
0010
,
0100
0000
0010
0000
,
1000
0001
1001
0000
,
0001
0010
0100
0010
,
0011
0000
0001
0000
,
0010
0100
0010
0100
,
0001
0100
1000
0000
,
1000
0010
0100
0001
,
0010
0100
1000
0100
,
0001
0000
0010
0000
,
1000
0000
0100
0000
,
1000
1000
0100
0000
,
0001
0001
0100
0000
,
1000
1000
0010
0000
,
0001
0001
0010
0000
,
2000
0100
0100
3000
,
0002
0100
0100
0003
,
0010
0100
0010
0100
,
1001
0000
0100
0000
,
0010
0110
0000
0000
;

//---------------dance-single - ----------------
#NOTES:
     dance-single:
     :
     Medium:
     7:
     0.372385,0.380612,0.199182,0.138562,0.000000,262.000000,23.000000,16.000000,0.000000,0.000000,0.000000,0.372385,0.380612,0.199182,0.138562,0.000000,262.000000,23.000000,16.000000,0.000000,0.000000,0.000000:
0000
0000
0000
0000
,
0000
0000
0000
0000
,
0000
0000
0000
0000
,
0000
0000
0000
0000
,
0000
0000
0000
0000
,
1000
0100
0000
0000
,
0100
0010
0000
0000
,
0010
0001
0010
0100
,
2100
0000
0100
3100
,
0001
0100
0010
0000
1000
0000
0100
0000
,
0010
0100
0001
0010
,
2000
0000
0000
0000
0010
0000
3010
0001
,
0000
0100
0000
0000
0001
0000
0001
0000
,
0010
1000
0010
0100
,
0001
1000
0010
0100
,
0002
0000
0100
0000
0100
0000
0103
0010
,
0000
0010
0000
1000
0000
0001
0000
0000
,
1000
0000
0010
0000
1000
0001
0100
0000
,
0010
1000
0001
0010
,
0200
0000
0001
0000
0001
0000
0301
1000
,
0000
0010
0000
1000
0000
0100
0000
0000
,
1100
0000
0101
0000
0010
1000
0100
0000
,
0011
0000
1010
0000
0001
0010
1000
0000
,
1000
0100
0010
0100
,
0002
0000
0100
0103
,
1000
0010
1000
0100
,
0001
0000
0000
0101
0000
0000
0010
0000
,
1000
0000
0000
1100
0000
0000
0010
0000
,
1000
0001
0010
1000
,
0010
0000
0100
0000
0001
0010
1000
0000
,
0001
0000
0000
0011
0000
1000
0010
0000
,
0001
0010
0100
1000
0000
1000
0100
0000
,
0101
0000
0001
0001
,
2000
0000
0010
0000
,
0100
0000
0010
0000
,
3200
0000
0010
0000
,
1000
0000
0010
0000
,
0302
0000
0010
0000
,
0100
0000
0010
0000
,
0023
0000
0100
0000
,
0001
0000
0100
0000
,
0130
0001
1000
0010
,
2100
0000
3100
0010
,
1000
0010
0100
0001
,
0012
0000
0013
0100
,
0001
0000
0000
1000
0010
0000
0000
1000
,
0000
0100
0010
0000
0000
0000
0000
0000
,
0010
0000
0000
0100
0001
0000
0000
0001
,
0000
0001
0010
0000
1000
0000
1100
0000
,
0010
0000
1000
0000
0001
0100
0010
0000
,
1000
0100
0001
1100
,
0010
1000
0001
0011
,
0001
0100
2100
0000
,
3100
0000
0010
1000
0001
0000
0010
0000
,
1000
0000
0010
0000
0100
0001
1000
0000
,
0010
1000
0100
0001
,
0001
0100
1000
0000
1010
0000
0000
0000
,
1100
0000
0001
0000
0100
0010
0000
0010
,
0000
0010
1000
0000
0001
0000
1000
0000
,
0010
0000
1000
0000
0100
0001
0000
0001
,
0000
0001
0010
0000
1000
0000
1100
0000
,
0010
1000
0001
0000
0100
0000
0010
0000
,
1000
0001
0010
0000
1000
0000
0100
0000
,
0101
0010
0100
1000
,
1100
0010
1000
0001
,
0200
0000
0010
0000
0010
0000
0310
0001
,
2000
0000
0010
0000
0010
0000
3010
0100
,
0002
0000
0100
0000
0100
0000
0103
1000
,
0020
0000
0100
0000
0100
0000
0130
0010
,
0000
0010
0100
0000
0110
0000
1000
0001
,
0000
0001
1000
0000
1001
0000
0010
0000
,
1000
0000
0001
1000
0010
1000
0000
0001
,
0000
0000
1000
0000
0100
0000
0000
0010
,
0000
0110
0000
0000
;

//---------------dance-single - ----------------
#NOTES:
     dance-single:
     :
     Hard:
     11:
     0.488678,0.507482,0.311764,0.095261,0.017320,348.000000,36.000000,11.000000,0.000000,0.000000,0.000000,0.488678,0.507482,0.311764,0.095261,0.017320,348.000000,36.000000,11.000000,0.000000,0.000000,0.000000:
// measure 0
0000
0000
0000
0000
,  // measure 1
0000
0000
0000
0000
,  // measure 2
0000
0000
0000
0000
,  // measure 3
0000
0000
0000
0000
,  // measure 4
0000
0000
0000
0000
0000
0000
0000
1001
,  // measure 5
0000
0000
1001
0000
0010
1000
0100
0110
,  // measure 6
0000
0000
0110
0000
0001
0010
1000
1100
,  // measure 7
0000
0000
1100
0000
1000
0100
0010
0022
,  // measure 8
0000
0000
0000
0033
,  // measure 9
0001
0010
0100
1000
0100
0000
1100
0000
,  // measure 10
0010
1000
0001
0000
0001
1000
0010
0000
,  // measure 11
1000
0100
0010
0100
0001
0000
0101
0000
,  // measure 12
0001
0100
0010
0100
1000
0000
1100
0000
,  // measure 13
0010
1000
0100
0010
0100
0000
0001
0000
,  // measure 14
0100
0010
0100
0001
0010
0000
1000
0000
,  // measure 15
0100
0000
1100
0000
0001
0100
0010
1000
,  // measure 16
0002
0000
0000
0100
0000
0103
0000
0100
,  // measure 17
0010
1000
0100
0010
0100
0001
0010
0100
,  // measure 18
0000
1100
0000
1000
0010
1000
0000
0001
,  // measure 19
0100
0000
0001
0000
0001
0100
0010
0000
,  // measure 20
1000
0100
0010
0100
0000
0001
0100
0000
,  // measure 21
0001
0010
0100
1000
0100
0010
0100
0000
,  // measure 22
0001
0010
1000
0100
0010
0100
0001
0000
,  // measure 23
0010
1000
0100
1100
,  // measure 24
0001
0100
0010
1000
0000
0000
1100
0000
,  // measure 25
1000
0000
0010
0000
1000
0001
0100
0000
,  // measure 26
0010
0000
0000
0100
0000
0000
0001
0000
0000
0000
0010
0000
1000
0000
0000
0000
,  // measure 27
0001
0000
0000
1000
0000
0000
0010
0000
0000
0000
1000
0000
0100
0000
0010
0000
,  // measure 28
0000
0001
0010
0100
0000
0001
1000
0000
,  // measure 29
0010
1000
0100
0010
0000
0001
0010
0000
,  // measure 30
0001
0000
0000
0100
0000
0000
0010
0000
0000
0000
1000
0000
0100
0000
0010
0000
,  // measure 31
0100
0000
0001
0010
0000
0010
0100
0000
,  // measure 32
1100
0000
0101
0000
0010
0100
1000
0000
,  // measure 33
0002
0000
0000
0100
0000
0100
0000
0100
,  // measure 34
0000
0100
0000
0100
0000
0103
0010
1000
,  // measure 35
0001
0000
0000
1000
0000
0000
0010
0000
0000
0000
1000
0000
0000
0000
2100
0000
,  // measure 36
0000
0000
0000
0000
0000
0000
3000
0100
,  // measure 37
0010
1000
0001
0000
0010
0100
0001
0000
,  // measure 38
0010
1000
0100
0000
0010
1000
0100
0000
,  // measure 39
0001
0010
0100
1000
0010
0000
1001
0000
,  // measure 40
1000
0100
0010
0001
0100
0000
1001
0000
,  // measure 41
0010
0000
1000
0100
0000
0001
0100
0000
,  // measure 42
0010
1000
1001
0000
,  // measure 43
0001
0000
1000
0001
0000
0001
0100
0000
,  // measure 44
0010
1000
1001
0000
,  // measure 45
2000
0000
0000
0100
0100
0000
0000
0100
,  // measure 46
0000
0100
0000
0000
0000
0000
3100
0000
,  // measure 47
0002
0000
0000
0100
0100
0000
0000
0100
,  // measure 48
0000
0100
0000
0000
0000
0000
0103
0000
,  // measure 49
0010
1000
0100
0010
0100
0001
0100
0000
,  // measure 50
0010
0101
0010
1100
,  // measure 51
0010
1000
0100
0000
1001
0000
1001
0000
,  // measure 52
0001
1000
0010
0000
0000
0000
0000
0000
,  // measure 53
0001
0100
0010
0000
0001
0100
0001
0000
,  // measure 54
0001
1000
0010
0000
1000
0000
1100
0000
,  // measure 55
1000
0010
0100
0000
0010
0100
0001
0000
,  // measure 56
0001
0010
0100
1000
0100
0000
0101
0000
,  // measure 57
0001
0100
0000
1000
0100
0010
0000
1001
,  // measure 58
0000
0010
0000
1000
0001
0010
0000
0000
,  // measure 59
0011
0000
0101
0000
0001
1000
0000
1000
,  // measure 60
0010
1000
0100
0001
0010
0000
0110
0000
,  // measure 61
0001
0010
0100
0000
0010
0100
1000
0000
,  // measure 62
1000
0100
0010
0000
0100
0010
0001
0000
,  // measure 63
0001
0100
0010
1000
0100
0000
1100
0000
,  // measure 64
0101
0010
2000
0000
,  // measure 65
0100
0000
3100
0000
0001
0100
0020
0000
,  // measure 66
0100
0000
0000
0000
0100
0030
0000
0000
0001
0000
1000
0000
0002
0000
0000
0000
,  // measure 67
0100
0000
0000
0000
0100
0003
0000
0000
0010
0000
1000
0000
0100
0000
0010
0000
,  // measure 68
0000
0001
0100
0000
0010
0100
1000
0100
,  // measure 69
0000
1100
0100
0000
0000
0001
0100
0000
,  // measure 70
0000
0100
0101
0000
0001
0010
0100
1000
,  // measure 71
0010
0000
1000
0100
0010
0100
0001
0020
,  // measure 72
0000
0000
0000
0000
0100
0000
0000
0030
0100
0000
0000
0000
0001
0000
1000
0000
,  // measure 73
0000
1000
1001
0000
0000
0000
0000
0000
;
