#TITLE:キミヱゴサーチ;
#SUBTITLE:;
#ARTIST:ここなつ;
#TITLETRANSLIT:Kimi ego search;
#SUBTITLETRANSLIT:;
#ARTISTTRANSLIT:CocoNatsu;
#GENRE:SOUND VOLTEX;
#CREDIT:;
#BANNER:;
#BACKGROUND:;
#LYRICSPATH:;
#CDTITLE:;
#MUSIC:Kimi ego search.ogg;
#OFFSET:0.697000;
#SAMPLESTART:57.308086;
#SAMPLELENGTH:15.000000;
#SELECTABLE:YES;
#BPMS:0.000000=120.000000
;
#STOPS:
;
#BGCHANGES:;
#KEYSOUNDS:;
#ATTACKS:;

//---------------dance-single - ----------------
#NOTES:
     dance-single:
     :
     Beginner:
     1:
     0.078520,0.098090,0.008456,0.008456,0.000000,63.000000,1.000000,1.000000,0.000000,0.000000,0.000000,0.078520,0.098090,0.008456,0.008456,0.000000,63.000000,1.000000,1.000000,0.000000,0.000000,0.000000:
0000
0000
0000
0000
,
0000
0000
0000
0000
,
0000
0000
0000
0000
,
0000
0000
0000
0000
,
0000
0000
0000
0000
,
1000
0000
1000
0000
,
0100
0000
0100
0000
,
0020
0000
0000
0000
,
0030
0000
0000
0000
,
0001
0000
0000
0000
,
0100
0000
0000
0000
,
0010
0000
0000
0000
,
1000
0000
0000
0000
,
0001
0000
0001
0000
,
0100
0000
0000
0000
,
1000
0000
1000
0000
,
0100
0000
0000
0000
,
0001
0000
0001
0000
,
0010
0000
0000
0000
,
1000
0000
1000
0000
,
0010
0000
0000
0000
,
1000
0000
0000
0000
,
0100
0000
0000
0000
,
0010
0000
0000
0000
,
0001
0000
0000
0000
,
1000
0000
0000
0000
,
0010
0000
0000
0000
,
0100
0000
0000
0000
,
0001
0000
0000
0000
,
1000
0000
0000
0000
,
0100
0000
0000
0000
,
1000
0000
0000
0000
,
0010
0000
0000
0000
,
1000
0000
0000
0000
,
0100
0000
0000
0000
,
1000
0000
0000
0000
,
0010
0000
0000
0000
,
0001
0000
0000
0000
,
0010
0000
0000
0000
,
0001
0000
0000
0000
,
0100
0000
0000
0000
,
0001
0000
0000
0000
,
0010
0000
0000
0000
,
0001
0000
0000
0000
,
0100
0000
0000
0000
,
1001
0000
0000
0000
,
0100
0000
0000
0000
,
1000
0000
0000
0000
,
0010
0000
0000
0000
,
0100
0000
0000
0000
,
0001
0000
0000
0000
,
1000
0000
1000
0000
,
0100
0000
0000
0000
,
0001
0000
0001
0000
,
0100
0000
0000
0000
,
1000
0000
1000
0000
,
0010
0000
0000
0000
,
0001
0000
0001
0000
,
0010
0000
0000
0000
;

//---------------dance-single - ----------------
#NOTES:
     dance-single:
     :
     Easy:
     4:
     0.245224,0.248395,0.093016,0.177576,0.000000,171.000000,11.000000,21.000000,0.000000,0.000000,0.000000,0.245224,0.248395,0.093016,0.177576,0.000000,171.000000,11.000000,21.000000,0.000000,0.000000,0.000000:
0000
0000
0000
0000
,
0000
0000
0000
0000
,
0000
0000
0000
0000
,
0000
0000
0000
0000
,
0000
0000
0000
0000
,
0100
1000
0001
0000
,
0010
0001
1000
0000
,
0220
0000
0000
0000
,
0330
0000
1000
1000
,
0100
1000
0010
0000
,
0001
0100
0010
0000
,
1000
0100
1000
0010
,
0001
0100
0001
0010
,
1001
0100
1000
0000
,
0010
0100
0001
0000
,
1000
0010
0100
0000
,
1000
0100
0001
0000
,
0010
0100
1000
0000
,
0001
0010
0100
0000
,
1000
0100
0001
0000
,
1000
0010
0002
0000
,
0103
0000
0010
1000
,
0010
0000
0010
0001
,
0010
0000
0110
0000
,
1100
0000
0101
0000
,
0001
0100
0001
0010
,
0001
0100
0001
0010
,
1000
0010
0100
1000
,
0010
0100
0220
0330
,
0001
0100
1000
0100
,
0001
0001
0011
0000
,
1000
0100
0001
0100
,
1000
1000
1100
0000
,
2000
0000
3010
0100
,
0002
0000
0103
0010
,
1000
0001
1000
0001
,
0100
0010
0220
0330
,
0001
0100
0001
0000
,
1000
0100
1000
0000
,
0001
0010
0001
0000
,
1000
0010
1000
0000
,
0001
0100
0020
0000
,
1030
0100
0002
0000
,
1003
0010
1000
0001
,
0100
0100
0220
0330
,
0001
1000
0010
0100
,
0001
0001
2002
3003
,
1000
0010
0100
0000
,
0001
0100
0010
0000
,
2000
0000
3100
0010
,
0002
0000
0013
0100
,
1000
0100
1000
0010
,
1000
0100
1000
0010
,
0001
0100
0001
0010
,
0001
0100
0001
0010
,
1000
0100
0002
0003
,
1000
0010
0002
0003
,
0001
0010
2000
3000
,
0001
0100
2000
3000
;

//---------------dance-single - ----------------
#NOTES:
     dance-single:
     :
     Medium:
     6:
     0.343073,0.322914,0.169120,0.202944,0.000000,240.000000,20.000000,24.000000,0.000000,0.000000,0.000000,0.343073,0.322914,0.169120,0.202944,0.000000,240.000000,20.000000,24.000000,0.000000,0.000000,0.000000:
0000
0000
0000
0000
,
0000
0000
0000
0000
,
0000
0000
0000
0000
,
0000
0000
0000
0000
,
0000
0000
0000
0000
,
1000
0000
0100
0000
1000
0100
0001
0000
,
0100
0000
0001
0000
0100
0001
1000
0000
,
0020
0100
0100
0100
,
0200
0000
0330
1001
,
0010
0000
1000
0000
0001
0100
0010
0000
,
1000
0000
0001
0000
1000
0010
0100
0000
,
0001
0100
1000
0010
,
2000
0001
0002
3003
,
0001
0100
0010
0000
1000
0000
1001
0000
,
1000
0010
0100
0000
0001
0000
0100
0000
,
0010
0100
0001
0000
1000
0000
1010
0000
,
0001
1000
0010
0000
0100
0000
0001
0000
,
1000
0001
0100
0000
0010
0000
0110
0000
,
1000
0001
0010
0000
1000
0000
1001
0000
,
0100
0001
1000
0000
0010
0000
0110
0000
,
2000
0001
0002
3003
,
0010
1000
0010
0100
,
0010
0001
0010
0100
,
2000
3001
0002
0103
,
0200
0310
0020
1030
,
0001
1000
0010
0000
1000
0000
1001
0000
,
1000
0001
0100
0000
0010
0000
0110
0000
,
1000
0100
0010
0001
,
1000
0100
1000
0000
2002
0000
3003
0000
,
0001
0100
0010
1000
,
0001
0101
1100
0101
,
0001
1000
0010
0001
,
1000
1010
0011
1010
,
0002
0000
0103
0000
0010
0000
1000
0001
,
0200
0310
1000
0001
,
0020
0000
1030
0001
0200
0000
0300
0000
,
0010
0000
1000
0001
0020
0000
0030
0000
,
0100
0000
0001
0000
1000
0010
0100
0000
,
0001
1000
0010
1001
,
0010
0000
1000
0000
0001
0100
0010
0000
,
1000
0001
0100
0110
,
2000
0000
3100
0001
,
0020
0000
0031
0100
,
1000
0010
0100
0001
,
0100
0000
1000
0000
0010
0000
1000
0001
,
0020
0000
0230
0000
,
0301
1000
0010
0000
1000
0010
0001
0000
,
0200
0000
0301
0000
0010
1000
0001
0000
,
0020
0000
1030
0000
0001
0100
0010
0000
,
1000
0100
0001
0010
,
2000
0001
0001
3001
,
0010
1000
0001
0000
0100
0000
1001
0000
,
0001
0100
0010
0000
1000
0000
0010
0000
,
1000
0001
0100
0000
0010
0000
1001
0000
,
0010
1000
0001
0000
0100
0000
1000
0000
,
0010
1000
0001
0000
0001
1000
0010
0000
,
1000
0100
0010
0000
0010
0100
1000
0000
,
0001
0010
0100
0000
0100
0010
0001
0000
,
0100
0010
1000
0000
0001
0000
1001
0000
;

//---------------dance-single - ----------------
#NOTES:
     dance-single:
     :
     Hard:
     9:
     0.440921,0.397433,0.228312,0.143752,0.118384,321.000000,27.000000,17.000000,0.000000,0.000000,0.000000,0.440921,0.397433,0.228312,0.143752,0.118384,321.000000,27.000000,17.000000,0.000000,0.000000,0.000000:
// measure 0
0000
0000
0000
0000
,  // measure 1
0000
0000
0000
0000
,  // measure 2
0000
0000
0000
0000
,  // measure 3
0000
0000
0000
0000
,  // measure 4
0000
0000
0000
0000
,  // measure 5
2000
0000
0000
3100
0000
0000
0000
0000
0001
0100
0000
0010
0000
0000
0000
0000
,  // measure 6
0002
0000
0000
0013
0000
0000
0000
0000
1000
0010
0000
0100
0000
0000
0000
0000
,  // measure 7
0001
1000
0010
0100
0001
1000
0010
0000
,  // measure 8
2002
0000
3003
0000
,  // measure 9
0010
1000
0001
0000
0100
0000
1001
0000
,  // measure 10
0010
1000
0001
0000
0100
0000
1001
0000
,  // measure 11
0010
1000
0001
0000
0100
0001
1000
0000
,  // measure 12
0001
1000
0010
0100
0001
1000
0110
0000
,  // measure 13
0001
1000
0010
1000
0001
0100
1001
0000
,  // measure 14
0001
0100
0001
1000
0010
0100
1001
0000
,  // measure 15
0010
1000
0100
0000
0010
0100
0001
0000
,  // measure 16
0100
0010
1000
0001
0100
0010
1000
0000
,  // measure 17
0001
0100
0010
1000
0010
0100
0101
0000
,  // measure 18
0001
0100
0010
1000
0010
0100
0101
0000
,  // measure 19
1000
0010
0100
0001
0100
0010
1010
0000
,  // measure 20
0001
0100
0010
1000
0001
0000
1001
0000
,  // measure 21
0020
0000
1030
0000
0001
0100
0010
0000
,  // measure 22
2000
0000
3010
0000
0001
1000
0100
0000
,  // measure 23
0002
0000
0000
0103
0000
0000
0000
0000
2000
0000
0000
3100
0000
0000
0000
0000
,  // measure 24
0002
0000
0000
0013
0000
0000
0000
0000
2000
0000
0000
3010
0000
0000
0000
0000
,  // measure 25
0001
0100
0010
1000
0001
0000
1001
0000
,  // measure 26
0100
0010
1000
0001
0010
0000
0110
0000
,  // measure 27
0001
0100
0010
0000
1000
0010
0100
0000
,  // measure 28
0001
0100
0010
1000
0001
0000
1002
0000
,  // measure 29
1003
0100
0001
0000
0010
0000
0100
0000
,  // measure 30
1000
0010
0000
1000
0000
0000
0000
0000
0001
0010
0000
0001
0000
0000
0000
0000
,  // measure 31
1000
0010
0100
0000
0001
0000
1001
0000
,  // measure 32
0001
0100
0000
0001
0000
0000
0000
0000
1000
0100
0000
1000
0000
0000
0000
0000
,  // measure 33
0010
0000
0000
0100
0000
0000
0010
0000
1000
0000
0000
0001
0000
0000
1000
0000
,  // measure 34
0010
0000
0000
0100
0000
0000
0002
0000
0000
0000
0103
0000
0000
0000
0100
0000
,  // measure 35
0010
1000
0001
0000
1000
0000
1001
0000
,  // measure 36
1000
0010
0100
0001
1000
0000
1001
0000
,  // measure 37
1000
0000
0000
0010
0000
0000
1000
0000
0001
0000
0000
0100
0000
0000
0001
0000
,  // measure 38
1000
0000
0001
1000
0010
0000
1001
0000
,  // measure 39
1000
0000
0000
0010
0000
0000
1000
0000
0001
0000
0000
0100
0000
0000
0001
0000
,  // measure 40
1000
0000
0010
0100
0001
0000
1001
0000
,  // measure 41
0020
0000
0000
0130
0000
0000
0002
0000
1003
0000
0000
0020
0000
0000
0130
0000
,  // measure 42
0002
0000
0000
1003
0000
0000
0020
0000
0000
0000
0031
0000
0000
0000
0100
0000
,  // measure 43
0000
0010
1000
0001
0000
1000
0001
0100
,  // measure 44
0010
1000
0001
0100
0010
1000
1001
0000
,  // measure 45
1000
0100
0001
0000
1000
0100
0001
0000
,  // measure 46
0001
0010
1000
0001
0100
1000
1001
0000
,  // measure 47
0100
0010
1000
0001
0100
0000
1001
0000
,  // measure 48
0010
1000
0001
0100
0010
0000
0110
0000
,  // measure 49
0001
0100
0010
0000
1000
0010
0100
0000
,  // measure 50
1000
0001
0100
0010
1000
0001
1001
0000
,  // measure 51
0001
0100
1000
0100
0001
0100
1000
0000
,  // measure 52
1000
0010
0001
0010
1000
0010
0001
0000
,  // measure 53
0010
1000
0001
0100
0010
1000
0001
0000
,  // measure 54
0100
1000
0100
0001
0010
1000
0010
0001
,  // measure 55
1000
0010
0100
0001
0010
0100
1001
0000
,  // measure 56
0100
0010
1000
0001
0100
0010
0101
0000
,  // measure 57
0010
0100
0001
0010
1000
0100
1010
0000
,  // measure 58
0010
1000
0001
0100
0010
0000
0110
0000
;
