#TITLE:かくしん的☆めたまるふぉ~ぜっ!;
#SUBTITLE:;
#ARTIST:土間うまる(CV\:田中あいみ);
#TITLETRANSLIT:Kakushinteki metamaruphose!;
#SUBTITLETRANSLIT:;
#ARTISTTRANSLIT:Umaru Doma (CV\:Aimi Tanaka);
#GENRE:Anime/Game;
#CREDIT:;
#BANNER:;
#BACKGROUND:;
#LYRICSPATH:;
#CDTITLE:;
#MUSIC:Kakushinteki metamaruphose!.ogg;
#OFFSET:0.630000;
#SAMPLESTART:57.642063;
#SAMPLELENGTH:15.000000;
#SELECTABLE:YES;
#BPMS:0.000000=139.000000
,96.000000=132.899994
,119.000000=139.000000
;
#STOPS:
;
#BGCHANGES:0.500=Kakushinteki metamaruphose!.avi=1.000=0=0=1=====,
99999=-nosongbg-=1.000=0=0=0 // don't automatically add -songbackground-
;
#KEYSOUNDS:;
#ATTACKS:;

//---------------dance-single - ----------------
#NOTES:
     dance-single:
     :
     Hard:
     11:
     0.587418,0.515968,0.406674,0.192040,0.169447,311.000000,36.000000,17.000000,0.000000,0.000000,0.000000,0.587418,0.515968,0.406674,0.192040,0.169447,311.000000,36.000000,17.000000,0.000000,0.000000,0.000000:
0000
0000
0000
0000
,
1000
0010
0001
0010
1000
0010
0001
0010
,
0100
0010
0100
0010
1000
0001
1001
0000
,
1000
0100
0001
0100
1000
0100
0001
0100
,
1000
0001
1000
0001
0010
0100
0110
0000
,
2002
0000
3003
0010
1001
0000
0000
0000
,
2002
0000
3003
0010
1001
0000
0000
0100
,
2200
0000
3300
1000
2002
0000
3003
0001
,
0011
0000
0100
0000
1000
0000
0010
0000
1000
0000
0000
0001
1000
0000
0000
0000
,
0001
0010
1000
0100
0010
0100
0010
0100
,
0001
0010
0100
1000
0001
1000
0001
1000
,
0001
0010
1000
0100
1001
0000
1001
0000
,
0010
0000
1000
0000
0100
0000
1000
0000
1000
0100
0000
1000
0100
0000
1000
0000
,
0010
0000
0100
0000
0001
0000
0100
0000
0001
0100
0000
0001
0100
0000
0001
0000
,
0010
0000
1000
0000
0100
0000
0010
0000
0100
0010
0000
0100
0010
0000
0100
0000
,
0001
0000
0000
0100
0000
0000
1000
0000
2002
0000
0000
0000
3003
0000
0000
0000
,
1000
0000
0000
1000
0000
0000
0010
0000
0200
0000
0000
0000
0300
0000
0000
0000
,
0001
0000
0000
0001
0000
0000
0100
0000
0020
0000
0000
0000
0030
0000
0000
0000
,
1000
0000
0000
0100
0000
0000
0001
0000
1000
0000
0000
0100
0000
0000
0001
0000
,
0010
0000
0000
1000
0000
0000
0001
0000
1000
0000
0000
0000
0110
0000
0000
0000
,
0001
0000
0000
0100
0000
0000
1000
0000
0001
0000
0000
0000
1000
0000
0000
0000
,
0001
0000
0000
0100
0000
0000
1000
0000
0001
0000
0000
0000
1000
0000
0000
0000
,
0001
0010
1000
0000
1000
0100
0001
0000
,
0001
0010
0100
1000
0010
0000
1001
0000
,
1100
0000
0000
1000
0000
1000
0100
0000
0000
0100
0000
0000
,
0110
0000
0000
0010
0000
0010
0001
0000
0000
1001
0000
0000
,
1001
0000
0000
0010
0000
0001
0100
0000
0000
0010
0000
0000
,
0100
0000
1000
0100
0000
0100
0010
0000
0000
1001
0000
0000
,
0001
0000
0001
0100
0000
0100
0010
0000
0010
1000
0000
1000
,
0001
0000
0000
0000
0001
0000
1000
0000
0001
0000
1000
0000
0001
0000
0000
0000
0000
0000
1001
0000
0000
0001
0000
0000
,
0100
0000
0100
0000
1100
1000
0100
0000
,
1001
0000
0110
0000
1001
0000
0001
0010
,
0100
0000
1000
0100
0010
0000
0001
0010
,
0100
1000
1000
1000
1001
0000
0000
0000
,
1000
0100
0010
0100
0010
0100
0001
0010
,
0100
1000
0010
1000
0010
1000
0100
0010
,
0001
0100
0001
0100
0001
0100
0001
0010
,
0100
1000
0001
1000
0001
1000
0001
0000
,
0010
1000
0010
1000
0001
1000
0001
1000
,
0100
0001
0100
0001
0100
0010
0100
0010
,
0000
1100
0000
1000
0000
1001
0000
0011
,
0010
0100
1000
0010
1000
0001
0100
0000
,
0001
0100
0101
0000
1000
0100
1100
0000
,
1000
0001
1000
0001
1000
0000
0001
0000
0100
0000
0010
0000
0110
0000
0000
0000
,
2001
0000
0001
3001
,
0001
0100
1000
0100
0001
0100
1000
0100
,
0010
0100
0010
0100
0001
1000
1001
0000
,
0001
0010
1000
0010
0001
0010
1000
0010
,
0001
1000
0001
1000
0100
0010
0110
0000
,
2200
0000
0000
3300
,
0001
0000
0000
0100
0000
0000
1000
0000
2002
0000
0000
0000
3003
0000
0000
0000
;

//---------------dance-single - ----------------
#NOTES:
     dance-single:
     :
     Medium:
     8:
     0.458315,0.401308,0.361488,0.406674,0.000000,216.000000,32.000000,36.000000,0.000000,0.000000,0.000000,0.458315,0.401308,0.361488,0.406674,0.000000,216.000000,32.000000,36.000000,0.000000,0.000000,0.000000:
0000
0000
0000
0000
,
1000
0100
0001
0000
0001
0100
1000
0000
,
1000
0100
0001
0000
0001
0100
1000
0000
,
1000
0010
0001
0000
0001
0010
1000
0000
,
1000
0010
0001
0000
0001
0010
1000
0000
,
2002
3003
0220
0330
,
2200
3300
0101
0011
,
1010
0000
2002
3003
,
0010
0100
0010
0000
0110
0000
1001
0000
,
2000
3100
0001
0010
,
0002
0103
0010
1000
,
0100
0010
0100
0000
2002
0000
3003
0000
,
1000
0000
0100
0000
1000
0100
1000
0000
,
0001
0000
0100
0000
0001
0100
0001
0000
,
0100
0000
0010
0000
0100
0010
0100
0000
,
0001
0010
0100
0000
2002
0000
3003
0000
,
0010
1000
2200
3300
,
1000
0001
0202
0303
,
0010
0100
0220
0330
,
1000
0001
2002
3003
,
0001
0100
2200
3300
,
1000
0100
0202
0303
,
0001
0100
0022
0033
,
1000
0010
2200
3300
,
0001
0100
1000
0100
,
0010
0010
1001
0000
,
1000
0100
0001
0100
,
0010
0010
1001
0000
,
1000
0001
0100
0001
,
1000
0010
1000
0100
,
1001
0010
1000
0100
,
1001
0000
0110
0000
1001
0000
0001
0100
,
2000
0000
0000
3001
0000
0000
0010
0100
,
0000
0100
0100
0100
0110
0000
0000
0000
,
0001
0100
1000
0000
0100
0000
0110
0000
,
1000
0100
0001
0000
0100
0000
0110
0000
,
0001
0100
0000
0100
0000
0100
0000
0100
,
1000
0100
0001
0000
1000
0001
1000
0000
,
0001
0000
1000
0000
0001
1000
0001
0000
,
0010
0000
0100
0000
0010
0100
0010
0000
,
1000
0100
0000
0100
0000
0100
0000
0100
,
0001
0100
1000
0000
0001
0100
1001
0000
,
0001
1000
0100
0000
0001
1000
0100
0000
,
0010
0100
0010
0100
0001
1000
0100
0000
,
0200
0000
0310
1001
,
0001
0010
1000
0000
1000
0010
0001
0000
,
0001
0010
1000
0000
1000
0010
0001
0000
,
0001
0100
1000
0000
1000
0100
0001
0000
,
0001
0100
1000
0000
1000
0100
0001
0000
,
2002
0000
0000
3003
,
0010
0100
0220
0330
;

//---------------dance-single - ----------------
#NOTES:
     dance-single:
     :
     Easy:
     6:
     0.371171,0.343978,0.350191,0.440563,0.000000,160.000000,31.000000,39.000000,0.000000,0.000000,0.000000,0.371171,0.343978,0.350191,0.440563,0.000000,160.000000,31.000000,39.000000,0.000000,0.000000,0.000000:
0000
0000
0000
0000
,
0100
0100
0010
0010
,
0100
0010
0100
0010
,
1000
1000
0001
0001
,
1000
0001
1000
0001
,
2002
0000
3003
0000
,
0220
0000
0330
0000
,
2200
0000
3300
0000
,
0202
0000
0303
0000
,
0001
0010
1000
0000
,
1000
0100
0001
0000
,
0100
0010
0100
0010
,
2002
3003
0010
0010
,
0100
0001
1000
0010
,
2002
3003
0100
0100
,
1000
0010
0200
0300
,
0010
0010
1001
0000
,
0100
0100
1001
0000
,
1000
0100
0001
0100
,
1000
0100
0001
0100
,
1000
1000
1001
0000
,
0001
0001
1001
0000
,
0001
0010
1000
0010
,
0001
0010
1000
1001
,
1000
0100
2200
3300
,
0001
0100
0202
0303
,
0001
0010
0022
0033
,
1000
0010
2020
3030
,
0001
1000
2002
3003
,
0100
0010
0220
0330
,
0001
0001
1000
0000
,
1000
1000
0001
0000
,
0100
0010
0100
0010
,
1001
1001
1001
0000
,
1000
0100
2200
3300
,
0001
0100
0202
0303
,
0010
0010
0100
0100
,
0010
0100
0010
0100
,
0001
0010
0022
0033
,
1000
0010
2020
3030
,
0001
0001
1000
1000
,
0001
1000
0001
1000
,
0100
1100
0100
0101
,
0001
0011
0010
1010
,
2002
0000
3003
0010
,
0010
1000
0010
1000
,
0001
0100
0001
0100
,
1000
0100
1000
0100
,
0001
0010
0001
0010
,
0220
0000
0330
0000
,
0001
0100
2002
3003
;

//---------------dance-single - ----------------
#NOTES:
     dance-single:
     :
     Beginner:
     2:
     0.104896,0.114095,0.135558,0.000000,0.000000,53.000000,12.000000,0.000000,0.000000,0.000000,0.000000,0.104896,0.114095,0.135558,0.000000,0.000000,53.000000,12.000000,0.000000,0.000000,0.000000,0.000000:
0000
0000
0000
0000
,
0000
0000
0000
0000
,
0000
0000
0000
0000
,
0000
0000
0000
0000
,
0000
0000
0000
0000
,
1001
0000
0000
0000
,
1001
0000
0000
0000
,
0110
0000
0000
0000
,
0110
0000
0000
0000
,
1000
0000
0000
0000
,
0100
0000
0000
0000
,
0001
0000
0100
0000
,
1000
0000
0000
0000
,
1000
0000
0000
0000
,
0001
0000
0000
0000
,
0001
0000
0000
0000
,
0010
0000
0000
0000
,
0010
0000
0000
0000
,
0100
0000
0000
0000
,
0100
0000
0000
0000
,
1000
0000
0000
0000
,
1000
0000
0000
0000
,
0001
0000
0000
0000
,
0001
0000
1000
0000
,
1001
0000
0000
0000
,
0010
0000
0000
0000
,
0100
0000
0000
0000
,
0010
0000
0000
0000
,
1000
0000
0000
0000
,
0001
0000
0000
0000
,
1001
0000
0000
0000
,
0010
0000
0000
0000
,
0100
0000
0000
0000
,
0001
0000
1000
0000
,
1001
0000
0000
0000
,
0100
0000
0000
0000
,
0010
0000
0000
0000
,
0100
0000
0000
0000
,
1000
0000
0000
0000
,
0001
0000
0000
0000
,
1000
0000
0000
0000
,
0001
0000
0000
0000
,
0100
0000
1000
0000
,
0100
0000
0001
0000
,
0100
0000
0000
0000
,
1001
0000
0000
0000
,
0110
0000
0000
0000
,
1001
0000
0000
0000
,
0110
0000
0000
0000
,
1001
0000
0000
0000
,
0100
0100
0100
0000
;

//---------------dance-single - ----------------
#NOTES:
     dance-single:
     :
     Challenge:
     13:
     0.735886,0.745287,1.000000,0.101668,0.378433,358.000000,89.000000,9.000000,0.000000,0.000000,0.000000,0.735886,0.745287,1.000000,0.101668,0.378433,358.000000,89.000000,9.000000,0.000000,0.000000,0.000000:
// measure 0
0000
0000
0000
0000
,  // measure 1
1001
1001
0110
0000
1001
0110
1001
1001
,  // measure 2
0000
1100
1010
1001
1010
1100
1001
0000
,  // measure 3
1001
1001
0110
0000
1001
0110
1001
1001
,  // measure 4
0000
1100
1010
1001
1010
1100
1001
0000
,  // measure 5
1001
0000
0000
0100
1100
1000
1001
0000
,  // measure 6
1001
0000
0000
0001
0101
0001
1001
0000
,  // measure 7
0220
0330
2002
3003
,  // measure 8
0001
0010
0100
1000
0100
1000
1100
0000
,  // measure 9
1000
0100
0010
0100
0001
0100
0011
0001
,  // measure 10
0100
1000
0010
0100
0001
0100
1000
0100
,  // measure 11
0010
0100
0001
0100
1000
0100
1100
1000
,  // measure 12
0010
0000
1000
0000
0010
0000
1000
0000
0010
1000
0000
0010
1000
0000
0001
0000
,  // measure 13
1000
0000
0010
0000
0100
0000
0010
0000
0100
0010
0000
0100
0010
0000
0001
0000
,  // measure 14
1000
0000
0100
0000
0001
0000
0100
0000
0001
0100
0000
0001
0100
0000
0010
0000
,  // measure 15
1000
0100
0010
1000
2002
0000
3003
0000
,  // measure 16
0001
0000
0010
0100
0000
0100
1000
0000
0100
0000
0000
0000
0010
0000
1000
0000
,  // measure 17
0100
0000
1000
0100
0000
0100
0010
0000
0001
0000
0000
0000
0100
0000
0010
0000
,  // measure 18
1000
0000
0001
0100
0000
0100
0010
0000
1000
0000
0001
0000
0100
0000
1000
0000
,  // measure 19
0010
0000
1000
0100
0000
0100
0010
0000
0001
0000
0100
0000
0010
0000
0000
0000
,  // measure 20
0010
0000
0100
0001
0000
0001
0100
0000
1000
0000
0010
0000
1000
0000
0000
0000
,  // measure 21
0010
0000
1000
0010
0000
0010
1000
0000
0001
0000
0100
0000
0001
0000
1000
0000
,  // measure 22
0010
0000
1000
0010
0000
0010
1000
0000
0010
0000
0100
0001
0000
0001
0100
0000
,  // measure 23
0001
1100
1001
0110
,  // measure 24
1100
0000
0000
1000
0010
1000
0010
0100
0001
0000
0001
0000
,  // measure 25
0001
0100
1000
0010
1000
0100
0001
0000
0000
1001
0000
0000
,  // measure 26
0001
0000
0000
1000
0010
1000
0001
0100
0001
0000
0001
0000
,  // measure 27
0010
0000
0100
1000
0001
0010
1000
0000
0000
1100
0000
0000
,  // measure 28
1000
0000
1000
0100
0010
0100
0001
0100
0001
0000
0001
0000
,  // measure 29
0001
0000
0100
0000
1000
0000
0010
0000
1000
0000
0100
0000
1000
0000
0000
0000
0000
0000
1100
0000
0000
1000
0000
0000
,  // measure 30
1001
0000
0000
0001
0000
0000
0100
0000
1000
0000
0010
0000
1000
0000
0100
0000
,  // measure 31
0001
0000
0000
0100
0000
0000
1000
0000
0100
0000
0000
0000
1001
0000
0001
0000
,  // measure 32
1000
0010
0000
0010
0000
0010
1000
0100
,  // measure 33
0001
0000
0100
0000
0100
0000
0100
0000
0110
0000
0000
0000
0001
0100
0001
0100
,  // measure 34
0001
0000
0010
0100
0000
1000
0010
0000
1000
0000
0001
0000
0100
0000
1000
0000
,  // measure 35
0010
0000
1000
0010
0000
0010
0100
0000
0001
0000
0010
0000
0100
0000
1000
0000
,  // measure 36
0001
1001
0000
1001
0010
0110
0000
0110
,  // measure 37
0001
0000
0010
0000
0100
0000
1000
0000
0010
0000
1000
0010
1000
0000
0000
0000
,  // measure 38
0001
0000
1000
0001
0000
0001
1000
0000
0010
0000
1000
0000
0100
0000
0001
0000
,  // measure 39
0010
0000
0100
0010
0100
0000
0001
1000
0001
0000
0001
0100
0010
0000
0100
0000
,  // measure 40
0001
1000
0000
1100
0000
1000
0000
1001
,  // measure 41
0001
0010
0100
1000
1010
0000
1001
0000
,  // measure 42
0001
0100
1100
0000
1000
0100
0101
0000
,  // measure 43
0001
0100
0001
0100
0010
0000
1000
0000
0001
0000
1000
0000
1001
0000
0010
0000
,  // measure 44
0210
0000
0010
0310
,  // measure 45
1001
1001
0110
0000
1001
0110
1001
1001
,  // measure 46
0000
1100
1010
1001
1010
1100
1001
0000
,  // measure 47
1001
1001
0110
0000
1001
0110
1001
1001
,  // measure 48
0000
1100
1010
1001
1010
1100
1001
0000
,  // measure 49
0220
0000
0000
0330
,  // measure 50
0001
0000
0010
0100
0000
0100
1000
0000
1001
0000
0000
0000
0110
0000
0000
0000
;
