#TITLE:廻廻奇譚;
#SUBTITLE:;
#ARTIST:Eve (From 呪術廻戦);
#TITLETRANSLIT:Kaikai Kitan;
#SUBTITLETRANSLIT:;
#ARTISTTRANSLIT:Eve (From Jujutsu Kaisen);
#GENRE:Anime/Game;
#CREDIT:;
#BANNER:;
#BACKGROUND:;
#LYRICSPATH:;
#CDTITLE:;
#MUSIC:Kaikai Kitan.ogg;
#OFFSET:1.035000;
#SAMPLESTART:48.695011;
#SAMPLELENGTH:15.000000;
#SELECTABLE:YES;
#BPMS:0.000000=185.050003
;
#STOPS:
;
#BGCHANGES:3.500=Kaikai Kitan.avi=1.000=0=0=0=StretchNoLoop====,
99999=-nosongbg-=1.000=0=0=0 // don't automatically add -songbackground-
;
#KEYSOUNDS:;
#ATTACKS:;

//---------------dance-single - ----------------
#NOTES:
     dance-single:
     :
     Hard:
     12:
     0.611692,0.683875,0.310600,0.244043,0.016639,386.000000,358.000000,28.000000,22.000000,0.000000,0.000000,0.611692,0.683875,0.310600,0.244043,0.016639,386.000000,358.000000,28.000000,22.000000,0.000000,0.000000:
0000
0000
0000
0000
,
0000
0000
0000
0000
,
0000
0000
0000
0000
,
1000
0100
0010
0001
0000
0010
0001
0010
,
0100
0000
1000
0000
0000
0000
0010
0000
1000
0000
0000
0001
0000
0000
2002
0000
,
0000
3003
1100
1001
,
0100
1000
0010
0100
0000
0001
1000
0000
,
1001
0110
0011
1001
,
0010
0001
0100
0010
0000
1000
0001
0000
,
1001
0000
0110
0000
1000
0010
0100
0000
,
0001
0100
0010
1000
0000
1000
1001
0000
,
0001
1000
0010
0100
0001
0100
0010
0000
,
1000
0010
0100
0001
0000
0010
0110
0000
,
0001
0100
0010
0100
2000
0000
0000
0000
,
0000
0000
0002
3003
,
0200
1000
0010
1000
,
0320
0100
0001
0100
,
0032
0100
0010
0100
,
2003
0100
0010
3100
,
0200
0010
1000
0301
,
0020
0100
0001
1030
,
2000
0000
0010
0000
0100
0000
3001
1000
,
0000
1000
0001
1000
0010
0100
0001
0000
,
1001
1000
0001
1000
0100
0010
0001
0100
,
0010
0000
1001
0000
0010
0100
0010
0000
,
1001
0001
1000
0001
0010
0100
1000
0010
,
0100
0000
1001
0000
0100
0010
0100
0000
,
0001
1000
0010
1000
0100
0001
0010
0100
,
1000
0000
1010
0000
0100
1000
0010
0000
,
1000
0001
0100
0001
0010
1000
0100
0010
,
0001
0000
0101
0000
0010
0001
0100
2000
,
0000
0100
0001
3100
,
0002
0010
1000
0013
,
0200
1000
0010
0301
,
0020
0000
0001
0000
0100
0000
1030
0001
,
0000
0000
0110
0000
1000
0001
0100
0010
,
0000
0000
0110
0000
0001
1000
0010
0100
,
0000
0001
0010
0100
1000
0100
0010
0001
,
0000
1000
0001
1000
0001
0000
0001
1000
,
0000
0010
1000
0001
0100
0010
1000
0001
,
0000
1000
0100
0010
0001
0010
0100
1000
,
0000
0001
0010
0100
1000
0100
0010
0001
,
0000
0000
0010
0000
0110
0000
0000
0000
0001
0000
0000
1000
0000
0000
1001
0000
,
0000
0000
1000
0000
0001
0000
0100
0000
0010
0000
0000
0100
0000
0000
0110
0000
,
0000
0001
1000
0010
1000
0100
0001
0010
,
0000
0010
0100
0010
0100
0001
0010
0200
,
0000
0310
0100
0010
0100
0001
1000
1001
,
0000
1000
0001
1000
0001
0010
0100
0110
,
0000
0001
1000
0010
0100
0001
1000
1001
,
0000
0010
1000
0100
0001
0010
0100
0000
,
0001
0100
0010
0000
1000
0010
0100
0002
,
0000
0100
0010
0103
,
2000
0010
0100
3010
,
1000
0010
0100
0001
0100
0010
1000
0001
,
0100
0010
1000
0100
0010
0001
0100
0020
,
0100
0001
0100
0031
,
0200
0010
1000
0310
,
0001
1000
0010
0000
1000
0001
0010
0000
,
1000
0001
0100
0000
0001
1000
0100
0010
,
0001
0000
0010
0110
0000
1000
1001
0000
,
0000
0001
0010
0100
1000
0100
0010
0002
,
0000
0000
0000
0000
,
0003
1000
1000
0000
0001
0001
0000
0110
,
0000
0001
0010
1000
0010
0001
0010
1000
,
0000
0001
0100
1000
0100
0001
0100
1000
,
0000
0001
0100
0010
0100
0001
0100
0010
,
0000
1000
0010
0100
0001
1000
0100
0002
,
0000
0000
0000
0000
,
0000
0000
1003
0000
;

//---------------dance-single - ----------------
#NOTES:
     dance-single:
     :
     Medium:
     9:
     0.448469,0.569896,0.122022,0.144207,0.022186,283.000000,272.000000,11.000000,13.000000,0.000000,0.000000,0.448469,0.569896,0.122022,0.144207,0.022186,283.000000,272.000000,11.000000,13.000000,0.000000,0.000000:
0000
0000
0000
0000
,
0000
0000
0000
0000
,
0000
0000
0000
0000
,
1000
0000
1000
0100
0000
0000
0001
0000
,
0001
0000
0010
0000
0000
0000
0100
0000
0010
0000
0000
0100
0000
0000
0110
0000
,
0000
0000
0001
1000
,
0001
1000
0001
0000
0100
0000
1000
0000
,
0010
0001
0100
0010
,
0100
0010
0100
0000
1000
0000
0100
0000
,
0001
1000
0001
1000
0001
0000
0100
0000
,
1000
0000
0010
0100
0010
0000
1000
0000
,
0010
0100
0001
0010
,
0100
0000
1000
0001
1000
0000
0010
0000
,
0100
0010
0100
0010
0200
0000
0000
0000
,
0000
0000
0000
0000
,
0310
1000
0010
1000
,
0100
0001
0100
0001
,
0010
0100
1000
0001
,
1000
0100
0010
0001
,
1000
0000
0010
0000
0100
0001
0100
0000
,
0010
0001
0100
0010
,
0001
0000
0010
0000
0100
1000
0100
0000
,
1000
0010
0100
1000
,
0100
0000
0010
0000
0001
1000
0001
0000
,
0010
0100
1000
0010
,
0100
0000
0001
0000
1000
0001
1000
0000
,
0100
0010
1000
0001
,
0010
0000
1000
0000
0100
0001
0100
0000
,
0001
0010
1000
0100
,
0001
0000
0010
0000
1000
0010
1000
0000
,
0100
1000
0001
0100
,
2000
0000
0100
0000
0000
0000
0100
3000
,
0002
0000
0100
0000
0000
0000
0100
0003
,
2000
0000
0010
0000
0000
0000
0010
3000
,
0002
0000
0010
0000
0000
0000
0010
0003
,
0200
0310
0110
0002
,
1003
1001
0020
0130
,
0010
0100
0010
0100
0010
0100
0010
0100
,
0000
0001
1000
0000
0001
1000
0001
1000
,
0000
1001
0000
0000
0010
0100
0010
0100
,
0000
0110
0000
0000
1000
0000
0100
0000
,
0010
0001
0010
0100
,
1000
0000
0000
0000
0001
0000
0000
0000
1000
0000
0000
0001
0000
0000
1001
0000
,
0000
0000
0000
0000
0100
0000
0000
0000
0010
0000
0000
0100
0000
0000
0110
0000
,
0000
0001
1000
0010
,
0000
0001
1000
0000
0100
0010
0100
0010
,
0000
0000
0001
0000
1000
0001
1000
0001
,
0000
1001
0000
0000
0010
0100
0010
0100
,
0000
0110
0000
0000
0001
0000
0100
0000
,
1000
0010
1000
0100
,
0001
0000
0010
0000
1000
0001
1000
0001
,
0000
0100
1000
0000
0100
0000
0010
0000
,
0001
0100
0010
1000
,
0001
1000
0001
0000
0100
0010
0100
0000
,
1000
0001
1000
0000
0010
0100
0010
0000
,
2000
0000
0100
0000
,
0010
0100
0100
3000
,
0002
0000
0010
0000
,
0100
0010
0010
0003
,
2000
0000
0100
0000
,
0001
0000
0000
0000
3001
0000
0000
0000
0001
0000
0000
1000
0000
0000
0210
0000
,
0000
0000
0000
0000
,
0300
0010
0010
0000
0100
0100
0000
0110
,
0000
0100
1000
0001
,
1000
0010
0100
0001
,
1000
0010
1000
0000
0001
0010
0001
0000
,
0010
0100
0010
0100
0001
1000
0001
2000
,
0000
0000
0000
0000
,
0000
0000
3001
0000
;

//---------------dance-single - ----------------
#NOTES:
     dance-single:
     :
     Easy:
     6:
     0.348633,0.417924,0.122022,0.210765,0.000000,220.000000,209.000000,11.000000,19.000000,0.000000,0.000000,0.348633,0.417924,0.122022,0.210765,0.000000,220.000000,209.000000,11.000000,19.000000,0.000000,0.000000:
0000
0000
0000
0000
,
0000
0000
0000
0000
,
0000
0000
0000
0000
,
0001
0001
1000
1000
,
0010
0010
0100
0220
,
0000
0330
0001
0100
,
0001
0100
1000
0100
,
1000
0100
0001
0010
,
0001
0010
1000
0010
,
1000
0010
0001
0100
,
1000
0010
1000
0100
,
0001
0010
0100
1000
,
0001
0010
1000
0100
,
0001
0010
0200
0000
,
0000
0000
0000
0000
,
0310
0000
0010
0000
,
1000
0001
1000
0001
,
0100
0000
0100
0000
,
0001
1000
0001
1000
,
0010
0000
1000
0000
,
0100
0010
0100
0010
,
0100
0000
0001
0000
,
0010
0100
0010
0100
,
0010
1000
0100
0000
,
0001
0100
0010
1000
,
0010
0001
0100
0000
,
1000
0010
0100
0001
,
1000
0100
0010
0000
,
0001
0100
0010
1000
,
0001
0010
0100
0000
,
1000
0010
0100
0001
,
2000
0100
0000
3100
,
0002
0100
0000
0103
,
2000
0010
0000
3010
,
0002
0010
0000
0013
,
2000
0000
0001
0000
,
0100
0000
3001
0000
,
0010
0100
0010
0100
,
0001
1001
0000
0000
,
1000
0100
0010
0010
,
0001
0010
0100
0100
,
1000
0100
0001
0001
,
0010
0100
1000
1000
,
0001
0100
0010
0010
,
1000
0010
0100
0100
,
1000
0100
0010
0001
,
0001
0010
0100
1000
,
1001
0100
0010
0100
,
1001
0010
0100
0010
,
1000
0100
0010
0001
,
0100
0100
0220
0330
,
0002
0100
0010
0103
,
2000
0010
0100
3010
,
1000
0100
0010
0001
,
0010
0100
1000
0001
,
2001
0000
0100
0000
,
0001
0000
3100
0000
,
1002
0000
0100
0000
,
1000
0000
0103
0000
,
0210
0000
1000
0000
,
0010
0000
1300
0010
,
0220
0000
0000
0000
,
0330
0000
0000
0000
,
1001
0100
1000
0010
,
0001
0100
1000
0100
,
0010
0001
0010
0100
,
1000
0010
0100
0001
,
2002
0000
0000
0000
,
0000
0000
3003
0000
;

//---------------dance-single - ----------------
#NOTES:
     dance-single:
     :
     Beginner:
     3:
     0.144207,0.222967,0.011093,0.011093,0.000000,91.000000,90.000000,1.000000,1.000000,0.000000,0.000000,0.144207,0.222967,0.011093,0.011093,0.000000,91.000000,90.000000,1.000000,1.000000,0.000000,0.000000:
// measure 0
0000
0000
0000
0000
,  // measure 1
0000
0000
0000
0000
,  // measure 2
0000
0000
0000
0000
,  // measure 3
0000
0000
0000
0000
,  // measure 4
0000
0000
0000
0000
,  // measure 5
0000
0000
1000
0000
,  // measure 6
1000
0000
0001
0000
,  // measure 7
0001
0000
0100
0000
,  // measure 8
0100
0000
0010
0000
,  // measure 9
0010
0000
1000
0000
,  // measure 10
0100
0000
1000
0000
,  // measure 11
0100
0000
0001
0000
,  // measure 12
0010
0000
0001
0000
,  // measure 13
0010
0000
0100
0000
,  // measure 14
0000
0000
0000
0000
,  // measure 15
1000
0000
0000
0000
,  // measure 16
1000
0000
0000
0000
,  // measure 17
0001
0000
0000
0000
,  // measure 18
0001
0000
0000
0000
,  // measure 19
0100
0000
0000
0000
,  // measure 20
0100
0000
0000
0000
,  // measure 21
0010
0000
0000
0000
,  // measure 22
0010
0000
0000
0000
,  // measure 23
1000
0000
0100
0000
,  // measure 24
1000
0000
0000
0000
,  // measure 25
0001
0000
0010
0000
,  // measure 26
0001
0000
0000
0000
,  // measure 27
0100
0000
0010
0000
,  // measure 28
0100
0000
0000
0000
,  // measure 29
0001
0000
1000
0000
,  // measure 30
0001
0000
0000
0000
,  // measure 31
1000
0000
0000
0000
,  // measure 32
0100
0000
0000
0000
,  // measure 33
0001
0000
0000
0000
,  // measure 34
0010
0000
0000
0000
,  // measure 35
1000
0000
0000
0000
,  // measure 36
0001
0000
0000
0000
,  // measure 37
1000
0000
0000
0000
,  // measure 38
0001
0000
0000
0000
,  // measure 39
0100
0100
0000
0000
,  // measure 40
0010
0010
0000
0000
,  // measure 41
1000
0000
0001
0000
,  // measure 42
1000
0000
0000
0000
,  // measure 43
0001
0001
0000
0000
,  // measure 44
1000
1000
0000
0000
,  // measure 45
0010
0000
0100
0000
,  // measure 46
0010
0000
0000
0000
,  // measure 47
1000
1000
0000
0000
,  // measure 48
0001
0001
0000
0000
,  // measure 49
0100
0000
0010
0000
,  // measure 50
0100
0000
0000
0000
,  // measure 51
0010
0010
0000
0000
,  // measure 52
0100
0100
0000
0000
,  // measure 53
1000
0000
0001
0000
,  // measure 54
1000
0000
0001
0000
,  // measure 55
0100
0000
0000
0000
,  // measure 56
0100
0000
0000
0000
,  // measure 57
0010
0000
0000
0000
,  // measure 58
0010
0000
0000
0000
,  // measure 59
1000
0000
0000
0000
,  // measure 60
1000
0000
0000
0000
,  // measure 61
0002
0000
0000
0000
,  // measure 62
0003
0000
0000
0000
,  // measure 63
0100
0000
1000
0000
,  // measure 64
0100
0000
1000
0000
,  // measure 65
0010
0000
0001
0000
,  // measure 66
0010
0000
0001
0000
,  // measure 67
0110
0000
0000
0000
;
