#TITLE:KUNG-FU MAMA;
#SUBTITLE:;
#ARTIST:seiya-murai feat.ALT;
#TITLETRANSLIT:;
#SUBTITLETRANSLIT:;
#ARTISTTRANSLIT:;
#GENRE:jubeat;
#CREDIT:;
#BANNER:;
#BACKGROUND:;
#LYRICSPATH:;
#CDTITLE:;
#MUSIC:KUNG-FU MAMA.ogg;
#OFFSET:1.310000;
#SAMPLESTART:77.069756;
#SAMPLELENGTH:15.000000;
#SELECTABLE:YES;
#BPMS:0.000000=150.000000
;
#STOPS:
;
#BGCHANGES:;
#KEYSOUNDS:;
#ATTACKS:;

//---------------dance-single - ----------------
#NOTES:
     dance-single:
     :
     Easy:
     5:
     0.291224,0.397520,0.159887,0.079944,0.000000,255.000000,235.000000,20.000000,10.000000,0.000000,0.000000,0.291224,0.397520,0.159887,0.079944,0.000000,255.000000,235.000000,20.000000,10.000000,0.000000,0.000000:
0000
0000
0000
0000
,
0000
0000
0000
0000
,
0000
0000
0000
0000
,
0000
0000
0000
0000
,
0000
0000
0000
0000
,
1000
1000
1000
0000
,
0100
0000
0100
0000
,
0001
0001
0001
0000
,
0100
0000
0100
0000
,
1000
0100
0010
0000
,
1000
0000
1000
0000
,
0001
0010
0100
0000
,
0001
0000
0001
0000
,
1000
0100
0010
0000
,
1000
0000
0100
0000
,
0001
0010
0100
0000
,
0001
0000
0010
0000
,
1000
0001
1000
0000
,
0100
0010
0100
0000
,
0001
1000
0001
0000
,
0100
0010
0100
0000
,
0001
0100
0000
0100
,
1000
0100
0000
0100
,
0001
0010
0000
0010
,
1000
0010
0001
0100
,
1000
0010
0000
0010
,
0001
0100
0000
0100
,
1000
0010
0000
0010
,
0001
0100
1000
0010
,
0001
1000
0001
0000
,
0010
0100
0010
0000
,
0001
1000
0001
1000
,
0010
0100
0010
0100
,
2000
0100
0000
3100
,
0002
0100
0000
0103
,
2000
0010
0000
3010
,
0002
0010
0000
0013
,
1000
0100
0000
0001
,
0001
0010
0000
0010
,
0100
1000
0000
1000
,
1001
0010
0110
0100
,
1001
0100
0000
1000
,
0010
0001
0000
0001
,
0100
1000
0000
0010
,
0001
0100
0000
0100
,
1000
0010
0100
0010
,
0001
1000
0001
1000
,
0200
1000
0010
0301
,
0020
0001
0100
1030
,
1000
0100
0010
0010
,
0001
0010
0100
0100
,
1000
0100
0001
0001
,
0101
1100
1010
0011
,
0001
0100
1000
1000
,
0100
0010
1000
1000
,
0010
0100
0001
0001
,
0011
1010
0101
1100
,
1000
0100
0010
0010
,
0001
0010
0100
0100
,
1000
0100
0001
0001
,
1100
0110
0011
0110
,
0001
0100
1000
0010
,
1000
0100
0001
0010
,
1000
0001
1000
0001
,
0110
1001
0110
1001
,
0200
1000
0000
1300
,
0020
0001
0000
0031
,
0200
0010
0000
1300
,
0020
0100
0000
0031
,
1000
0001
1000
0001
,
0100
0010
0100
0010
,
0001
0010
0100
1000
,
0001
0010
0100
1000
,
1001
0000
1000
0000
,
0001
0000
1000
0000
,
0001
0000
1000
0000
,
0001
0000
1000
0000
;

//---------------dance-single - ----------------
#NOTES:
     dance-single:
     :
     Beginner:
     2:
     0.106211,0.153392,0.015989,0.000000,0.000000,93.000000,91.000000,2.000000,0.000000,0.000000,0.000000,0.106211,0.153392,0.015989,0.000000,0.000000,93.000000,91.000000,2.000000,0.000000,0.000000,0.000000:
0000
0000
0000
0000
,
0000
0000
0000
0000
,
0000
0000
0000
0000
,
0000
0000
0000
0000
,
0000
0000
0000
0000
,
0001
0000
0001
0000
,
1000
0000
0000
0000
,
1000
0000
1000
0000
,
0001
0000
0000
0000
,
0100
0000
0000
0000
,
1000
0000
0000
0000
,
0010
0000
0000
0000
,
0001
0000
0000
0000
,
0010
0000
0000
0000
,
1000
0000
0000
0000
,
0100
0000
0000
0000
,
0001
0000
0001
0000
,
0001
0000
1000
0000
,
0001
0000
0000
0000
,
1000
0000
0001
0000
,
1000
0000
0000
0000
,
0100
0000
1000
0000
,
0010
0000
0000
0000
,
0010
0000
0001
0000
,
0100
0000
0000
0000
,
1000
0000
0100
0000
,
0001
0000
0000
0000
,
0001
0000
0010
0000
,
1000
0000
0000
0000
,
0100
0000
0100
0000
,
0100
0000
0000
0000
,
0010
0000
0010
0000
,
0010
0000
0000
0000
,
1000
0000
0000
0000
,
0001
0000
0000
0000
,
1000
0000
0000
0000
,
0001
0000
0000
0000
,
0100
0000
0000
0000
,
0010
0000
0000
0000
,
0100
0000
0000
0000
,
0010
0000
0000
0000
,
0001
0000
0000
0000
,
1000
0000
0000
0000
,
0001
0000
0000
0000
,
1000
0000
0000
0000
,
0010
0000
0000
0000
,
0100
0000
0000
0000
,
0010
0000
0000
0000
,
0100
0000
0100
0000
,
0100
0000
1000
0000
,
0100
0000
0000
0000
,
0100
0000
0001
0000
,
0100
0000
0000
0000
,
0010
0000
1000
0000
,
0010
0000
0000
0000
,
0010
0000
0001
0000
,
0010
0000
0000
0000
,
1000
0000
0001
0000
,
1000
0000
0000
0000
,
0001
0000
1000
0000
,
0001
0000
0000
0000
,
0001
0000
0100
0000
,
1000
0000
0000
0000
,
1000
0000
0010
0000
,
0001
0000
0000
0000
,
1000
0000
0000
0000
,
0001
0000
0000
0000
,
0100
0000
0000
0000
,
0010
0000
0000
0000
,
0001
0000
0000
0000
,
1000
0000
0000
0000
,
0010
0000
0000
0000
,
0100
0000
0000
0000
,
1001
0000
0000
0000
,
0000
0000
0000
0000
,
1001
0000
0000
0000
,
0000
0000
0000
0100
;

//---------------dance-single - ----------------
#NOTES:
     dance-single:
     :
     Medium:
     8:
     0.404287,0.430197,0.095932,0.175876,0.000000,354.000000,342.000000,12.000000,22.000000,0.000000,0.000000,0.404287,0.430197,0.095932,0.175876,0.000000,354.000000,342.000000,12.000000,22.000000,0.000000,0.000000:
0000
0000
0000
0000
,
0000
0000
0000
0000
,
0000
0000
0000
0000
,
0000
0000
0000
0000
,
0000
0000
0000
0000
,
1000
0100
0010
0010
,
0001
0010
0100
0100
,
1000
0100
0001
0001
,
0001
0010
1000
1000
,
0100
1000
0010
0100
,
0001
0100
0010
0001
,
1000
0010
0100
0001
,
0001
0100
0010
1000
,
0100
1000
0010
0010
,
0100
0001
0010
0010
,
0100
1000
0001
0010
,
0100
0010
0001
1000
,
0010
0000
0100
0000
0010
0100
0010
0000
,
1000
0000
0001
0000
1000
0001
1000
0000
,
0100
0000
1000
0000
0100
1000
0100
0000
,
0010
0000
0001
0000
0010
0001
0010
0000
,
0100
0000
1000
0000
0010
0010
0010
0000
,
0001
0000
0100
0000
0010
0010
0010
0000
,
1000
0000
0100
0000
0001
0001
0001
0000
,
0001
0000
0010
0000
1000
1000
1000
0000
,
0001
0000
1000
0000
0100
0100
0100
0000
,
0010
0000
1000
0000
0100
0100
0100
0000
,
0001
0000
0100
0000
0010
0010
0010
0000
,
1000
0000
0001
0000
0100
0100
0100
0000
,
1000
0100
0010
0001
,
0001
0010
0100
1000
,
0001
1000
0001
0000
0100
0010
0100
0000
,
1000
0100
1000
0000
0001
0010
0001
0000
,
0200
1000
0010
1300
,
0020
0100
0001
0130
,
0001
1000
0010
0110
,
1000
0001
0100
0110
,
2000
0100
0010
3001
,
0002
0010
0100
1003
,
1000
0010
0100
0101
,
0001
0100
0010
1010
,
1000
0100
0010
0000
0001
0010
0100
0000
,
2000
0001
0001
3001
,
0001
0010
0100
0000
1000
0100
0010
0000
,
0002
1000
0100
1003
,
0100
0010
0100
0000
1000
0000
1001
0000
,
0010
0100
0010
0000
0001
0000
1001
0000
,
0200
2300
3020
0032
,
0203
0302
2003
3020
,
0130
0010
0100
0000
0001
1000
0001
0000
,
0100
0000
0010
0000
1000
0001
1001
0000
,
0100
0010
0100
0000
0001
1000
0001
0000
,
0100
0000
1000
0000
0010
0100
0110
0000
,
0001
1000
0001
0000
0100
0010
0100
0000
,
1000
0000
0001
0000
1000
0001
1001
0000
,
0100
0010
0100
0000
0001
1000
0001
0000
,
0100
0000
1000
0000
0010
0010
0010
0010
,
0010
0100
0010
0000
1000
0001
1000
0000
,
0100
0010
0100
0000
0001
0000
1001
0000
,
0100
1000
0100
0000
0010
0001
0010
0000
,
0001
0100
0010
1001
,
0100
1000
0100
0000
0010
0001
0010
0000
,
0100
0010
0100
0000
0001
0000
1001
0000
,
0100
1000
0010
0000
0001
0100
0010
0000
,
2000
3200
0320
0032
,
2003
0001
0100
3001
,
0002
1000
0100
1003
,
0100
0000
1000
0000
0010
0010
0010
0000
,
1000
0000
0001
0000
0010
0010
0010
0000
,
2000
0010
0100
3010
,
0002
0100
0010
0103
,
0001
0000
1000
0000
0100
0100
0100
0000
,
0010
0000
1000
0000
0100
0100
0100
0000
,
0001
0000
1000
0000
0001
1000
0001
0000
,
1000
0000
0001
0000
1000
0001
1000
0000
,
0001
0000
1000
0000
0001
1000
0001
0000
,
1000
0000
0001
0000
1000
0001
1000
0001
;

//---------------dance-single - ----------------
#NOTES:
     dance-single:
     :
     Hard:
     11:
     0.539049,0.553111,0.151893,0.007994,0.199859,472.000000,453.000000,19.000000,1.000000,0.000000,0.000000,0.539049,0.553111,0.151893,0.007994,0.199859,472.000000,453.000000,19.000000,1.000000,0.000000,0.000000:
// measure 0
0000
0000
0000
0000
,  // measure 1
0000
0000
0000
0000
,  // measure 2
0000
0000
0000
0000
,  // measure 3
0000
0000
0000
0000
,  // measure 4
0000
0000
0000
0000
,  // measure 5
1000
0100
1000
0000
0001
0010
0001
0000
,  // measure 6
1000
0001
1000
0000
0010
0100
0010
0000
,  // measure 7
0001
0010
0001
0000
1000
0100
1000
0000
,  // measure 8
0020
0100
0001
0130
,  // measure 9
0001
1000
0010
0000
1000
0001
0100
0010
,  // measure 10
1000
0001
0100
0000
0001
0100
0010
1000
,  // measure 11
0010
0100
0001
0000
1000
0010
0100
0001
,  // measure 12
0100
0010
1000
0000
0001
1000
0001
0000
,  // measure 13
1001
0000
0100
0000
0010
1000
0100
0000
,  // measure 14
0001
0100
0010
0000
1000
0010
0100
0000
,  // measure 15
1001
0000
0010
0000
0001
0100
0010
0000
,  // measure 16
1000
0010
0100
0000
0001
0100
0010
0000
,  // measure 17
1000
0000
0100
0000
1000
0000
0100
0000
0010
0000
0000
0010
0000
0000
0010
0000
,  // measure 18
0001
0000
0010
0000
0001
0000
0010
0000
0100
0000
0000
0100
0000
0000
0100
0000
,  // measure 19
1000
0000
0001
0000
1000
0000
0001
0000
0010
0000
0000
0010
0000
0000
0010
0000
,  // measure 20
0001
0000
1000
0000
0001
0000
1000
0000
0100
0000
0000
0100
0000
0000
0100
0000
,  // measure 21
1000
0010
0100
0000
0001
0100
0010
0000
,  // measure 22
1000
0001
0100
0000
0001
1000
0010
0000
,  // measure 23
1000
0010
0100
0000
0001
0100
0010
0000
,  // measure 24
1000
0100
0001
0010
1000
0100
0001
0000
,  // measure 25
0010
0100
0001
0000
1000
0010
0100
0000
,  // measure 26
0001
0100
1000
0000
1000
0010
0001
0000
,  // measure 27
1000
0001
0100
0000
0001
1000
0010
0000
,  // measure 28
0001
0010
1000
0100
0001
0010
1000
0100
,  // measure 29
0001
0000
1000
0000
0001
0000
1000
0000
0010
0000
0000
0010
0000
0000
0010
0000
,  // measure 30
1000
0000
0001
0000
1000
0000
0001
0000
0100
0000
0000
0100
0000
0000
0100
0000
,  // measure 31
1000
0000
0001
0000
1000
0000
0001
0000
0100
0000
0000
0100
0000
0000
0100
0000
,  // measure 32
0001
0000
1000
0000
0001
0000
1000
0000
0010
0000
0000
0010
0000
0000
0010
0000
,  // measure 33
0100
1000
0000
0100
0000
0010
0000
0001
,  // measure 34
0010
0100
0000
1000
0000
0001
0000
1000
,  // measure 35
0001
0100
0000
0010
0000
1000
0000
0001
,  // measure 36
1000
0010
0000
0100
0000
0001
0000
1000
,  // measure 37
0010
0100
0000
0001
0000
0010
0000
1000
,  // measure 38
0001
0010
0000
1000
0000
0100
0000
0001
,  // measure 39
1000
0100
0000
0010
0000
0100
0000
0001
,  // measure 40
1000
1100
0001
0011
,  // measure 41
0001
1000
0001
1000
0000
0010
0100
0000
,  // measure 42
0010
0100
0010
0100
0000
1000
0001
0000
,  // measure 43
1000
0100
1000
0100
0000
0001
0010
0000
,  // measure 44
0001
0010
0001
0010
0000
1000
0100
0000
,  // measure 45
0010
0100
0010
0000
1000
0001
1000
0000
,  // measure 46
1000
0100
1000
0000
0001
0010
0001
0000
,  // measure 47
0101
1100
1010
0011
,  // measure 48
1001
0110
1001
0110
,  // measure 49
0001
0000
0100
0000
0001
0100
0000
0001
0000
0000
1000
0000
0010
1000
0000
0010
,  // measure 50
0000
0000
1000
0000
0001
1000
0000
0001
0000
0000
1000
0000
1001
0000
0000
0000
,  // measure 51
1000
0000
0100
0000
1000
0100
0000
1000
0000
0000
0100
0000
0010
0000
0000
0000
,  // measure 52
0001
0000
0100
0000
1000
0010
1001
0000
,  // measure 53
0010
0000
0100
0000
0001
0100
0000
0001
0000
0000
1000
0000
0010
1000
0000
0010
,  // measure 54
0000
0000
1000
0000
0001
1000
0000
0001
0000
0000
0010
0000
0110
0000
0000
0000
,  // measure 55
0001
0000
0010
0000
0100
0010
0000
0100
0000
0000
0010
0000
1000
0000
0100
0000
,  // measure 56
0001
0000
1000
0000
0001
1000
1001
0000
,  // measure 57
1000
0000
0100
0000
1000
0100
0000
1000
0000
0000
0010
0000
0100
0010
0000
0100
,  // measure 58
0000
0000
0010
0000
0001
0010
0000
0001
0000
0000
0010
0000
1001
0000
0000
0000
,  // measure 59
0001
0000
1000
0000
0100
0010
0000
0100
0000
0000
0001
0000
0010
0000
0100
0000
,  // measure 60
1000
0000
0000
0000
0001
0000
0000
1000
0001
0000
1000
0000
0010
0000
0100
0000
,  // measure 61
0001
0000
1000
0000
0010
0100
0000
0100
0000
0000
0010
0000
1000
0001
0000
0001
,  // measure 62
0000
0000
1000
0000
0010
0100
0000
0100
0000
0000
0001
0000
1001
0000
0000
0000
,  // measure 63
0010
0000
1000
0000
0001
0100
0000
0010
0000
0000
1000
0000
0001
0000
0100
0000
,  // measure 64
0010
0000
0000
0000
1001
0000
0000
0010
1000
0000
0100
0000
0001
0000
0010
0000
,  // measure 65
1000
0000
0100
0000
1000
0000
0100
0000
0010
0000
0000
0010
0000
0000
0010
0000
,  // measure 66
0001
0000
0100
0000
0001
0000
0100
0000
0010
0000
0000
0010
0000
0000
0010
0000
,  // measure 67
1000
0000
0010
0000
1000
0000
0010
0000
0100
0000
0000
0100
0000
0000
0100
0000
,  // measure 68
0001
0000
0010
0000
0001
0000
0010
0000
0100
0000
0000
0100
0000
0000
0100
0000
,  // measure 69
1000
0000
0010
0000
1000
0000
0010
0000
0100
0000
0000
0100
0000
0000
0100
0000
,  // measure 70
0001
0000
0100
0000
0001
0000
0100
0000
0010
0000
0000
0010
0000
0000
0010
0000
,  // measure 71
1000
0000
0001
0000
1000
0000
0001
0000
0100
0000
0000
0100
0000
0000
0100
0000
,  // measure 72
0001
0000
1000
0000
0001
0000
1000
0000
0010
0000
0000
0010
0000
0000
0010
0000
,  // measure 73
1000
0000
1000
0000
0001
1000
0010
0000
,  // measure 74
0001
0000
0001
0000
0001
1000
0010
0000
,  // measure 75
0100
0000
0100
0000
0010
1000
0001
0000
,  // measure 76
0010
0000
0010
0000
0100
0001
1000
0010
;
