#TITLE:KIRBY-CHAN'D CANYON;
#SUBTITLE:;
#ARTIST:hapi=>;
#TITLETRANSLIT:;
#SUBTITLETRANSLIT:;
#ARTISTTRANSLIT:;
#GENRE:Anime/Game;
#CREDIT:;
#BANNER:;
#BACKGROUND:KIRBY-CHAND CANYON-bg.png;
#LYRICSPATH:;
#CDTITLE:;
#MUSIC:KIRBY-CHAND CANYON.ogg;
#OFFSET:1.318492;
#SAMPLESTART:87.170021;
#SAMPLELENGTH:15.000000;
#LASTBEATHINT:0.657926;
#SELECTABLE:YES;
#DISPLAYBPM:160.000000;
#BPMS:0.000000=160.000000
;
#STOPS:
;
#BGCHANGES:1.250=KIRBY-CHAND CANYON.avi=1.000=0=0=0=StretchNoLoop====,
99999=-nosongbg-=1.000=0=0=0 // don't automatically add -songbackground-
;
#KEYSOUNDS:;
#ATTACKS:;

//---------------dance-single - ----------------
#NOTES:
     dance-single:
     :
     Beginner:
     4:
     0.153857,0.290152,0.021257,0.007086,0.000000,152.000000,149.000000,3.000000,1.000000,0.000000,0.000000,0.153857,0.290152,0.021257,0.007086,0.000000,152.000000,149.000000,3.000000,1.000000,0.000000,0.000000:
0000
0000
0000
0000
,
0000
0000
0000
0000
,
0000
0000
0000
0000
,
0000
0000
0000
0000
,
0000
0000
0000
0000
,
1000
0000
0000
0000
,
1000
0000
0000
0000
,
0001
0000
0000
0000
,
0001
0000
0000
0000
,
0100
0000
0000
0000
,
1000
0000
0000
0000
,
0100
0000
0000
0000
,
0001
0000
0000
0000
,
0100
0000
0000
0000
,
1000
0000
0000
0000
,
0100
0000
0000
0000
,
0010
0000
0000
0000
,
1001
0000
0000
0000
,
0000
0000
0000
0000
,
0001
0000
0001
0000
,
0001
0000
0000
0000
,
1000
0000
1000
0000
,
1000
0000
0000
0000
,
0010
0000
0010
0000
,
0010
0000
0000
0000
,
0100
0000
0100
0000
,
0100
0000
0000
0000
,
1000
0000
1000
0000
,
0100
0000
0000
0000
,
0001
0000
0001
0000
,
0010
0000
0000
0000
,
1000
0000
1000
0000
,
0001
0000
0000
0000
,
0010
0000
0010
0000
,
0100
0000
0000
0001
,
0000
0000
0010
0000
,
0100
0000
0000
0000
,
1000
0000
0100
0000
,
0010
0000
0000
0000
,
0001
0000
0100
0000
,
1000
0000
0000
0000
,
1000
0000
0010
0000
,
0001
0000
0000
0000
,
0100
0000
1000
0000
,
0010
0000
0000
0000
,
0010
0000
0001
0000
,
0100
0000
0000
0000
,
0010
0000
0100
0000
,
0010
0000
0100
0000
,
1000
0000
0001
0000
,
1000
0000
0001
0000
,
0100
0000
0100
0000
,
0100
0000
0000
0000
,
0010
0000
0010
0000
,
0010
0000
0000
0000
,
1000
0000
1000
0000
,
1000
0000
0000
0000
,
0001
0000
0001
0000
,
0001
0000
0000
0000
,
1000
0000
0100
0000
,
0010
0010
0010
0000
,
0001
0000
0010
0000
,
0100
0100
0100
0000
,
1000
0000
0100
0000
,
0001
0001
0001
0000
,
0010
0000
0100
0000
,
0001
0000
1001
0000
,
1000
0000
0100
0000
,
0010
0010
0010
0000
,
0001
0000
0010
0000
,
0100
0100
0100
0000
,
1000
0000
0100
0000
,
0010
0000
0001
0000
,
1000
1000
1000
1000
,
2000
0000
3000
0000
,
0100
0000
1000
0000
,
0100
0000
0010
0000
,
0001
0000
0010
0000
,
0100
0000
0010
0000
,
1000
0000
0100
0000
,
0010
0000
0001
0000
,
1000
0000
0010
0000
,
0100
0000
0001
0000
,
0100
0000
0100
0000
,
0010
0000
0010
0000
,
1000
0000
1000
0000
,
0001
0000
0001
0000
,
1000
0000
0100
0000
,
0010
0000
0001
0000
,
0100
0100
0100
0100
,
0010
0010
0010
0000
,
1001
0000
0000
0000
;

//---------------dance-single - ----------------
#NOTES:
     dance-single:
     :
     Easy:
     8:
     0.397801,0.461267,0.276335,0.113368,0.000000,393.000000,354.000000,39.000000,16.000000,0.000000,0.000000,0.397801,0.461267,0.276335,0.113368,0.000000,393.000000,354.000000,39.000000,16.000000,0.000000,0.000000:
// measure 0
0000
0000
0000
0000
,  // measure 1
0000
0000
0000
0000
,  // measure 2
0000
0000
0000
0000
,  // measure 3
0000
0000
0000
0000
,  // measure 4
0000
0000
0000
0000
,  // measure 5
0010
0010
1001
0000
,  // measure 6
0100
0100
1001
0000
,  // measure 7
1000
0010
0100
0001
,  // measure 8
0100
0100
1001
0000
,  // measure 9
0010
0100
1001
0000
,  // measure 10
0100
0010
1001
0000
,  // measure 11
0001
0100
0010
1000
,  // measure 12
0010
0100
1001
0000
,  // measure 13
1000
0100
0011
0000
,  // measure 14
0001
0010
1100
0000
,  // measure 15
1000
0010
0100
0001
,  // measure 16
0010
0100
1100
0000
,  // measure 17
0020
0000
0000
0000
,  // measure 18
0130
0000
0100
0000
0100
0100
0100
0000
,  // measure 19
0001
0100
1000
0100
,  // measure 20
0001
0000
0100
0000
1000
1000
1000
0000
,  // measure 21
1000
0010
0001
0010
,  // measure 22
1000
0000
0010
0000
0001
0001
0001
0000
,  // measure 23
0001
0100
1000
0100
,  // measure 24
0001
0000
0100
0000
1000
1000
1000
0000
,  // measure 25
1000
0010
0001
0010
,  // measure 26
1000
0000
0010
0000
0001
0001
0001
0000
,  // measure 27
0100
0010
1000
0010
,  // measure 28
0100
0000
0010
0000
1000
0100
0010
0000
,  // measure 29
0100
0001
0100
0010
,  // measure 30
0100
0000
0001
0000
0100
0001
0010
0000
,  // measure 31
0001
1000
0001
0100
,  // measure 32
0001
0000
1000
0000
0001
1000
0100
0000
,  // measure 33
0001
1000
0010
1000
,  // measure 34
0110
1001
0110
0000
,  // measure 35
0100
0010
1001
0000
,  // measure 36
0010
0100
1001
0000
,  // measure 37
1000
0100
0010
0001
,  // measure 38
0100
0010
1001
0000
,  // measure 39
0010
0010
0010
0000
0001
0000
0100
0000
,  // measure 40
1000
1000
1001
0000
,  // measure 41
0100
0100
0100
0000
1000
0000
0010
0000
,  // measure 42
0001
0001
1001
0000
,  // measure 43
0100
1000
1001
0000
,  // measure 44
0010
0001
1001
0000
,  // measure 45
1000
0010
0100
0001
,  // measure 46
1000
0010
1001
0000
,  // measure 47
0001
0001
0001
0000
0100
0000
0010
0000
,  // measure 48
1000
1000
1001
0000
,  // measure 49
1000
1000
1000
0000
0010
0000
0100
0000
,  // measure 50
0001
0001
1001
0000
,  // measure 51
0100
0100
0100
0000
0010
0010
0010
0000
,  // measure 52
1000
0001
1000
0001
,  // measure 53
0100
0100
0100
0000
0010
0010
0010
0000
,  // measure 54
0001
1000
0001
1000
,  // measure 55
0100
0000
1000
0000
0010
0100
0100
0000
,  // measure 56
0001
0000
0010
0000
0100
0010
0010
0000
,  // measure 57
1000
0001
0100
0000
0010
1000
0001
0000
,  // measure 58
0100
0010
1000
0001
,  // measure 59
0100
1000
0100
0001
,  // measure 60
0100
1000
0100
0001
,  // measure 61
0010
1000
0010
0001
,  // measure 62
0010
1000
0010
0001
,  // measure 63
0100
1000
0100
0001
,  // measure 64
0100
1000
0100
0001
,  // measure 65
0020
0230
0302
2003
,  // measure 66
3020
0230
0020
0330
,  // measure 67
0001
0001
0100
0000
1000
0000
0010
0000
,  // measure 68
1000
1000
0010
0000
0001
0000
0100
0000
,  // measure 69
1000
1000
0100
0000
0010
0000
0001
0000
,  // measure 70
0001
0001
0010
0000
0100
0000
1000
0000
,  // measure 71
0010
0010
0010
0000
0100
0100
0100
0000
,  // measure 72
0001
0001
0001
0000
1000
1000
1000
0000
,  // measure 73
0020
2030
3020
0230
,  // measure 74
0302
0000
2000
3003
,  // measure 75
0100
1000
0010
1000
,  // measure 76
0010
0001
0010
0100
,  // measure 77
1000
0010
0100
0001
,  // measure 78
1000
0010
1001
0100
,  // measure 79
0010
1000
0010
0001
,  // measure 80
0100
0010
0001
0100
,  // measure 81
0010
1000
0010
0100
,  // measure 82
0001
0100
1001
1000
,  // measure 83
0010
1010
0101
0100
,  // measure 84
0001
0011
1100
1000
,  // measure 85
0010
1000
0100
0010
,  // measure 86
0101
1001
1010
1000
,  // measure 87
0100
1100
0101
0010
,  // measure 88
1000
0011
1010
1000
,  // measure 89
0001
0100
0010
1000
,  // measure 90
0011
0110
1100
1000
,  // measure 91
2001
0000
0001
0000
0001
0001
0001
0000
,  // measure 92
0001
0000
0000
0001
0000
0000
0002
0000
,  // measure 93
3003
0000
0000
0000
;

//---------------dance-single - ----------------
#NOTES:
     dance-single:
     :
     Medium:
     12:
     0.521291,0.756777,0.495986,0.403874,0.021257,515.000000,445.000000,70.000000,57.000000,0.000000,0.000000,0.521291,0.756777,0.495986,0.403874,0.021257,515.000000,445.000000,70.000000,57.000000,0.000000,0.000000:
0000
0000
0000
0000
,
0000
0000
0000
0000
,
0000
0000
0000
0000
,
0000
0000
0000
0000
,
0000
0000
0000
0000
,
1000
1100
0101
0000
,
0001
0011
1010
0000
,
1000
0010
0100
0001
,
1100
0110
0001
0000
,
0001
0110
1000
0110
,
0001
0110
1000
0110
,
0001
0100
1000
0010
,
0001
0001
1001
0100
,
0001
0110
1000
0110
,
0001
0110
1000
0110
,
0001
0100
0010
1000
,
0001
0001
1001
0010
,
0200
0000
0000
0000
,
0310
0010
0010
0010
0010
0010
0010
0000
,
0100
0010
0100
0010
0100
0010
0100
0010
,
1000
0001
1000
0001
1000
0001
1001
0000
,
0010
0100
0010
0100
0010
0100
0010
0100
,
0001
1000
0001
1000
0001
1000
1001
0000
,
1000
0100
1000
0100
1000
0100
1000
0100
,
0010
0001
0010
0001
0010
0001
0011
0000
,
0001
0010
0001
0010
0001
0010
0001
0010
,
0100
1000
0100
1000
0100
1000
1100
0000
,
1000
0100
0010
0001
0010
0100
1000
0010
,
0100
0001
0100
0010
1000
0100
1100
0000
,
1000
0010
0100
0001
0010
0100
1000
0010
,
0100
0001
0010
1000
0010
0100
0011
0000
,
0001
0100
0010
1000
0100
0010
0100
0001
,
0010
0100
0001
0100
0010
0100
1100
0000
,
1000
0010
1000
0100
0010
0100
0001
0010
,
0200
0320
2030
3001
,
0001
1001
1000
1100
,
1000
0101
0001
0011
,
1000
0010
0100
0001
,
0010
0100
0220
0330
,
0001
0100
1000
0100
,
0110
1001
0110
1000
,
0100
0010
0001
1000
,
0010
1001
0110
1000
,
0100
1100
0101
0010
,
0001
0011
1010
0100
,
1000
1010
1001
0101
,
0010
0100
1001
0100
,
0010
0100
0010
0000
1000
0000
0001
0000
,
1001
1100
0101
0010
,
0100
0010
0100
0010
0001
1000
0001
1000
,
0001
0100
0010
1000
0010
0100
0001
0000
,
0011
0000
0100
0010
0100
0000
0001
1000
,
0001
0000
0100
1000
0100
0000
0001
0010
,
0001
0000
1000
0100
1000
0000
0001
0010
,
0001
0000
1000
0010
1000
0000
0001
0100
,
0001
0000
1000
0100
0001
0000
0001
0010
,
1000
0000
1000
0010
0100
0000
0001
0100
,
0010
0000
1000
0010
0100
0000
0001
0100
,
1000
0000
0010
1000
0001
0100
0010
1000
,
0002
0000
0000
0203
0000
0000
0320
0000
,
2030
0000
3010
0200
0000
0000
0320
0000
,
2030
0000
0000
3002
0000
0000
0023
0000
,
0230
0000
0000
0302
0000
0000
2003
0000
,
3020
0000
0000
0230
0000
0000
0302
0000
,
2003
0000
3010
0200
0000
0302
0000
0000
,
2003
3020
0230
0302
,
0023
0230
2300
3200
,
0302
0000
0000
0203
0000
0000
0320
0000
,
2030
0000
3010
0200
0000
0302
0000
0000
,
2003
0000
0000
3020
0000
0000
0032
0000
,
0203
0000
0000
0320
0000
0000
2030
0000
,
3002
0203
0320
2030
,
3020
0230
0302
0023
,
0230
2300
3002
0203
,
0020
0300
0130
1001
,
0100
1001
1000
1100
,
0001
0011
0100
0110
,
1000
1001
1000
1100
,
0001
0011
0101
0101
,
1000
1100
0001
0011
,
0100
0110
1000
1001
,
1000
0101
0001
0011
,
1000
1100
1010
1010
,
0100
1000
0010
0101
,
0100
0010
1000
1001
,
1000
1010
0100
0101
,
0010
0011
1000
1001
,
0001
0100
0001
0100
1000
0100
1000
0100
,
1000
0010
1000
0010
0001
0010
0001
0010
,
0100
1000
0010
1000
0100
0010
0001
0010
,
0100
0010
0100
0010
0100
0010
0100
0010
0100
0010
0100
0010
0100
0000
0000
0000
,
0100
0010
0100
0001
1000
0001
0100
0010
,
1000
0001
0000
0001
1000
0000
1000
0001
;

//---------------dance-single - ----------------
#NOTES:
     dance-single:
     :
     Hard:
     15:
     0.729808,1.085811,0.644782,0.099197,0.283421,721.000000,630.000000,91.000000,14.000000,0.000000,0.000000,0.729808,1.085811,0.644782,0.099197,0.283421,721.000000,630.000000,91.000000,14.000000,0.000000,0.000000:
0000
0000
0000
0000
,
0000
0000
0000
0000
,
0000
0000
0000
0000
,
0000
0000
0000
0000
,
0000
0000
0000
0000
,
0011
0010
0110
1000
,
1100
0100
0110
0001
,
0101
1100
1001
0110
,
0001
0100
1010
1000
,
0100
0010
0100
0000
0001
1000
0001
0000
,
1000
0100
0010
0000
0001
0010
0100
0000
,
1000
0010
0100
0000
0001
0100
0010
0000
,
1000
0100
0001
0000
0001
0010
1000
0000
,
1000
0010
1000
0010
1000
0001
1000
0001
,
0100
0001
0100
0001
0010
0001
0010
0001
,
0100
0010
1000
0010
0100
0001
0010
0100
,
2000
3002
0203
0010
,
0020
0000
0000
0330
,
0010
0100
0010
0100
0010
0100
0010
0100
0010
0100
0010
0100
0010
0100
0010
0000
,
0001
0000
0010
0000
0100
0000
1000
0000
0010
1000
0010
1000
0010
0000
1000
0000
,
0010
0100
0001
0010
0100
1000
1001
0000
,
1000
0000
0010
0000
0100
0000
0001
0000
0010
0001
0010
0001
0010
0000
0100
0000
,
0010
1000
0010
0100
0001
1000
1001
0000
,
1000
0000
0100
0000
0010
0000
0001
0000
0100
0010
0100
0010
0100
0000
0001
0000
,
0010
0100
1000
0010
0100
0001
1001
0000
,
1000
0000
0100
0000
0010
0000
0001
0000
1000
0001
1000
0001
1000
0000
0001
0000
,
0100
0010
1000
0010
0100
0001
1001
0000
,
1100
0000
0100
0000
0010
0000
0001
0000
0100
0010
0100
0010
0100
0000
0001
0000
,
0011
0100
1000
0010
0100
0001
1001
0000
,
0011
0000
0100
0000
0010
0000
0001
0000
1000
0001
1000
0001
1000
0000
0010
0000
,
1010
0100
0010
0100
0001
0100
0110
0000
,
1001
0000
1000
0000
0010
0000
0100
0000
0010
1000
0010
1000
0010
0000
0100
0000
,
0011
1000
0010
0100
0001
1000
1001
0000
,
0110
0000
0100
0000
0001
0000
0010
0000
0100
0001
0100
0001
0100
0000
0010
0000
,
0201
0320
2030
3001
,
0011
0101
1001
1000
,
1100
1010
1001
0001
,
0101
0010
1010
0100
,
1001
1100
0101
0010
,
0100
0010
1000
0001
0010
0000
1000
0000
,
1100
0101
1001
0010
,
1000
0010
0100
0001
0010
1000
0001
0010
,
0011
0110
1100
0100
,
1010
0110
0101
0010
,
0101
0110
1100
1000
,
1001
0100
0110
0001
,
0101
1100
1001
0010
,
1000
0010
0100
0001
0010
0000
1000
0000
,
0011
0110
1100
0001
,
0100
0010
1000
0010
0100
0001
0010
0100
,
1100
1001
0110
0001
,
0010
0000
0100
0000
0001
0000
1000
0000
0010
0000
0001
1000
0001
1000
0001
0000
,
0100
0000
0001
0000
0100
0000
1000
0000
0010
0000
0100
0010
0100
0010
0100
0000
,
1000
0000
0001
0000
0010
0000
0100
0000
0010
0000
1000
0001
1000
0001
1000
0000
,
0001
0000
0010
0000
0100
0000
1000
0000
0001
0000
0100
0010
0100
0010
0100
0000
,
0001
0000
1000
0000
0010
0000
0100
0001
0000
1000
0010
0001
0100
0000
1000
0000
,
0010
0000
1000
0000
0001
0000
0100
0010
0000
1000
0001
0010
0100
0000
1000
0000
,
0010
0100
0010
0100
0010
0000
1000
0001
1000
0001
1000
0000
0010
0001
0100
0010
,
1000
0000
0100
0010
1000
0001
0100
0000
0001
0010
0001
0010
1000
0100
1000
0100
,
0010
1000
1001
0000
0010
1000
1001
0000
,
0100
0100
0010
1000
0001
0100
1001
0000
,
0010
0100
1001
0000
0100
0010
1001
0000
,
0010
0100
0010
0100
0010
0000
1000
0000
0001
0000
0100
0000
1001
0000
0000
0000
,
0100
0010
1100
0000
0100
0010
0101
0000
,
0010
0100
1001
0100
0010
1000
1100
0000
,
2010
3002
0203
0302
,
0203
0320
2030
3001
,
0001
0100
0101
0000
0100
1000
1100
0000
,
1000
0010
1001
0001
0100
0010
0011
0000
,
0001
0100
1001
0000
1000
0100
1001
0000
,
1000
0010
1000
0010
1000
0000
0001
0000
0100
0000
0010
0000
1001
0000
0000
0000
,
0100
0010
1100
0000
0010
0100
0011
0000
,
0100
0001
1001
0010
0100
0001
1010
0000
,
1000
0100
0010
0100
0001
0100
0010
1000
,
0001
1000
0001
1000
0010
0100
0010
0100
1000
0000
0000
0000
0110
0000
0000
0000
,
0001
0101
0100
1100
,
1000
1010
0010
0011
,
0001
0000
0100
0000
0010
0000
0000
0100
1000
0000
0010
0000
0100
0000
0000
0000
,
0001
0100
1000
0010
0100
0000
1001
0000
,
1000
1100
0001
0011
,
0001
0101
0100
1100
,
1000
0000
0010
0000
0100
0000
0000
0010
0001
0000
0100
0000
0010
0000
0000
0000
,
1000
0100
0010
0001
0100
0000
1001
0000
,
0001
0010
1000
0100
0010
0100
0001
0010
,
0100
1000
0010
1000
0100
0010
0100
0001
,
0010
0100
1000
0010
1000
0100
0010
1000
,
0001
0100
0010
1000
0010
0100
0001
0010
,
1000
0001
0100
0000
0001
1000
0010
0000
0100
0010
1000
0000
0010
0100
0001
0000
,
1000
0010
1000
0010
0001
0100
0001
0100
,
0010
0100
0010
0100
0010
0100
0010
0100
1000
0001
1000
0001
1000
0001
1000
0001
,
0100
0010
0001
0010
1000
0100
0001
0100
0010
1000
0001
1000
0010
0100
0001
0010
,
0001
0000
0100
0001
1000
0000
0010
0000
1000
0000
0100
0000
0010
0000
0100
0000
,
0001
0100
0000
1000
0100
0000
0001
0100
;
