#TITLE:Jump Up, Super Star!;
#SUBTITLE:;
#ARTIST:The Living Tombstone;
#TITLETRANSLIT:;
#SUBTITLETRANSLIT:;
#ARTISTTRANSLIT:;
#GENRE:Anime/Game;
#CREDIT:;
#BANNER:;
#BACKGROUND:Jump Up Super Star!-bg.png;
#LYRICSPATH:;
#CDTITLE:;
#MUSIC:Jump Up Super Star!.ogg;
#OFFSET:2.361000;
#SAMPLESTART:43.812500;
#SAMPLELENGTH:15.000000;
#LASTBEATHINT:2.191691;
#SELECTABLE:YES;
#DISPLAYBPM:102.000000;
#BPMS:0.000000=102.000000
;
#STOPS:
;
#BGCHANGES:4.000=Jump Up Super Star!.avi=1.000=0=0=0=StretchNoLoop====,
99999=-nosongbg-=1.000=0=0=0 // don't automatically add -songbackground-
;
#KEYSOUNDS:;
#ATTACKS:;

//---------------dance-single - ----------------
#NOTES:
     dance-single:
     :
     Beginner:
     2:
     0.099676,0.143212,0.044536,0.059382,0.000000,94.000000,88.000000,6.000000,8.000000,0.000000,0.000000,0.099676,0.143212,0.044536,0.059382,0.000000,94.000000,88.000000,6.000000,8.000000,0.000000,0.000000:
0000
0000
0000
0000
,
0000
0000
0000
0000
,
0000
0000
0000
0000
,
0000
0000
0000
0000
,
0010
0000
0000
0000
,
0100
0000
0000
0000
,
0000
0000
0000
0000
,
1000
0000
1000
0000
,
0001
0000
0001
0000
,
1000
0000
1000
0000
,
0020
0000
0030
0000
,
1000
0000
1000
0000
,
0001
0000
0001
0000
,
1000
0000
1000
0000
,
0200
0000
0300
0000
,
0010
0000
0010
0000
,
0100
0000
0100
0000
,
0001
0000
1000
0000
,
2002
0000
0000
0000
,
3003
0000
0000
0000
,
0100
0000
0100
0000
,
0010
0000
0010
0000
,
1000
0000
1000
0000
,
0001
0000
0001
0000
,
1000
0000
0100
0000
,
1000
0000
0100
0000
,
0001
0000
0010
0000
,
0001
0000
0010
0000
,
1000
0000
0100
0000
,
0010
0000
0100
0000
,
0001
0000
0010
0000
,
0100
0000
0010
0000
,
1000
0000
0001
0000
,
0100
0000
0010
0000
,
1000
0000
1001
0000
,
0001
0000
1001
0000
,
0100
0000
0100
0000
,
0220
0000
0000
0000
,
0330
0000
0000
0000
,
0000
0000
0000
0000
,
0001
0000
0001
0000
,
1000
0000
1000
0000
,
0010
0000
0010
0000
,
0100
0000
0100
0000
,
1000
0000
0100
0000
,
1000
0000
0100
0000
,
0001
0000
0010
0000
,
0001
0000
0010
0000
,
1000
0000
0100
0000
,
0010
0000
0100
0000
,
0001
0000
0010
0000
,
0100
0000
0010
0000
,
1000
0000
1001
0000
,
0001
0000
1001
0000
,
2000
0000
0000
3000
0000
0000
0002
0000
,
0000
0003
0000
0000
0000
0000
0000
0000
;

//---------------dance-single - ----------------
#NOTES:
     dance-single:
     :
     Easy:
     5:
     0.226922,0.317320,0.252372,0.207835,0.000000,214.000000,180.000000,34.000000,28.000000,0.000000,0.000000,0.226922,0.317320,0.252372,0.207835,0.000000,214.000000,180.000000,34.000000,28.000000,0.000000,0.000000:
0000
0000
0000
0000
,
0000
0000
0000
0000
,
0000
0000
0000
0000
,
0000
0000
0000
0000
,
1001
0010
0010
0000
,
1001
0100
0200
0000
,
0000
0000
0000
0300
,
1010
0100
0010
0100
,
1000
0100
0010
0001
,
0101
0010
0001
0010
,
0200
0310
0020
0130
,
1000
0100
0010
0010
,
0001
0010
0100
0100
,
1000
0100
0001
0001
,
0010
0100
0010
0100
,
0101
0010
1010
0100
,
2001
0010
0100
3010
,
0001
0001
1000
1000
,
0020
0000
0200
0000
,
0330
0000
0000
1001
,
0100
1100
0001
0101
,
1000
1010
0001
0011
,
0100
0110
1000
1001
,
0200
2300
3020
0032
,
0103
1001
0010
1001
,
0100
1000
0010
0001
,
0200
0010
1000
0010
,
0002
0000
0000
0303
,
0010
0101
0100
1010
,
0100
1100
0010
0011
,
0101
1100
0010
0100
,
0002
1000
0100
0013
,
0200
0310
0001
1001
,
0020
0130
1000
1001
,
1000
0100
0010
0110
,
0001
0010
0100
0110
,
2000
3010
0002
0103
,
0220
0000
0000
0000
,
0330
0000
0000
0000
,
0000
0000
0000
1001
,
0010
0010
0100
0100
,
1000
0010
0100
0001
,
0100
0100
0010
0010
,
1000
0001
0010
0100
,
0001
0011
0100
0010
,
1000
1100
0010
0100
,
0002
0013
2000
3100
,
0020
0100
0001
0130
,
1100
0010
0100
0001
,
0011
0100
0010
1000
,
0002
0103
2000
3100
,
0010
0100
0001
1000
,
0100
1010
0010
0101
,
0100
1000
0010
0001
,
0200
0000
0300
0020
0000
0030
0002
0000
,
0000
2003
0000
0000
0000
0000
0000
0000
,
0000
0000
0000
0000
,
3000
0000
0000
0000
;

//---------------dance-single - ----------------
#NOTES:
     dance-single:
     :
     Medium:
     8:
     0.255553,0.338475,0.267217,0.170722,0.063093,241.000000,205.000000,36.000000,23.000000,0.000000,0.000000,0.255553,0.338475,0.267217,0.170722,0.063093,241.000000,205.000000,36.000000,23.000000,0.000000,0.000000:
0000
0000
0000
0000
,
0000
0000
0000
0000
,
0000
0000
0000
0000
,
0000
0000
0000
0000
,
0011
0000
0000
0000
0000
0000
0010
0000
0000
0000
0000
0000
0100
0000
0000
0000
0000
0000
1000
0000
0000
0000
0000
0010
,
0000
0000
0100
0000
0000
0000
0001
0000
0000
0000
0000
2000
0000
0000
0000
0000
0000
0000
0000
0000
0000
0000
0000
0000
,
0000
0000
0000
3001
,
0110
1000
0010
0100
,
0001
0000
0000
0000
0000
0000
0100
0000
0000
0000
0000
0000
0010
0000
0000
0000
0000
0010
0100
0000
0000
0000
0000
0000
,
1000
0010
0100
0001
,
1000
1001
0001
1001
,
0100
0000
0000
0000
0000
0000
1000
0000
0000
0000
0000
0000
0010
0000
0000
0000
0000
0010
0100
0000
0000
0000
0000
0000
,
0001
1000
0010
1001
,
0100
0000
0000
0000
0000
0000
0001
0000
0000
0000
0000
0000
0010
0000
0000
0000
0000
0010
0100
0000
0000
0000
0000
0000
,
0002
0100
0010
1003
,
0010
0000
0000
0000
0000
1000
0000
0000
0000
0000
0000
0010
0000
0000
0000
0001
0000
0000
0000
0000
0000
0010
0000
0000
,
0200
0010
1000
0310
,
0001
0011
0100
1100
,
2000
0000
0000
0000
0000
0000
0000
0000
0000
0000
0000
0002
0000
0000
0000
0000
0000
0000
0000
0000
0000
0000
0000
0000
,
0000
0000
3003
0110
,
0001
0100
0010
1010
,
1000
0010
0100
0101
,
0010
1000
0001
0100
,
2000
0010
0001
3100
,
0020
1030
0001
0101
,
0020
0031
0100
1001
,
1000
0010
0100
0001
,
0210
0010
0010
0310
,
0101
0000
0000
0000
0000
0000
0010
0000
0000
0000
0000
0010
0100
0000
0000
0000
0000
0000
1001
0000
0000
0000
0000
0000
,
0100
0000
0000
0000
0000
0000
1000
0000
0000
0000
0000
1000
0001
0000
0000
0000
0000
0000
0110
0000
0000
0000
0000
0000
,
0001
0100
1000
0010
,
0102
0100
0010
0013
,
0101
0000
0000
0000
0000
0000
1000
0000
0000
0000
0000
0000
0010
0000
0000
0000
0000
0010
1000
0000
0000
0000
0000
0000
,
0100
0000
0000
0000
0000
0000
0001
0000
0000
0000
0000
0000
0100
0000
0000
0000
0000
0100
0001
0000
0000
0000
0000
0000
,
1000
0000
0010
0000
1000
0001
1001
0000
,
0010
0000
0100
0000
0010
0100
0110
0000
,
2000
3010
0002
0013
,
0200
0000
0000
0000
0000
0000
0010
0000
0000
0000
0000
0020
0000
0000
0000
0000
0000
0000
0000
0000
0000
0000
0000
0000
,
0000
0000
0000
0000
,
0330
0000
0000
0011
,
0101
1100
0010
1001
,
1000
0000
0000
0000
0000
0000
0010
0000
0000
0000
0000
0000
0100
0000
0000
0000
0000
0100
0010
0000
0000
0000
0000
0000
,
0001
1000
0010
1001
,
0010
0100
0010
0100
,
0011
0000
0000
0000
0000
0000
0010
0000
0000
0000
0000
0000
1000
0000
0000
0000
0000
1000
0001
0000
0000
0000
0000
0000
,
0100
0010
1000
1001
,
0010
0000
0000
0000
0000
0000
0100
0000
0000
0000
0000
0000
0001
0000
0000
0000
0000
0001
1000
0000
0000
0000
0000
0000
,
0020
0100
0001
0130
,
1001
0010
1000
0100
,
0010
0000
0010
0000
1000
0001
1000
0000
,
0010
0100
1000
0010
,
0100
0000
0010
0000
0001
1000
0001
0000
,
1000
0100
0010
0000
1001
0000
0110
0000
,
0001
0010
0100
0000
1001
0000
0110
0000
,
0022
0000
0000
0000
0033
0000
0000
0000
0000
0220
0000
0000
0000
0000
0330
0000
0000
0000
2200
0000
0000
0000
3300
0000
,
0000
2002
0000
0000
0000
0000
0000
0000
,
0000
0000
0000
0000
,
3003
0000
0000
0000
;

//---------------dance-single - ----------------
#NOTES:
     dance-single:
     :
     Hard:
     11:
     0.415671,0.528867,0.437939,0.118763,0.115052,392.000000,333.000000,59.000000,16.000000,0.000000,0.000000,0.415671,0.528867,0.437939,0.118763,0.115052,392.000000,333.000000,59.000000,16.000000,0.000000,0.000000:
// measure 0
0000
0000
0000
0000
,  // measure 1
0000
0000
0000
0000
,  // measure 2
0000
0000
0000
0000
,  // measure 3
0000
0000
0000
0000
,  // measure 4
1010
0000
0000
0000
0000
0000
0100
0000
0000
0000
0000
0000
0010
0000
0000
0000
0000
0000
0001
0000
0100
0010
0000
0100
,  // measure 5
0000
0000
0001
0000
0000
0000
1000
0000
0000
0000
0000
2002
0000
0000
0000
0000
0000
0000
0000
0000
0000
0000
0000
0000
,  // measure 6
0000
0000
0000
3003
,  // measure 7
0010
0000
0100
0000
0010
1000
0010
0100
,  // measure 8
0001
0000
0001
0000
0100
0010
1000
0001
,  // measure 9
0100
0000
0100
0000
0010
1000
0001
0100
,  // measure 10
0010
0100
0000
0100
0010
0000
0010
1000
0000
1000
0001
0000
,  // measure 11
0001
1000
1001
0000
0100
0010
0110
0000
,  // measure 12
0001
0100
1000
0010
0100
0001
1001
0000
,  // measure 13
1000
0100
0010
0010
0001
0010
0100
0100
,  // measure 14
1000
0010
1000
0001
0100
0001
0010
0001
,  // measure 15
1001
0000
0000
0000
0000
0110
0000
0000
0000
0000
0000
0011
0000
0000
0000
0110
0000
0000
0000
0000
0000
1100
0000
0000
,  // measure 16
1001
0010
1000
0100
0001
0010
0110
0000
,  // measure 17
0001
0000
0000
0100
0000
0001
0000
0000
0000
1000
0000
0000
0100
0000
0000
1000
0000
0100
0000
0000
0000
0010
0000
0000
,  // measure 18
0200
0000
0000
0000
0000
0320
0000
0000
0000
0000
0000
2030
0000
0000
0000
0000
0000
3002
0000
0000
0000
0000
0000
0000
,  // measure 19
0000
0100
0100
0100
0100
0100
0200
0000
0000
0303
0000
0000
,  // measure 20
0001
0100
0010
1000
1001
0100
1001
0000
,  // measure 21
0010
1000
0001
0100
1001
0010
1001
0000
,  // measure 22
1000
0100
0010
0001
0100
0100
0010
0010
,  // measure 23
0011
0010
0110
0100
1100
1000
1001
0001
,  // measure 24
0010
0100
1000
0010
0110
0001
0110
0000
,  // measure 25
0001
0100
0010
1000
0110
1000
0110
0000
,  // measure 26
1000
0010
0101
0000
0001
0010
1100
0000
,  // measure 27
0020
0100
0001
0130
,  // measure 28
0001
0100
0010
1000
1100
0010
0101
0000
,  // measure 29
0010
0100
0001
1000
0011
0100
1010
0000
,  // measure 30
0100
1000
0010
0100
0001
0001
0100
0100
,  // measure 31
1010
1000
1100
0100
0110
0010
0011
0001
,  // measure 32
1001
0010
1000
0100
0101
0110
0101
0000
,  // measure 33
1000
0010
0100
0001
1010
0110
1010
0000
,  // measure 34
0010
1000
0100
0010
0002
0100
0103
0000
,  // measure 35
0001
0100
0010
0100
2000
0100
3100
0000
,  // measure 36
1000
0000
0000
0010
0000
0000
0100
0000
0000
0001
0000
0000
0010
0000
0000
0100
0000
0000
0010
0000
0000
1000
0000
0001
,  // measure 37
0000
0000
2000
0000
0000
0000
3200
0000
0000
0000
0000
0320
0000
0000
0000
0000
0000
0000
0000
0000
0000
0000
0000
0000
,  // measure 38
0000
0000
0000
0000
,  // measure 39
0000
0000
0000
0130
,  // measure 40
1001
0000
0110
1000
0010
0100
0001
1000
,  // measure 41
1001
0000
0110
0001
0100
0010
1000
0100
,  // measure 42
0011
0000
0110
1000
0100
0001
0010
0100
,  // measure 43
1100
0000
0110
0000
1001
0010
1000
0100
,  // measure 44
0101
0010
0100
1000
0010
0100
0001
1000
,  // measure 45
1010
1000
0100
0001
0010
1000
0010
0100
,  // measure 46
0011
0010
0100
0001
0100
0010
1000
0001
,  // measure 47
0012
0100
0010
0103
,  // measure 48
1001
0000
0000
0010
0000
0000
1000
0000
0000
0010
0000
0000
0100
0000
0000
0001
0000
0010
0000
0000
0100
1000
0000
0000
,  // measure 49
0010
0000
0000
0100
0000
0000
0001
0000
0000
0100
0000
0000
0010
0000
0000
1000
0000
0100
0000
0000
0010
0001
0000
0000
,  // measure 50
0010
0000
0000
0100
0000
0000
0001
0000
0000
0100
0000
0000
0010
0000
0000
1000
0000
0010
0000
0000
0100
0001
0000
0000
,  // measure 51
0010
0100
0001
1000
0010
1000
1001
0000
,  // measure 52
1000
0100
0010
0001
0100
0100
1001
0000
,  // measure 53
0001
0010
1000
0001
0010
0010
1001
0000
,  // measure 54
1000
0000
0000
1000
0000
0100
0000
0000
0000
0100
0000
0000
0100
0000
0010
0000
0000
0000
0010
0000
0000
0010
0000
0001
,  // measure 55
0000
0022
0000
0000
0000
0000
0000
0000
,  // measure 56
0000
0000
0000
0000
,  // measure 57
0033
0000
0000
0000
;
