#TITLE:じゅーじゅー♥焼肉の火からフェニックス!?~再誕の†炭火焼き~;
#SUBTITLE:;
#ARTIST:かめりあ feat. ななひら;
#TITLETRANSLIT:Juju yakiniku no hi kara phoenix!? ~saitan no sumibiyaki~;
#SUBTITLETRANSLIT:;
#ARTISTTRANSLIT:Camellia feat. nanahira;
#GENRE:SOUND VOLTEX;
#CREDIT:;
#BANNER:;
#BACKGROUND:;
#LYRICSPATH:;
#CDTITLE:;
#MUSIC:Juju yakiniku no hi kara phoenix ~saitan no sumibiyaki~.ogg;
#OFFSET:1.032000;
#SAMPLESTART:69.599701;
#SAMPLELENGTH:15.000000;
#SELECTABLE:YES;
#BPMS:0.000000=180.000000
;
#STOPS:
;
#BGCHANGES:3.000=Juju yakiniku no hi kara phoenix ~saitan no sumibiyaki~.avi=1.000=0=0=0=StretchNoLoop====,
99999=-nosongbg-=1.000=0=0=0 // don't automatically add -songbackground-
;
#KEYSOUNDS:;
#ATTACKS:;

//---------------dance-single - ----------------
#NOTES:
     dance-single:
     :
     Hard:
     13:
     0.660767,0.783110,0.447062,0.343894,0.124661,538.000000,486.000000,52.000000,40.000000,0.000000,0.000000,0.660767,0.783110,0.447062,0.343894,0.124661,538.000000,486.000000,52.000000,40.000000,0.000000,0.000000:
// measure 0
0000
0000
0000
0000
,  // measure 1
0000
0000
0000
0000
,  // measure 2
0000
0000
0000
0000
,  // measure 3
0000
0000
0000
0000
,  // measure 4
0000
0022
0033
2010
,  // measure 5
3001
0000
0000
1000
0000
0000
1001
0000
0000
0000
0000
0000
0010
0000
0000
0000
,  // measure 6
1001
0100
0010
0100
0001
1000
0100
0000
,  // measure 7
1000
0010
0100
0001
0010
0000
0011
0000
,  // measure 8
0001
0100
0010
1000
0001
0000
1000
0000
,  // measure 9
1000
0010
0100
0001
1000
0000
0001
0000
,  // measure 10
0220
0000
0000
0330
,  // measure 11
0001
0000
0000
1000
0000
0000
0001
0000
0000
1000
0000
0000
0001
0000
0000
0000
,  // measure 12
0010
1000
0100
0010
0100
0001
0010
0100
,  // measure 13
0001
0100
0010
1000
0001
1000
0100
0010
,  // measure 14
0001
1000
0001
1000
0001
0000
0100
0010
0100
0010
0100
0000
0001
0000
1000
0000
,  // measure 15
0010
0000
0000
0100
0000
0000
2002
0000
0000
0000
0000
0000
3003
0000
0000
0000
,  // measure 16
1100
0000
0101
0000
0001
1000
0010
0100
,  // measure 17
0001
1000
0010
0100
0002
0000
0103
0000
,  // measure 18
0101
0000
0011
0000
0010
0100
1000
0001
,  // measure 19
0010
0100
1000
0001
0020
0000
0031
0000
,  // measure 20
0011
0000
1010
0000
1000
0001
0100
0010
,  // measure 21
1000
0001
0100
0010
2000
0000
3010
0000
,  // measure 22
0001
1000
0010
0000
0010
1000
0001
0000
,  // measure 23
0001
0100
1000
0100
0010
0001
0010
0000
,  // measure 24
1002
0000
0013
0000
1000
0001
0100
0010
,  // measure 25
2000
0000
3001
0000
0010
1000
0001
0100
,  // measure 26
0020
0000
0130
0000
0001
1000
0010
0100
,  // measure 27
0002
0000
0103
0000
0010
1000
0001
0010
,  // measure 28
0200
0000
0310
0000
1000
0001
0010
0100
,  // measure 29
2000
0000
3010
0000
0001
0010
1000
0100
,  // measure 30
0010
0100
0001
0010
0100
1000
0010
1000
,  // measure 31
0002
1000
1000
1003
,  // measure 32
0010
1000
0010
0100
0001
0100
1001
0000
,  // measure 33
0010
0001
0010
0100
1000
0100
1001
0000
,  // measure 34
2000
0000
3200
0000
0301
0010
0001
0000
,  // measure 35
0001
0100
0010
0100
1000
0001
0010
0100
,  // measure 36
0010
1000
0001
0100
0010
1000
0011
0000
,  // measure 37
0100
0001
1000
0010
0100
0001
1100
0000
,  // measure 38
0001
1000
0010
1000
0100
0010
0001
1000
,  // measure 39
0010
1000
0100
0001
0100
0000
1100
0000
,  // measure 40
0100
0001
0100
0010
1000
0010
1001
0000
,  // measure 41
0100
1000
0100
0010
0001
0010
1001
0000
,  // measure 42
0002
0000
0023
0000
1030
0100
1000
0000
,  // measure 43
1000
0010
0100
0010
0001
1000
0100
0010
,  // measure 44
0100
0001
1000
0010
0100
0001
1100
0000
,  // measure 45
0010
1000
0001
0100
0010
1000
0011
0000
,  // measure 46
1000
0001
0100
0001
0010
0100
1000
0001
,  // measure 47
0100
0001
0010
1000
0010
0000
0011
0010
,  // measure 48
1002
0100
0010
0100
,  // measure 49
1000
0100
0010
0100
,  // measure 50
0203
0000
0010
0000
,  // measure 51
1300
0000
0010
0000
0001
0000
1000
0000
0100
0000
0001
0000
,  // measure 52
2000
0000
0000
0000
,  // measure 53
0001
0000
0001
0000
3001
0000
0001
1000
,  // measure 54
0020
0030
2002
3003
,  // measure 55
1100
0000
0000
0101
0000
0000
2002
0000
0000
0000
0000
0000
0000
0000
0000
0000
,  // measure 56
3003
0022
0033
2010
,  // measure 57
3001
0000
0000
1000
0000
0000
1001
0000
0000
0000
0000
0000
1001
0000
0000
0000
,  // measure 58
0011
0000
1000
0000
0010
0000
0100
0000
0001
0000
0000
0010
0000
0000
0010
0000
,  // measure 59
0100
0000
0010
0000
1000
0000
0001
0000
0010
0000
0000
0010
0000
0000
1000
0000
,  // measure 60
0010
0100
0001
0010
0100
1000
0010
1000
,  // measure 61
0001
0100
1000
0100
1001
0000
0010
1000
,  // measure 62
0001
0000
0000
0000
0011
0000
0000
0010
0000
0000
1000
0000
1010
0000
0000
0000
,  // measure 63
1001
0000
0000
1100
0000
0000
0201
0000
0000
0000
0000
0000
0301
0000
0010
0000
,  // measure 64
1000
0100
1100
0000
0001
0100
0101
0000
,  // measure 65
0010
0000
1000
0010
0000
1000
0010
0000
0001
0000
0010
0000
1000
0000
0000
0000
,  // measure 66
0001
0000
0010
0000
1000
0000
0100
0000
0010
0000
0000
0001
0000
0000
0001
0000
,  // measure 67
0010
0000
0100
0000
1000
0000
0010
0000
0001
0000
0000
1000
0000
0000
1000
0000
,  // measure 68
0010
1000
0001
0010
1000
0001
1000
0000
,  // measure 69
0010
1000
0001
0100
1000
0001
1000
0000
,  // measure 70
2100
0000
0100
0000
,  // measure 71
0010
0000
0100
0010
,  // measure 72
3002
0000
0100
0000
,  // measure 73
0010
0000
0010
0103
,  // measure 74
0011
0000
1010
0000
1000
0001
0100
0010
,  // measure 75
1000
0001
0100
0010
2000
0000
3010
0000
,  // measure 76
1010
0000
1100
0000
0100
0010
0001
1000
,  // measure 77
0100
0010
0001
1000
0200
0000
1300
0000
,  // measure 78
1100
0000
0101
0000
0001
1000
0010
0100
,  // measure 79
0001
1000
0010
0100
0002
0000
0103
0000
,  // measure 80
1000
0001
0100
0000
0100
0001
1000
0000
,  // measure 81
1000
0010
0001
0010
0100
1000
0100
0000
,  // measure 82
1000
0001
0010
1000
0010
0100
1000
0010
,  // measure 83
0100
0010
1000
0001
0100
0001
0010
1000
,  // measure 84
0100
0001
0010
0001
0100
0000
0010
1000
0100
1000
0010
0000
0100
0000
0001
0000
,  // measure 85
1000
0000
0000
0010
0000
0000
0101
0000
0001
0000
0000
0100
0000
0000
1010
0000
,  // measure 86
1000
0000
0000
0010
0000
0000
0202
0000
0000
0000
0000
0000
0303
0000
0000
0000
;

//---------------dance-single - ----------------
#NOTES:
     dance-single:
     :
     Medium:
     11:
     0.539176,0.596656,0.335296,0.283712,0.060181,439.000000,400.000000,39.000000,33.000000,0.000000,0.000000,0.539176,0.596656,0.335296,0.283712,0.060181,439.000000,400.000000,39.000000,33.000000,0.000000,0.000000:
// measure 0
0000
0000
0000
0000
,  // measure 1
0000
0000
0000
0000
,  // measure 2
0000
0000
0000
0000
,  // measure 3
0000
0000
0000
0000
,  // measure 4
0000
1100
0000
0101
,  // measure 5
0002
0000
0000
1000
0000
0000
0020
0000
0000
0000
0000
0000
0033
0000
0000
0000
,  // measure 6
1000
0010
0100
0001
0100
0000
0101
0000
,  // measure 7
0001
0100
0010
1000
0100
0000
1100
0000
,  // measure 8
1000
0010
0100
0000
0001
0100
0010
0000
,  // measure 9
1000
0001
0100
0000
1000
0001
0010
0000
,  // measure 10
0200
0000
0000
0000
0000
0000
0000
0000
0000
0000
0000
0000
0000
0000
0000
0300
,  // measure 11
0010
0000
0000
0100
0000
0000
0010
0000
0000
0100
0000
0000
0000
0000
0000
0000
,  // measure 12
1000
0000
0000
0110
0000
0000
1000
0100
,  // measure 13
0001
0000
0000
0110
0000
0000
0001
0010
,  // measure 14
1000
0100
0010
1000
0100
0010
0001
0010
,  // measure 15
0100
0000
0000
0001
0000
0000
0200
0000
0000
0000
0000
0000
1300
0000
0000
0000
,  // measure 16
0001
1000
0010
0000
1000
0010
1000
0000
,  // measure 17
0001
0100
0010
1000
0001
0000
1001
0000
,  // measure 18
1000
0001
0100
0000
0001
0100
0001
0000
,  // measure 19
1000
0010
0100
0001
1000
0000
1001
0000
,  // measure 20
0010
0100
1000
0000
0100
1000
0100
0000
,  // measure 21
0010
0001
1000
0100
0010
0000
0110
0000
,  // measure 22
0001
1000
0010
0000
0010
1000
0001
0000
,  // measure 23
0001
0100
1000
0010
2002
0000
3003
0000
,  // measure 24
0002
0000
1000
0000
1003
0100
0010
0000
,  // measure 25
2000
0000
0001
0000
3001
0100
0010
0000
,  // measure 26
2000
0000
0001
0000
3001
0010
0100
0000
,  // measure 27
0002
0000
1000
0000
1003
0010
0100
0000
,  // measure 28
0020
0000
0100
0000
0130
0001
1000
0000
,  // measure 29
0200
0000
0010
0000
0310
0001
1000
0000
,  // measure 30
0200
0000
0010
0000
0310
1000
0001
0000
,  // measure 31
0020
0000
0100
0000
0130
1000
0001
0000
,  // measure 32
0010
1000
0100
0010
0100
0001
0010
0000
,  // measure 33
0010
0100
0001
0100
0010
1000
0100
0000
,  // measure 34
1100
1100
0001
0100
,  // measure 35
0011
0011
0100
0010
,  // measure 36
1000
0000
0010
0000
1000
0001
0100
0000
,  // measure 37
0010
0000
1000
0000
0001
1000
0010
0000
,  // measure 38
0100
0000
0001
0000
0001
0100
1000
0010
,  // measure 39
0100
0001
0100
0010
1000
0000
1100
0000
,  // measure 40
0100
0001
0010
0100
0010
1000
0100
0000
,  // measure 41
0100
0010
1000
0010
0100
0001
0010
0000
,  // measure 42
0011
0011
1000
0010
,  // measure 43
1100
1100
0010
0100
,  // measure 44
0001
0000
0100
0000
0001
1000
0010
0000
,  // measure 45
0100
0000
0001
0000
1000
0001
0100
0000
,  // measure 46
0010
0000
1000
0000
1000
0010
0001
0100
,  // measure 47
0010
1000
0010
0100
0001
0000
0011
0000
,  // measure 48
0200
0000
0000
0000
,  // measure 49
0010
0000
1000
0000
,  // measure 50
0320
0000
0100
0000
,  // measure 51
1030
0000
0001
0000
1000
0000
0001
0000
1000
0000
0001
0000
,  // measure 52
0200
0000
0000
0000
,  // measure 53
0010
0010
0310
0001
,  // measure 54
1001
0000
1100
0000
,  // measure 55
0100
0000
0000
2000
0000
0000
0002
0000
0000
0000
0000
0000
3000
0000
0000
0000
,  // measure 56
0003
1200
0300
0101
,  // measure 57
2002
0000
0000
3003
0000
0000
0200
0000
0000
0000
0000
0000
0301
0000
0000
0000
,  // measure 58
1000
0010
1000
0001
0100
0000
1010
0000
,  // measure 59
0001
1000
0010
0100
0001
0000
0011
0000
,  // measure 60
0100
0001
1000
0000
1000
0001
0010
0000
,  // measure 61
0010
1000
0100
0001
0010
0000
1100
0000
,  // measure 62
0000
1020
0000
0000
0000
0001
0000
0000
,  // measure 63
1030
0000
0000
0001
0000
0000
0100
0000
0000
0000
0000
0000
0001
0000
1000
0000
,  // measure 64
0010
0000
0011
0000
1000
0010
0001
0000
,  // measure 65
0010
0000
0000
2000
0000
0000
0002
0000
0000
3003
0000
0000
0110
0000
0000
0000
,  // measure 66
0001
0010
1000
0100
0010
0000
1100
0000
,  // measure 67
0010
1000
0001
0100
0010
0000
0011
0000
,  // measure 68
0001
0100
0010
0000
0010
0100
1000
0000
,  // measure 69
1000
0010
0100
0000
0100
0001
0010
0000
,  // measure 70
0200
0000
0010
0000
,  // measure 71
1000
0000
0001
0000
,  // measure 72
0302
0000
0100
0000
,  // measure 73
2003
0000
0020
3030
,  // measure 74
1000
0001
0100
0000
0001
0100
0001
0000
,  // measure 75
1000
0010
0100
0001
1000
0000
1001
0000
,  // measure 76
0001
1000
0010
0000
1000
0010
1000
0000
,  // measure 77
0001
0100
0010
1000
0001
0000
1001
0000
,  // measure 78
0100
0010
0001
0000
0010
0001
0010
0000
,  // measure 79
0100
1000
0001
0010
0100
0000
0110
0000
,  // measure 80
1000
0001
0100
0000
0100
0001
1000
0000
,  // measure 81
1000
0010
0001
0100
2002
0000
3003
0000
,  // measure 82
0001
0000
0000
0110
0000
0000
0001
0010
,  // measure 83
1000
0000
0000
0110
0000
0000
1000
0100
,  // measure 84
0001
0010
0100
0001
0010
0100
1000
0100
,  // measure 85
0010
0000
0000
1000
0000
0000
0010
0000
0100
0000
0000
0001
0000
0000
0100
0000
,  // measure 86
0001
0000
0000
1000
0000
0000
0002
0000
0000
0000
0000
0000
1003
0000
0000
0000
;

//---------------dance-single - ----------------
#NOTES:
     dance-single:
     :
     Easy:
     8:
     0.390565,0.484783,0.120363,0.326699,0.030091,318.000000,304.000000,14.000000,38.000000,0.000000,0.000000,0.390565,0.484783,0.120363,0.326699,0.030091,318.000000,304.000000,14.000000,38.000000,0.000000,0.000000:
// measure 0
0000
0000
0000
0000
,  // measure 1
0000
0000
0000
0000
,  // measure 2
0000
0000
0000
0000
,  // measure 3
0000
0000
0000
0000
,  // measure 4
0000
0001
0000
1000
,  // measure 5
0010
0000
0000
0100
0000
0000
0020
0000
0000
0000
0000
0000
0030
0000
0000
0000
,  // measure 6
1100
0001
0100
0010
,  // measure 7
1000
0001
0100
0000
0010
0000
1000
0000
,  // measure 8
0020
0100
0100
0130
,  // measure 9
2000
0001
0001
3001
,  // measure 10
0020
0000
0000
0000
,  // measure 11
0200
0000
0000
0330
,  // measure 12
0001
1000
0001
1000
0001
0000
0000
0000
,  // measure 13
0010
0100
0010
0100
0010
0000
0000
0000
,  // measure 14
1000
0100
1000
0100
1000
0000
0000
0000
,  // measure 15
0001
0000
0000
0010
0000
0000
0200
0000
0000
0000
0000
0000
1300
0000
0000
0000
,  // measure 16
1001
0010
1000
0001
,  // measure 17
0100
0010
1000
0001
,  // measure 18
1000
0010
0100
0001
,  // measure 19
1000
0000
0010
0000
1000
0001
1000
0000
,  // measure 20
0010
1000
0001
0100
,  // measure 21
0010
1000
0001
0010
,  // measure 22
1000
0010
0100
0001
,  // measure 23
0010
0100
0220
0330
,  // measure 24
0001
1000
0010
0000
,  // measure 25
1000
0001
0100
0000
,  // measure 26
1000
0100
0001
0000
,  // measure 27
0001
1000
0010
0000
,  // measure 28
2000
0100
0010
3100
,  // measure 29
0002
0100
0010
0103
,  // measure 30
2000
0010
0100
3010
,  // measure 31
0002
0100
0010
0103
,  // measure 32
0001
1000
0010
0000
1000
0010
1000
0000
,  // measure 33
0001
1000
0011
0000
,  // measure 34
2000
0010
0100
0010
,  // measure 35
0100
0000
0100
0000
0200
0000
0000
3300
,  // measure 36
0001
0000
0100
0000
0010
1000
0001
0000
,  // measure 37
0010
0000
1000
0000
0010
1000
0001
0000
,  // measure 38
0020
0000
0100
0130
,  // measure 39
0001
1000
0010
0000
0010
1000
0001
0000
,  // measure 40
1000
0001
0100
0000
0001
0100
0001
0000
,  // measure 41
1000
0001
1100
0000
,  // measure 42
0002
0100
0010
0100
,  // measure 43
0010
0000
0010
0000
0020
0000
0000
0033
,  // measure 44
1000
0000
0010
0000
0100
0001
1000
0000
,  // measure 45
0100
0000
0001
0000
0100
0001
1000
0000
,  // measure 46
0200
0000
0010
0310
,  // measure 47
1000
0001
0100
0000
0100
0001
1000
0000
,  // measure 48
2000
0000
0000
0000
,  // measure 49
0100
0000
0010
0000
,  // measure 50
3002
0000
0100
0000
,  // measure 51
1000
0000
0100
0000
,  // measure 52
0020
0000
0000
0000
,  // measure 53
0033
0001
1000
0000
,  // measure 54
1100
0000
0101
0000
,  // measure 55
0010
0000
0000
0100
0000
0000
0020
0000
0000
0000
0000
0000
0000
0000
0000
0000
,  // measure 56
0030
1100
0000
0101
,  // measure 57
1001
0000
0000
0010
0000
0000
0200
0000
0000
0000
0000
0000
0300
0000
0000
0000
,  // measure 58
1000
0010
0100
0000
0001
0000
1000
0000
,  // measure 59
0010
0100
0001
0000
1000
0000
0001
0000
,  // measure 60
0020
0100
0100
0130
,  // measure 61
2000
0001
3001
0000
,  // measure 62
1100
0001
0010
1000
,  // measure 63
0020
0100
0130
0001
,  // measure 64
2000
3001
0010
0100
,  // measure 65
0002
1003
0010
0000
,  // measure 66
1000
0010
0200
0010
,  // measure 67
0310
0001
1000
0010
,  // measure 68
0002
0100
0103
1000
,  // measure 69
0200
0010
0310
0001
,  // measure 70
2000
0000
0010
0000
,  // measure 71
0100
0000
3010
0001
,  // measure 72
0020
0000
0100
0000
,  // measure 73
0001
0000
0200
0330
,  // measure 74
1001
0100
0001
1000
,  // measure 75
0010
0100
0001
1000
,  // measure 76
0001
0100
0010
1000
,  // measure 77
0001
0000
0100
0000
0001
1000
0001
0000
,  // measure 78
0100
0001
1000
0010
,  // measure 79
0100
0001
1000
0100
,  // measure 80
0001
0100
0010
1000
,  // measure 81
0100
0010
0220
0330
,  // measure 82
1000
0100
0010
0001
1000
0000
0000
0000
,  // measure 83
0001
0010
0100
1000
0001
0000
0000
0000
,  // measure 84
0100
0010
1000
0001
0100
0000
0000
0000
,  // measure 85
1000
0000
0000
0100
0000
0000
0000
0000
0001
0000
0000
0010
0000
0000
0000
0000
,  // measure 86
1000
0000
0000
0001
0000
0000
0220
0000
0000
0000
0000
0000
0330
0000
0000
0000
;

//---------------dance-single - ----------------
#NOTES:
     dance-single:
     :
     Beginner:
     5:
     0.174403,0.223746,0.034389,0.206336,0.000000,142.000000,138.000000,4.000000,24.000000,0.000000,0.000000,0.174403,0.223746,0.034389,0.206336,0.000000,142.000000,138.000000,4.000000,24.000000,0.000000,0.000000:
// measure 0
0000
0000
0000
0000
,  // measure 1
0000
0000
0000
0000
,  // measure 2
0000
0000
0000
0000
,  // measure 3
0000
0000
0000
0000
,  // measure 4
0000
0000
0000
0000
,  // measure 5
0000
0000
0000
0000
,  // measure 6
1000
0000
0100
0000
,  // measure 7
1000
0000
0100
0000
,  // measure 8
0001
0000
0010
0000
,  // measure 9
0001
0000
0010
0000
,  // measure 10
2002
0000
0000
0000
,  // measure 11
3003
0000
0000
0000
,  // measure 12
1000
0000
0100
0000
,  // measure 13
1000
0000
0010
0000
,  // measure 14
1000
0000
0001
0000
,  // measure 15
2000
0000
3000
0000
,  // measure 16
0010
0000
0100
0000
,  // measure 17
0010
0000
0100
0000
,  // measure 18
0001
0000
1000
0000
,  // measure 19
0001
0000
1000
0000
,  // measure 20
0001
0000
0010
0000
,  // measure 21
0001
0000
0010
0000
,  // measure 22
1000
0000
0100
0000
,  // measure 23
1000
0000
0100
0000
,  // measure 24
2002
0000
0000
0000
,  // measure 25
3003
0000
0100
0000
,  // measure 26
0020
0000
0000
0000
,  // measure 27
0030
0000
1000
0000
,  // measure 28
0020
0000
0000
0000
,  // measure 29
0030
0000
0001
0000
,  // measure 30
0200
0000
0000
0000
,  // measure 31
0300
1000
0001
0000
,  // measure 32
0100
0000
0010
0000
,  // measure 33
1000
0000
0001
0000
,  // measure 34
0100
0000
0010
0000
,  // measure 35
1000
0000
0001
0000
,  // measure 36
1000
0000
0010
0000
,  // measure 37
0100
0000
0001
0000
,  // measure 38
1000
0000
0010
0000
,  // measure 39
0100
0000
0001
0000
,  // measure 40
0010
0000
0100
0000
,  // measure 41
0001
0000
1000
0000
,  // measure 42
0010
0000
0100
0000
,  // measure 43
0001
0000
1000
0000
,  // measure 44
0001
0000
0100
0000
,  // measure 45
0010
0000
1000
0000
,  // measure 46
0001
0000
0100
0000
,  // measure 47
0010
0000
1000
0000
,  // measure 48
2002
0000
0000
0000
,  // measure 49
3003
0000
0000
0000
,  // measure 50
0020
0000
1000
0000
,  // measure 51
0001
0000
1000
0000
,  // measure 52
0002
0000
0000
0000
,  // measure 53
0033
0000
0000
0000
,  // measure 54
0200
0000
1000
0000
,  // measure 55
0001
0000
1300
0000
,  // measure 56
0020
0000
0001
0000
,  // measure 57
1000
0000
0001
0030
,  // measure 58
1000
0000
0100
0000
,  // measure 59
0010
0000
0001
0001
,  // measure 60
0200
0000
0000
0300
,  // measure 61
0010
0000
1000
0000
,  // measure 62
0002
0000
0103
0000
,  // measure 63
2000
0000
3100
0000
,  // measure 64
0002
0000
0013
0000
,  // measure 65
2000
0000
3010
0000
,  // measure 66
0001
0000
0100
0000
,  // measure 67
0010
0000
1000
0000
,  // measure 68
0100
0000
0010
0000
,  // measure 69
0001
0000
1000
0000
,  // measure 70
0220
0000
0000
0000
,  // measure 71
0000
0000
0000
0330
,  // measure 72
0002
0000
0000
0000
,  // measure 73
2000
0000
0000
3003
,  // measure 74
0100
0000
0010
0000
,  // measure 75
0100
0000
0010
0000
,  // measure 76
1000
0000
0001
0000
,  // measure 77
1000
0000
0001
0000
,  // measure 78
1000
0000
0100
0000
,  // measure 79
1000
0000
0100
0000
,  // measure 80
0001
0000
0010
0000
,  // measure 81
0001
0000
0010
0000
,  // measure 82
0001
0000
0010
0000
,  // measure 83
0001
0000
0100
0000
,  // measure 84
0001
0000
1000
0000
,  // measure 85
0002
0000
0000
0000
,  // measure 86
0000
0000
0000
1003
;
