#TITLE:Journey;
#SUBTITLE:;
#ARTIST:猫叉Master;
#TITLETRANSLIT:D;
#SUBTITLETRANSLIT:;
#ARTISTTRANSLIT:Nekomata Master;
#GENRE:REFLEC BEAT;
#CREDIT:;
#BANNER:;
#BACKGROUND:;
#LYRICSPATH:;
#CDTITLE:;
#MUSIC:Journey.ogg;
#OFFSET:-0.200000;
#SAMPLESTART:79.480858;
#SAMPLELENGTH:15.000000;
#SELECTABLE:YES;
#BPMS:0.000000=112.000000
;
#STOPS:
;
#BGCHANGES:;
#KEYSOUNDS:;
#ATTACKS:;

//---------------dance-single - ----------------
#NOTES:
     dance-single:
     :
     Easy:
     5:
     0.200361,0.270847,0.008398,0.109179,0.000000,153.000000,1.000000,13.000000,0.000000,0.000000,0.000000,0.200361,0.270847,0.008398,0.109179,0.000000,153.000000,1.000000,13.000000,0.000000,0.000000,0.000000:
0000
0000
0000
0000
,
0000
0000
0000
0000
,
0000
0000
0000
0000
,
0000
0000
0000
0000
,
0000
0000
0000
0000
,
1000
0000
0001
0000
,
1000
0000
0001
0000
,
0100
0000
1000
0000
,
0010
0000
0001
0100
,
0001
0010
0001
0000
,
1000
0010
1000
0000
,
0001
0100
0001
0100
,
1000
0100
1000
0000
,
0010
1000
0001
0000
,
0010
0001
1000
0000
,
1000
0100
0001
0100
,
1000
0000
0010
0000
,
1000
1000
0100
0000
,
0001
0001
0010
0000
,
1000
0001
1000
0000
,
0100
0010
0100
0000
,
1000
0001
0100
0000
,
0001
1000
0100
0000
,
0010
0010
0100
0100
,
1000
0001
1000
0001
,
0200
0010
0010
0000
,
0302
1000
1000
0000
,
2003
0100
0100
0000
,
3002
0010
0010
0000
,
2003
3200
0320
0000
,
0032
2003
3020
0230
,
2300
0010
0000
0010
,
0000
0010
0000
0010
,
3002
0010
0000
0010
,
0000
0010
0000
0013
,
1000
0100
0010
0001
,
1000
0100
0010
0001
,
1001
0000
1000
0100
,
0010
0000
0001
0010
,
0100
0000
1000
0100
,
0001
0000
0001
0100
,
1000
1000
0100
0000
,
0001
0001
0100
0000
,
1000
1000
0010
0000
,
0001
0001
0010
0000
,
1000
0100
0010
0100
,
1000
0100
0010
0000
,
0001
0010
0100
0010
,
0001
0010
0100
0000
,
1000
0100
0001
0100
,
1000
0100
0001
0000
,
0001
0010
1000
0010
,
0001
0010
1000
0000
,
1000
0100
0010
0001
;

//---------------dance-single - ----------------
#NOTES:
     dance-single:
     :
     Medium:
     8:
     0.307140,0.271477,0.201560,0.050390,0.000000,226.000000,24.000000,6.000000,0.000000,0.000000,0.000000,0.307140,0.271477,0.201560,0.050390,0.000000,226.000000,24.000000,6.000000,0.000000,0.000000,0.000000:
0000
0000
0000
0000
,
0000
0000
0000
0000
,
0000
0000
0000
0000
,
0000
0000
0000
0000
,
0000
0000
0000
0000
,
0000
1000
0000
0100
0000
1000
0000
1100
,
0000
0001
0000
0010
0000
0001
0000
0011
,
0000
0100
0000
0010
0000
0100
0000
0110
,
0000
0001
0000
1000
0000
0001
0000
1001
,
0000
1000
0000
0100
0000
0010
0000
0001
,
0000
1000
0000
0010
0000
0100
0000
0001
,
0000
0001
0000
0100
0000
0010
0000
1000
,
0000
0001
0000
0010
0000
0100
0000
1000
,
0100
1000
0000
0010
0000
0100
0000
0001
,
0010
0001
0000
0100
0000
0010
0000
1000
,
0010
1000
0000
0001
0000
1000
0000
0001
,
0100
0001
0000
1000
0000
0001
0000
1000
,
0100
0010
0100
1100
,
0010
0100
0010
0011
,
0001
1000
0100
1100
,
1000
0010
0100
0011
,
0001
0001
0100
1100
,
1000
1000
0100
0101
,
0001
0001
0010
1010
,
1000
1000
0010
0011
,
0001
0000
0001
0000
0100
0000
1000
0100
,
0010
1001
0110
0001
,
1000
0000
0010
0000
0010
0000
0001
0010
,
0100
0000
1001
0000
0110
0000
1000
0100
,
1000
0000
0010
0000
0010
0000
0001
0100
,
0001
0000
0010
0000
0010
0000
1000
0100
,
0001
0001
0100
0100
,
1000
0100
1000
0000
0100
0001
0100
0000
,
0001
0001
1000
0100
,
0001
0010
0001
0000
1000
0010
1000
0000
,
0010
1000
0100
0000
0010
0100
0001
0000
,
0001
0010
0100
1000
0010
0000
0010
0000
,
1001
0000
0001
0000
0001
0000
1000
0100
,
0010
0000
1001
0000
0010
0000
0001
0100
,
0010
0000
1001
0000
0100
0000
0010
1000
,
0200
0010
0310
0001
,
2001
0000
0010
0000
3010
0000
1000
0010
,
0002
0000
0100
0000
0103
0000
0010
1000
,
0100
0000
0010
0100
0001
0000
1100
0000
,
0210
0010
0010
0310
,
0001
0100
0001
0010
,
0001
0100
0001
0000
0010
0000
1000
0000
,
0010
0100
0010
1000
,
0010
0100
0010
0000
1000
0000
0010
0100
,
1000
0000
1100
0000
0010
0000
1000
0100
,
0010
0000
0011
0000
0001
0000
0001
0100
,
1000
0000
2000
0010
,
3010
0000
0002
0010
,
0013
0010
0100
0100
0010
0010
0100
0100
;

//---------------dance-single - ----------------
#NOTES:
     dance-single:
     :
     Hard:
     11:
     0.435514,0.543583,0.100780,0.033593,0.180565,347.000000,12.000000,4.000000,0.000000,0.000000,0.000000,0.435514,0.543583,0.100780,0.033593,0.180565,347.000000,12.000000,4.000000,0.000000,0.000000,0.000000:
// measure 0
0000
0000
0000
0000
,  // measure 1
0000
0000
0000
0000
,  // measure 2
0000
0000
0000
0000
,  // measure 3
0000
0000
0000
0000
,  // measure 4
0000
0000
0000
0000
,  // measure 5
0000
1000
0000
1100
0000
0010
0100
0010
,  // measure 6
0000
0001
0000
0011
0000
0100
0010
0100
,  // measure 7
0000
1000
0000
1001
0000
0010
0100
0010
,  // measure 8
0000
0001
0000
1001
0000
0010
0100
0010
,  // measure 9
0100
1000
0010
0000
0100
0010
0100
0000
,  // measure 10
0001
0100
0010
0000
0010
0100
0010
0000
,  // measure 11
1000
0100
0010
0000
0001
0010
0100
0000
,  // measure 12
1000
0100
0001
0100
1000
0100
0001
0100
,  // measure 13
1000
0010
1000
0000
0001
0100
0001
0000
,  // measure 14
0100
1000
0010
0000
0100
0001
0010
0000
,  // measure 15
0001
0010
0100
1000
0010
0100
0001
0000
,  // measure 16
1000
0100
0010
0001
1000
0010
0100
0000
,  // measure 17
0000
1000
0100
0010
0100
0001
0010
0000
,  // measure 18
0000
0001
0100
0010
1000
0100
0010
0000
,  // measure 19
0000
0001
1000
0010
1000
0100
0010
0100
,  // measure 20
0000
0001
0000
0001
0010
0100
1000
0001
,  // measure 21
0000
1000
0100
0010
0100
0001
0010
0100
,  // measure 22
0000
0000
0001
0000
0100
0000
1000
0000
0100
0010
0100
0000
0010
0000
0100
0000
,  // measure 23
0000
0000
0001
0000
0010
0000
0100
0000
1000
0000
0100
0000
1000
0100
1000
0000
,  // measure 24
0010
0000
0100
0000
0001
0000
1000
0000
0010
0000
0100
0000
0001
0010
0001
0000
,  // measure 25
0020
0000
0000
0000
0130
0000
0000
0100
0010
0000
0000
0010
0001
0000
0010
0000
,  // measure 26
0100
1000
0010
0100
1001
0000
0010
1000
,  // measure 27
0200
0000
0000
0000
0310
0000
0000
0010
0100
0000
0000
0100
1000
0000
0010
0000
,  // measure 28
0100
1000
0010
0001
1001
0000
0010
1000
,  // measure 29
0200
0000
1000
0000
1300
0000
0010
0100
,  // measure 30
0020
0000
0001
0000
0031
0000
0001
0010
,  // measure 31
0100
1000
0010
0000
0010
0100
0001
0000
,  // measure 32
0001
0100
1000
0010
0100
0001
0010
0000
,  // measure 33
1000
0010
0100
0000
0001
0100
0010
0000
,  // measure 34
1000
0010
0100
0001
0010
0100
1000
0001
,  // measure 35
0000
1000
0100
1000
0100
0010
0100
0010
,  // measure 36
0001
0000
0010
0000
0001
0000
0010
0000
1000
0001
1000
0001
1000
0001
0100
0000
,  // measure 37
0010
0000
0000
0000
0100
0000
0000
0010
0100
0000
0000
0100
0010
0000
0001
0000
,  // measure 38
0010
0100
1000
0010
0001
0000
1001
0010
,  // measure 39
0100
0001
1000
0100
1000
0000
1000
0010
,  // measure 40
0100
0000
1000
0000
0101
0000
0010
0010
,  // measure 41
0100
0000
0000
0000
0001
0000
0000
0001
1000
0000
0000
1000
0001
0000
0010
0000
,  // measure 42
1000
0100
0010
0100
0001
0000
0010
0100
,  // measure 43
1001
0010
1000
0100
0010
0000
0010
1000
,  // measure 44
1100
0010
1000
0010
0001
0100
0001
0100
,  // measure 45
0001
0000
0000
0001
0100
0000
0000
0100
1000
0000
0000
1000
0100
0000
0000
0100
,  // measure 46
0010
0000
0000
0010
0100
0000
0000
0100
0001
0000
0000
0001
0010
0000
0100
0000
,  // measure 47
1001
0000
0000
1000
0100
0000
0000
0100
0010
0000
0000
0010
0100
0000
0000
0100
,  // measure 48
0001
0000
0000
0001
0100
0000
0000
0100
1000
0000
0000
1000
0100
0000
0010
0000
,  // measure 49
1001
0000
0000
0001
1000
0000
0000
1000
0001
0000
0000
0001
0100
0000
0000
0100
,  // measure 50
0001
0000
0000
0001
0010
0000
0000
0010
0100
0000
0000
0100
1000
0000
0100
0000
,  // measure 51
1000
0100
1000
0100
0010
0100
0010
0100
,  // measure 52
0001
0010
0001
0010
1000
0001
1000
0001
,  // measure 53
0100
0010
0100
0010
0100
0010
0100
0010
0100
0010
0100
0010
0100
0010
0100
0010
;

//---------------dance-single - ----------------
#NOTES:
     dance-single:
     :
     Beginner:
     2:
     0.079184,0.089023,0.008398,0.000000,0.000000,65.000000,1.000000,0.000000,0.000000,0.000000,0.000000,0.079184,0.089023,0.008398,0.000000,0.000000,65.000000,1.000000,0.000000,0.000000,0.000000,0.000000:
0000
0000
0000
0000
,
0000
0000
0000
0000
,
0000
0000
0000
0000
,
0000
0000
0000
0000
,
0000
0000
0000
0000
,
1000
0000
0000
0000
,
0001
0000
0000
0000
,
1000
0000
0000
0000
,
0001
0000
0000
0000
,
0100
0000
0100
0000
,
0100
0000
0000
0000
,
0010
0000
0010
0000
,
0010
0000
0000
0000
,
1000
0000
0001
0000
,
1000
0000
0000
0000
,
0100
0000
0010
0000
,
0100
0000
0000
0000
,
1000
0000
1000
0000
,
0100
0000
0000
0000
,
0001
0000
0001
0000
,
0100
0000
0000
0000
,
1000
0000
1000
0000
,
0010
0000
0000
0000
,
0001
0000
0001
0000
,
0010
0000
0000
0000
,
0100
0000
0000
0000
,
0100
0000
0000
0000
,
0010
0000
0000
0000
,
0010
0000
0000
0000
,
0001
0000
0000
0000
,
0001
0000
0000
0000
,
1000
0000
0000
0000
,
1000
0000
0000
0000
,
0100
0000
0010
0000
,
0100
0000
0010
0000
,
1000
0000
1000
0000
,
0001
0000
0001
0000
,
0100
0000
0000
0000
,
0010
0000
0000
0000
,
0100
0000
0000
0000
,
0010
0000
0000
0000
,
1000
0000
0000
0000
,
0001
0000
0000
0000
,
1000
0000
0000
0000
,
0001
0000
0000
0000
,
0100
0000
1000
0000
,
0100
0000
0000
0000
,
0100
0000
0001
0000
,
0100
0000
0000
0000
,
0010
0000
1000
0000
,
0010
0000
0000
0000
,
0010
0000
0001
0000
,
0010
0000
0000
0000
,
0110
0000
0000
0000
;
