#TITLE:Jack-the-Ripperâ—†;
#SUBTITLE:;
#ARTIST:sasakure.UK;
#TITLETRANSLIT:;
#SUBTITLETRANSLIT:;
#ARTISTTRANSLIT:;
#GENRE:BMS;
#CREDIT:;
#BANNER:;
#BACKGROUND:;
#LYRICSPATH:;
#CDTITLE:;
#MUSIC:Jack-the-Ripper (DDR Edit).ogg;
#OFFSET:-0.349000;
#SAMPLESTART:86.958626;
#SAMPLELENGTH:15.000000;
#SELECTABLE:YES;
#DISPLAYBPM:210.000000:240.000000;
#BPMS:0.000000=210.000000
,172.000000=228.000000
,230.000000=215.000000
,237.000000=240.000000
,301.000000=238.399994
,312.000000=240.000000
,426.000000=210.000000
;
#STOPS:
;
#BGCHANGES:;
#KEYSOUNDS:;
#ATTACKS:;

//---------------dance-single - ----------------
#NOTES:
     dance-single:
     :
     Beginner:
     5:
     0.164689,0.313268,0.064444,0.365180,0.000000,161.000000,152.000000,9.000000,51.000000,0.000000,0.000000,0.164689,0.313268,0.064444,0.365180,0.000000,161.000000,152.000000,9.000000,51.000000,0.000000,0.000000:
// measure 0
0000
0000
0000
0000
,  // measure 1
0000
0000
0000
0000
,  // measure 2
0000
0000
0000
0000
,  // measure 3
0000
0000
0000
0000
,  // measure 4
0000
0000
0000
0000
,  // measure 5
0000
0000
0000
0000
,  // measure 6
0000
1000
0000
0000
,  // measure 7
0000
0000
0100
0000
,  // measure 8
0000
0000
0000
0001
,  // measure 9
0000
0000
0000
0000
,  // measure 10
0010
0000
0010
0000
,  // measure 11
0010
0000
2000
0000
,  // measure 12
0000
0000
0000
0000
,  // measure 13
3001
0000
0000
0100
,  // measure 14
0000
0000
1000
0000
,  // measure 15
0000
0100
0000
0000
,  // measure 16
0001
0000
0000
0010
,  // measure 17
0000
0000
1000
0000
,  // measure 18
0000
0010
0000
0000
,  // measure 19
0001
0000
0000
1000
,  // measure 20
0000
0000
0001
0000
,  // measure 21
0000
1000
0000
0000
,  // measure 22
0010
0000
0000
0100
,  // measure 23
0000
0000
0010
0000
,  // measure 24
0000
0100
0000
0000
,  // measure 25
2000
0000
0000
3001
,  // measure 26
0000
0000
0002
0000
,  // measure 27
0000
1003
0000
0000
,  // measure 28
0200
0000
0000
0310
,  // measure 29
0000
0000
0000
0000
0020
0000
0000
0230
,  // measure 30
0000
0000
0000
0000
,  // measure 31
0000
0320
0000
0000
0000
0000
0000
0000
,  // measure 32
0000
0000
0000
2030
0000
0000
0000
0000
,  // measure 33
0000
0000
0000
0000
0000
3002
0000
0000
,  // measure 34
0000
2003
0000
0000
0000
3020
0000
0000
,  // measure 35
0000
0230
0000
0000
0000
0000
0000
0000
,  // measure 36
0000
0000
0000
0320
0000
0000
0000
0000
,  // measure 37
0000
0000
0000
0000
0000
2030
0000
0000
,  // measure 38
0000
0000
0000
0000
0000
0000
0000
3002
,  // measure 39
0000
0000
0000
2003
0000
0000
0000
3020
,  // measure 40
0000
0000
0000
0230
0000
0000
0000
0000
,  // measure 41
0000
0000
0000
0000
0000
0000
0000
0320
,  // measure 42
0000
0000
0000
0030
,  // measure 43
1000
0000
0000
0001
,  // measure 44
0000
1000
0000
0000
,  // measure 45
0010
0000
0100
0000
,  // measure 46
0000
0010
0000
1000
,  // measure 47
0000
0000
0010
0000
,  // measure 48
0001
0000
0000
0100
,  // measure 49
0000
1000
0000
0000
,  // measure 50
0100
0000
0001
0000
,  // measure 51
0000
0010
0000
1000
,  // measure 52
0000
0000
0001
0000
,  // measure 53
1000
0000
0000
0100
,  // measure 54
0000
0000
0010
0000
,  // measure 55
0000
0001
0000
0000
,  // measure 56
0001
0000
0010
0000
,  // measure 57
0100
0000
2000
0000
,  // measure 58
0000
0000
0000
0000
,  // measure 59
0000
3002
0000
0000
,  // measure 60
0000
0000
0000
0000
,  // measure 61
0000
0023
0000
0000
,  // measure 62
0000
0000
0000
0000
,  // measure 63
0000
0230
0000
0000
,  // measure 64
0000
0010
0000
0010
,  // measure 65
0000
2300
0000
0000
,  // measure 66
0000
0001
0000
3001
,  // measure 67
0000
0001
0000
0100
,  // measure 68
0000
1000
0000
1001
,  // measure 69
0000
1000
0000
0010
,  // measure 70
0000
0001
0000
1001
,  // measure 71
0000
0100
0000
1000
,  // measure 72
0000
0010
0000
0110
,  // measure 73
0000
0010
0000
0001
,  // measure 74
0000
0100
0000
0110
,  // measure 75
0000
2000
0000
0000
,  // measure 76
0000
0000
0000
0000
,  // measure 77
0000
0000
0000
0000
,  // measure 78
0002
0000
0000
0000
,  // measure 79
3003
0000
0001
0000
,  // measure 80
0000
0100
0000
0000
,  // measure 81
1000
0000
0000
0100
,  // measure 82
0000
0000
0010
0000
,  // measure 83
0000
0001
0000
0000
,  // measure 84
0010
0000
0000
1000
,  // measure 85
0000
0000
1001
0000
,  // measure 86
0000
0100
0000
0000
,  // measure 87
0010
0000
0000
0001
,  // measure 88
0000
0000
0010
0000
,  // measure 89
0000
0110
0000
0000
,  // measure 90
1000
0000
0000
1001
,  // measure 91
0000
0000
0100
0000
,  // measure 92
0000
1000
0000
0000
,  // measure 93
0010
0000
0000
0010
,  // measure 94
0000
0000
0001
0000
,  // measure 95
0000
0100
0000
0000
,  // measure 96
0010
0000
0000
0010
,  // measure 97
0000
0000
1000
0000
,  // measure 98
0000
0001
0000
0000
,  // measure 99
0200
0000
0000
0310
,  // measure 100
0000
0000
0001
0000
,  // measure 101
0000
1000
0000
0000
,  // measure 102
0020
0000
0000
0130
,  // measure 103
0000
0000
2002
0000
,  // measure 104
0000
0000
0000
0000
,  // measure 105
3003
0000
0000
0000
,  // measure 106
0000
0000
0200
0000
,  // measure 107
0000
0000
0000
0000
,  // measure 108
0310
0000
0000
2000
,  // measure 109
0000
3002
0000
0000
0000
0000
0000
0000
,  // measure 110
0000
0000
0000
2003
0000
0000
0000
0000
,  // measure 111
0000
0000
0000
0000
0000
3020
0000
0000
,  // measure 112
0000
0000
0000
0000
0000
0000
0000
0230
,  // measure 113
0000
0000
0000
0302
0000
0000
0000
2003
,  // measure 114
0000
0000
0000
3020
0000
0000
0000
0000
,  // measure 115
0000
0100
0000
0000
0000
0230
0000
0000
,  // measure 116
0000
0000
0000
0001
0000
0000
0000
0302
,  // measure 117
0000
0000
0000
0000
0000
1000
0000
0000
,  // measure 118
0003
2000
0000
0000
0000
3200
0000
0000
,  // measure 119
0000
0320
0000
0000
0000
0032
0000
0000
,  // measure 120
0000
0000
0000
0000
0000
0003
2000
0000
,  // measure 121
0000
0000
0000
3200
,  // measure 122
0300
0020
0030
2000
,  // measure 123
3000
0001
2002
0000
,  // measure 124
0000
0000
0000
0000
,  // measure 125
3003
0000
0000
0000
;

//---------------dance-single - ----------------
#NOTES:
     dance-single:
     :
     Easy:
     8:
     0.415303,0.537030,0.157529,0.286416,0.000000,406.000000,384.000000,22.000000,40.000000,0.000000,0.000000,0.415303,0.537030,0.157529,0.286416,0.000000,406.000000,384.000000,22.000000,40.000000,0.000000,0.000000:
0000
0000
0000
0000
,
0000
0000
0000
0000
,
0000
0000
0000
0000
,
0000
0000
0000
0000
,
0000
0000
0000
0000
,
0000
0000
0000
0000
,
0000
2000
0000
0000
,
0000
0100
0000
0000
3200
0000
0000
0000
,
0000
0000
0000
0001
0000
0000
0302
0000
,
0000
0000
0000
0000
0000
1000
0000
0000
,
2003
0000
3020
0000
,
0230
0000
0000
0000
0301
0000
0000
0001
,
0000
0000
1000
0000
0000
1000
0000
0000
,
0100
1000
0010
0001
,
0000
0001
0100
0000
,
1000
0100
0000
0001
,
0010
0100
1000
0010
,
0000
1000
0010
0000
,
0001
0010
0000
0100
,
1000
0001
0010
1000
,
0100
0001
1000
0000
,
0001
1000
0000
0010
,
0100
0001
0100
0010
,
1000
0100
0001
0000
,
0001
1000
0000
0010
,
0100
1000
0100
0010
,
0001
0010
1000
0001
,
1000
0010
0100
0010
,
0001
0100
0010
1000
,
0010
0000
0100
0000
0001
0000
1000
0002
,
0000
0000
0000
1000
,
0000
2003
0000
0000
0000
0000
0000
0000
,
0010
0000
0000
3020
0000
0000
0000
0000
,
0000
0000
0100
0000
0000
0230
0000
0000
,
0000
0302
0000
0000
0000
2003
0000
0000
,
0000
3020
0000
0000
0000
0000
0000
0000
,
1000
0000
0000
2030
0000
0000
0000
0000
,
0000
0000
0100
0000
0000
3200
0000
0000
,
0000
0000
0000
0000
0001
0000
0000
0302
,
0000
0000
0000
0203
0000
0000
0000
2300
,
0000
0000
0000
3010
0000
0000
0010
0000
,
0000
0100
0000
0000
0100
0000
0000
0011
,
0000
0000
0011
0000
0000
1100
0000
0000
,
1001
0100
1000
0010
,
0100
0010
0000
0001
,
1000
0001
0010
1000
,
0100
0001
1000
0002
,
0000
0013
2000
0000
,
3001
0010
0100
0110
,
0100
2000
0000
3010
,
0001
0010
0001
0100
,
1000
1001
0001
2000
,
0000
3001
1001
0000
,
0100
1000
0010
0010
,
0001
0100
1000
0010
,
0100
0001
0100
0010
,
1000
0001
0100
0001
,
1000
0010
1000
0001
,
0100
0010
1000
0100
,
0010
0002
0000
0013
,
0000
2000
0000
3100
,
0000
0020
0000
0130
,
0000
2000
0000
3001
,
0000
1002
0000
0103
,
0000
2001
0000
3010
,
0000
0000
0001
0000
0000
0010
0000
0000
,
0100
0000
1000
0000
0000
0100
0000
0000
,
0010
0001
0100
0001
,
0100
1000
0100
1000
,
0100
1000
0010
1000
,
0010
0001
0010
0001
,
0010
0001
0100
0010
,
0000
1000
0010
0100
,
0000
0001
0100
1000
,
0010
0001
1000
0010
,
0100
2002
0000
0000
,
0000
0000
0000
0000
,
0000
0000
3003
0000
,
0220
0000
0000
0000
,
0030
0000
0310
0001
,
0010
0100
1000
0100
,
0010
0100
0001
0100
,
0010
1000
0001
0100
,
0010
1000
0010
0100
,
0001
0100
1000
1000
,
0010
0001
0001
1000
,
0010
1000
0001
0100
,
1000
0010
0100
0001
,
0100
0010
1000
0001
,
0100
0001
1000
0010
,
0100
0001
0000
0100
0001
0000
0010
1000
,
0000
0010
1000
0000
0010
0000
1000
0000
,
0001
1001
0010
1000
,
0100
0001
0010
0110
,
0001
0100
0010
1000
,
0100
1001
0010
0100
,
0010
1000
0010
0110
,
0001
0010
0100
1000
,
0010
1010
0010
1000
,
0010
0100
0001
0101
,
0001
0100
1000
0010
,
0001
1001
0010
0100
,
0001
1000
0010
0110
,
0001
0000
0100
0000
2000
0000
0000
0010
,
0000
0000
0010
0000
0000
3010
0000
0000
,
0002
0000
0000
0100
0000
0000
0100
0000
,
0000
0103
0000
0000
0200
0000
0000
0000
,
0000
0320
0000
0000
,
2030
0000
0000
3002
,
1003
0010
0100
0000
0001
0100
0000
0010
,
0000
1000
0000
0010
1000
0000
0001
0100
,
0000
0010
0000
1000
0000
0001
1000
0000
,
0100
0010
0000
0001
0000
0100
0000
1000
,
0000
0100
0000
0010
0000
0001
0000
0100
,
0000
1001
0000
0010
0100
0000
0001
1000
,
0000
0010
0000
1000
0000
0001
0010
0000
,
0100
1000
0000
0010
0000
1000
0000
0010
,
1000
0000
0001
0100
0000
0010
0000
1000
,
0000
0001
0000
1000
0000
0010
0000
0100
,
0000
0001
0000
1001
0000
0100
1000
0000
,
0100
1000
0000
0100
0001
0000
0100
0001
,
0000
0010
1000
0000
0010
0001
1000
0000
,
0010
0001
0100
0010
,
1000
0001
2002
0000
,
0000
0000
0000
0000
,
3003
0000
0000
0000
;

//---------------dance-single - ----------------
#NOTES:
     dance-single:
     :
     Medium:
     11:
     0.543167,0.760793,0.150368,0.150368,0.017901,531.000000,510.000000,21.000000,21.000000,0.000000,0.000000,0.543167,0.760793,0.150368,0.150368,0.017901,531.000000,510.000000,21.000000,21.000000,0.000000,0.000000:
0000
0000
0000
0000
,
0000
0000
0000
0000
,
0000
0000
0000
0000
,
0000
0000
0000
0000
,
0000
0000
0000
0000
,
0000
0000
0000
0000
,
0000
0000
1000
0100
1000
0100
1000
0000
,
0100
0000
0010
0000
0001
0010
0001
0010
,
0001
0000
1000
0000
0100
0000
0010
0100
,
0010
0100
0010
0000
1000
0000
0001
0000
,
1000
0100
0000
1000
0100
0000
0001
0010
,
0000
0001
0010
0000
1000
0001
0000
1000
,
0001
0000
0100
0010
0000
0100
0010
0000
,
0001
0100
1000
0010
,
0001
1000
2001
3000
,
0010
0210
0301
0100
,
1000
0010
0001
1000
,
0100
1000
0201
0300
,
0001
1200
0300
0010
,
1000
0001
0010
0100
,
1000
0010
2010
3000
,
0001
0012
1003
0001
,
0010
0001
0100
0010
,
1000
0100
0002
0000
,
1003
0200
0000
0310
,
0001
0100
1000
1000
,
0100
0001
0001
0010
,
1000
1000
0010
0001
,
1000
0010
0100
0001
,
0100
0000
0010
0000
1000
0000
0001
1000
,
0001
1000
0001
1000
0000
0100
0000
0010
,
0000
0100
0010
0100
0010
0100
0000
1000
,
0000
0001
0000
1000
0001
1000
0001
1000
,
0000
0010
0000
0100
0000
0001
0100
0000
,
0001
0100
0000
1000
0100
0000
1000
0100
,
0000
0001
1000
0001
1000
0001
0000
0100
,
0000
0010
0000
0100
0010
0100
0010
0100
,
0000
0001
0000
0010
0000
1000
0100
1000
,
0100
1000
0000
0010
0000
0100
0000
0001
,
0010
0000
0001
0010
0000
1000
0100
0000
,
1000
0100
0000
0001
1000
0000
0001
1000
,
0000
0010
0100
0000
0010
0100
0000
0001
,
1000
0000
0010
0100
0000
0001
1000
0000
,
1001
1000
0100
0001
,
0100
1000
0010
1000
,
0001
1000
0010
0100
,
0001
0010
0100
1000
,
0100
0001
1001
0100
,
0010
0010
1000
0001
,
0100
0010
1000
0100
,
0001
0010
0110
0001
,
0100
1000
0010
1001
,
0010
0100
1000
0010
,
0001
0100
1000
1000
,
0100
0001
0001
0010
,
1000
1000
0010
0001
,
0010
0100
0001
0100
,
0010
1000
0001
1000
,
0001
0000
0000
0000
0000
0000
0000
0000
0000
0010
0000
0000
0000
0000
0000
0000
0000
0000
0100
0000
0000
0000
0000
0000
0000
0000
0000
1000
0000
0000
0000
0000
0000
0000
0000
0000
0001
0000
0000
0000
0000
0000
0000
0000
1000
0000
0000
0000
,
0000
0010
0000
0200
0000
0000
0000
0000
0000
2300
0000
0000
,
0000
0000
0000
0000
0001
0000
0000
0001
,
0000
0000
3002
0000
0000
1000
0000
0000
,
1003
0000
0200
0000
0000
0010
0000
0000
,
0310
0002
0000
2003
,
0000
0000
0000
0000
0001
0000
0000
0001
,
0000
0000
3002
0000
0000
1000
0000
0000
,
0203
0000
0000
0000
0010
0000
0000
0000
0000
0000
0010
0000
0000
0000
0000
0310
,
0000
0110
0100
1000
,
0100
0001
0100
1000
,
1001
1000
0010
0001
,
0010
1000
0010
0001
,
1001
0001
0100
1000
,
0010
0001
0100
0010
,
1000
0110
0001
0100
,
1000
0010
0100
0001
,
1000
2002
0000
0000
,
0000
0000
0000
0000
,
0000
0000
3003
0000
,
0100
0010
0100
0010
0100
0010
0100
0010
,
0100
0010
0100
0000
0110
0000
1000
0000
,
0100
0000
0010
0000
0100
0000
0001
1000
,
0001
1000
0010
0100
,
0001
1000
0010
1000
,
0100
0000
0001
0000
0010
0000
0100
0010
,
0100
0001
0100
1000
,
0010
0001
1000
0010
,
1000
0000
0100
0000
0010
0000
0001
1000
,
0001
0010
1000
0100
,
0010
0001
0100
0010
,
1000
0000
0100
0000
0001
0000
0010
0100
,
0010
0100
0001
1000
,
0010
1001
0100
1000
,
0010
0000
0100
0000
0001
0000
0010
1000
,
0001
0100
0010
1000
,
0100
0001
0010
1000
,
0100
0000
0010
0000
0001
0000
1000
0001
,
0100
0010
1000
0001
,
0010
0100
1000
0001
,
0100
0000
0010
0000
1000
0000
0010
0100
,
0001
1000
0010
1000
,
0001
0100
0010
1000
,
0100
0000
0010
0000
0001
0000
0100
0010
,
1000
0001
0100
0010
,
1000
0000
0100
0000
0001
0000
1000
0001
,
0000
1000
0001
0000
0100
0010
0000
0100
,
0020
0000
0000
0100
0000
0000
0100
0000
,
0000
0130
0000
0000
0001
0000
0000
0000
,
1000
0001
0100
0010
,
1000
0000
0001
1001
,
0110
0000
0001
0100
0000
1000
0000
0100
,
0000
0010
0000
0001
0100
0010
0000
1000
,
0000
0100
0000
0010
0000
1000
0010
0100
,
0000
0001
0000
0100
0000
0010
0000
1000
,
0001
0100
0000
0010
1000
0001
0000
0010
,
0100
1000
0000
0001
0100
0010
0100
0001
,
0000
0100
0000
0010
0000
1000
0010
0100
,
0010
1000
0000
0001
0000
0100
0000
1000
,
0001
0100
0010
1000
0000
0001
0000
0100
,
0000
0001
0100
0001
0100
0001
0000
1000
,
0100
1000
0100
1000
0000
0001
1000
0000
,
1000
0001
0000
0010
0100
0000
0100
0010
,
0000
0001
1001
0000
1000
1001
0000
0001
,
1000
0010
0100
0001
0010
1000
0100
1000
,
0100
0010
0100
0002
2000
0000
0000
0000
,
0000
0000
0000
0000
,
3003
0000
0000
0000
;

//---------------dance-single - ----------------
#NOTES:
     dance-single:
     :
     Hard:
     14:
     0.811171,0.984555,0.558511,0.085925,0.046543,793.000000,715.000000,78.000000,12.000000,0.000000,0.000000,0.811171,0.984555,0.558511,0.085925,0.046543,793.000000,715.000000,78.000000,12.000000,0.000000,0.000000:
0000
0000
0000
0000
,
0000
0000
0000
0000
,
0000
0000
0000
0000
,
0000
0000
0000
0000
,
0000
0000
0000
0000
,
0000
0000
0000
0000
,
0000
0000
1000
0100
0010
0001
1000
0010
,
0100
0001
0010
0100
0001
0010
0100
1000
,
0001
0100
0010
1000
0100
0010
1000
0001
,
0100
0010
1000
0001
0100
0010
1000
0100
,
0001
0010
1000
0001
0100
1000
0001
0010
,
1000
0001
0100
1000
0100
0110
0000
1000
,
1001
0000
1000
1010
0000
0001
0101
0000
,
0001
0100
1000
0100
,
0010
0000
0001
0000
0100
0000
1000
0010
,
1000
0000
0010
0000
0001
0100
0001
0000
,
0100
0010
1000
0100
,
0010
0000
0001
0000
0100
0000
1000
0100
,
1000
0000
0010
0000
0001
0010
0001
0000
,
0010
0100
1000
0010
,
1000
0000
0001
0000
0100
0000
0010
0100
,
0010
0000
1000
0000
0001
1000
0001
0000
,
0100
1000
0010
0001
,
0100
0000
1000
0000
0100
0000
0010
0001
,
0010
0000
0100
0000
0100
1000
0100
0000
,
0010
0100
1100
0100
,
0010
0011
0100
0001
,
0101
0010
1000
1010
,
0010
0001
0101
0100
,
1000
0000
1010
0000
0001
0000
1001
0200
,
0000
0310
1000
0001
0010
1000
0001
0010
,
0100
2000
0000
3001
0100
0001
1000
0010
,
0100
0001
0010
0200
0000
1300
0001
1000
,
0010
0100
0001
0010
0100
1000
0001
0100
,
0001
1000
0010
1000
0001
0100
1000
0001
,
0010
0200
0000
1300
0001
0100
0010
1000
,
0100
0001
0010
0200
0000
0310
0100
0001
,
0010
1000
0100
0010
0001
2000
0000
3001
,
0010
0100
1000
0010
0100
0001
0010
0100
,
1000
0001
0010
0001
1000
0100
1000
0001
,
0010
0001
1000
1000
1100
0000
0100
0101
,
0000
0001
0011
0000
0010
1010
0000
1000
,
1001
0000
0001
1001
0000
1000
1001
0000
,
0001
0100
1000
0000
0100
0010
0100
0000
,
0001
0000
0010
0000
0100
0010
1000
0000
,
0001
0100
1000
0000
1001
0000
0010
1000
,
0100
0000
0100
0001
0010
0100
1000
0010
,
1000
0001
0100
0000
1001
0000
1001
0000
,
0010
1000
0100
0010
0001
0100
0010
0100
,
0010
1000
0001
0000
0001
1000
0010
0100
,
0001
0100
0010
0000
0110
0000
0001
0010
,
0100
1000
0010
1000
0100
0010
0001
0000
,
0001
0100
1000
0000
1001
0000
0100
0000
,
0110
1000
0100
0010
0100
0000
0010
0001
,
0010
0100
0010
0000
1000
0010
0100
0001
,
0010
0000
0001
0100
0010
1000
0100
0000
,
1000
0100
0010
0001
1001
0000
0001
0010
,
0100
1000
1001
0000
0110
0000
1001
0000
,
1000
0000
0000
0000
0000
0000
0000
0000
0000
0010
0000
0000
0000
0000
0000
0000
0000
0000
0100
0000
0000
0000
0000
0000
0000
0000
0000
0001
0000
0000
0000
0000
0000
0000
0000
0000
0010
0000
0000
0000
0000
0000
0000
0000
0100
0000
0000
0000
,
0000
1000
0000
1100
0000
0000
0001
0000
0000
1000
0000
0000
,
0001
0000
1000
0000
0010
1000
0100
0000
,
1000
0000
0001
0000
0100
0001
0010
0000
,
1000
0000
0100
0000
0010
0001
1000
0000
,
0001
1001
0010
1000
,
0100
0000
0010
0000
0001
1000
0010
0000
,
0100
0000
1000
0000
0100
0001
0010
0000
,
0001
0000
0000
0000
0110
0000
0000
0000
0000
0000
1100
0000
0000
0000
0000
0011
,
0000
0000
1001
0000
0001
0100
0010
0000
,
0100
0010
1000
0000
0000
1001
0000
0000
,
0010
0000
1001
0000
0001
0100
1000
0000
,
0010
1000
0001
0000
0000
0110
0000
0000
,
0010
0000
0110
0000
0100
0001
1000
0000
,
0010
1000
0001
0000
0000
1001
0000
0000
,
0010
0000
1001
0000
0010
0100
1000
0000
,
0100
0010
0001
0000
0000
1001
0000
0000
,
0010
0200
0000
0000
,
0000
0000
0000
0000
,
0000
0000
0000
0000
,
0301
0010
0100
0010
1000
0100
0010
0100
,
0001
0010
0100
0010
1001
0001
1000
0001
,
1000
0100
0010
0100
0001
0010
0100
1000
,
0010
0000
1000
0001
1000
0000
0110
0000
,
0001
1000
0001
0000
0110
0001
1000
0010
,
1000
0001
0100
1000
0010
0100
0001
0100
,
0010
0000
0001
0100
1000
0000
1001
0000
,
1000
0010
0001
0000
1001
0010
0001
0010
,
0100
1000
0010
1000
0001
0100
0001
0010
,
0100
0000
0001
1000
0010
0000
1001
0000
,
0001
1000
0100
0010
1001
0010
0100
1000
,
0010
1000
0010
0100
1000
0001
0100
0010
,
0100
0101
0000
0010
1010
0000
0010
0011
,
0000
0100
1100
0000
1000
0001
0100
1000
,
0010
0001
0100
0010
0100
0001
1000
0001
,
0100
0000
0001
1000
0001
0000
0100
0000
0001
0000
0010
0000
0100
0000
1000
0000
,
0010
0100
0101
0000
0001
0010
0100
1000
,
0100
0001
0010
0100
1000
0010
0100
0001
,
0100
0000
0010
0100
0010
0000
1000
0000
0010
0000
0100
0000
0001
0000
1000
0000
,
0100
0010
1010
0000
0001
1000
0010
0100
,
0001
0100
1000
0010
0100
0001
1000
0100
,
0010
0000
0001
1000
0001
0000
0100
0000
1000
0000
0100
0000
0010
0000
0001
0000
,
0100
0010
0011
0000
0001
1000
0100
0010
,
0100
1000
0001
0010
0100
1000
0001
0100
,
0010
0000
1000
0001
1000
0000
0100
0000
0010
0000
0100
0000
1000
0000
0001
0000
,
0100
0010
1000
0000
1001
0000
0000
1100
,
0000
0000
0101
0000
0000
1001
0000
0000
,
0010
0100
0000
0010
0100
0000
0010
0100
,
0000
0010
0100
0000
0201
0000
0000
0000
,
1300
1020
0000
0130
,
0210
0000
0301
1001
,
0101
1000
0001
0100
0010
1000
0001
0100
,
1000
0001
0100
0010
0100
0001
0010
0100
,
1000
0010
1000
0100
0010
0001
0010
0100
,
0010
1000
0001
0010
0100
1000
0001
1000
,
0100
0101
1000
0010
0011
1000
0100
0101
,
1000
0010
1001
1000
0010
1000
0100
0010
,
0001
1000
0010
0100
0001
0010
1000
0100
,
0010
0100
0001
0010
1000
0100
0010
0100
,
0001
0010
0001
0100
0010
1000
0001
0100
,
0010
0001
0100
1100
0001
0010
1010
0001
,
0100
1100
0001
0010
1001
1000
1001
0000
,
0001
0101
0000
1000
1010
0000
1000
1001
,
0000
0001
1010
0000
1000
0101
0000
0001
,
1000
0000
0010
1000
0100
0000
0001
0000
0010
0000
0100
0001
1000
0000
0010
0000
,
0100
0000
0001
0010
1000
0000
0010
2000
0002
0000
0000
0000
0000
0000
0000
0000
,
0000
0000
0000
0000
,
3003
0000
0000
0000
;
