#TITLE:JET WORLD (Ryu☆Remix);
#SUBTITLE:;
#ARTIST:泉 陸奥彦 Remixed by Ryu☆;
#TITLETRANSLIT:D;
#SUBTITLETRANSLIT:;
#ARTISTTRANSLIT:Mutsuhiko Izumi Remixed by Ryu;
#GENRE:REFLEC BEAT;
#CREDIT:;
#BANNER:;
#BACKGROUND:;
#LYRICSPATH:;
#CDTITLE:;
#MUSIC:JET WORLD (Ryu Remix).ogg;
#OFFSET:-0.585000;
#SAMPLESTART:32.507027;
#SAMPLELENGTH:15.000000;
#SELECTABLE:YES;
#DISPLAYBPM:165.000000;
#BPMS:0.000000=165.000015
;
#STOPS:
;
#BGCHANGES:;
#KEYSOUNDS:;
#ATTACKS:;

//---------------dance-single - Chewi----------------
#NOTES:
     dance-single:
     :
     Hard:
     14:
     0.697928,0.697149,0.168465,0.287382,0.302247,447.000000,17.000000,29.000000,0.000000,0.000000,0.000000,0.697928,0.697149,0.168465,0.287382,0.302247,447.000000,17.000000,29.000000,0.000000,0.000000,0.000000:
// measure 0
0000
0000
0000
0000
,  // measure 1
0000
0000
0000
0000
,  // measure 2
1000
1000
0010
0010
,  // measure 3
0001
0001
0100
0100
,  // measure 4
1000
0010
0100
0001
0010
0100
1000
0000
,  // measure 5
0010
1000
0100
0001
0010
0100
1000
0000
,  // measure 6
0010
1000
0100
0010
0001
0010
0100
0000
,  // measure 7
0001
0010
1000
0100
0010
1000
0001
0000
,  // measure 8
0010
1000
0100
0010
0100
0001
0002
0000
,  // measure 9
1003
0010
0100
0001
0010
1000
2000
0000
,  // measure 10
3010
0100
0001
0010
1000
0001
0002
0000
,  // measure 11
1003
0010
0100
0001
0010
0100
2000
0000
,  // measure 12
0020
3000
0000
0000
0000
0000
0000
0000
0000
0000
0000
0000
0000
0000
0000
0030
,  // measure 13
0100
0000
0100
0000
0010
0000
0100
0000
0000
0000
0001
0100
0001
0000
0000
0000
,  // measure 14
0010
1000
0000
1000
0100
0000
0100
0001
0000
0001
0010
0000
1000
0000
0001
0000
,  // measure 15
0010
1000
0000
1000
0100
0000
0100
0001
0000
0001
1000
0000
0010
0000
1000
0000
,  // measure 16
0100
0010
0000
0010
0100
0000
0100
1000
0000
1000
0001
0000
0010
0000
1000
0000
,  // measure 17
0001
0000
0000
0000
0001
1000
0001
1000
0001
0000
0000
0000
0110
0000
0000
0000
,  // measure 18
0001
1000
0000
1000
0001
0000
0001
0100
0000
0100
0010
0000
0001
0000
1000
0000
,  // measure 19
0010
1000
0000
1000
0010
0000
0010
0100
0000
0100
0001
0000
0010
0100
0010
0000
,  // measure 20
1000
0001
0000
0001
0100
0000
0100
0010
0000
0010
1000
0000
0001
0000
1000
0000
,  // measure 21
0010
0000
0000
0000
0010
0100
0010
0100
0010
0000
0000
0000
1001
0000
0000
0000
,  // measure 22
1000
0100
0010
0000
0001
0010
0100
0000
,  // measure 23
0010
1000
0100
0010
0100
0001
0010
0000
,  // measure 24
2002
0000
3003
0000
0010
1000
0100
0000
,  // measure 25
0010
0100
0001
0010
0100
1000
0010
0000
,  // measure 26
1000
0100
0010
0100
0001
0010
0100
0000
,  // measure 27
0001
0100
0010
1000
0100
0010
0001
0000
,  // measure 28
0001
0010
0100
1000
0010
0100
0001
0000
,  // measure 29
0010
1000
0100
0010
0100
0001
0010
0000
,  // measure 30
0001
1000
0010
0000
0010
1000
0100
0000
,  // measure 31
0001
0010
0100
1000
0010
0100
0001
0000
,  // measure 32
2002
0000
3003
0000
0010
0010
1000
0000
,  // measure 33
0001
0010
1000
0100
0010
0100
0001
0000
,  // measure 34
0220
0030
0010
0310
,  // measure 35
0001
0000
0010
0000
0100
0000
1000
0010
0000
1000
0010
0000
0001
0000
0100
0000
,  // measure 36
0220
0300
0100
0130
,  // measure 37
0001
0100
0001
0100
0000
0001
0100
0000
0010
1000
0010
1000
0000
0010
1000
0000
,  // measure 38
0010
1000
0100
0001
0010
0100
0001
0010
,  // measure 39
0100
1000
0100
0010
0100
0001
0010
0100
,  // measure 40
1000
0010
1000
0100
0001
0100
0010
0100
,  // measure 41
1000
0010
0100
0001
0010
0100
1000
0010
,  // measure 42
2002
0003
0001
3001
,  // measure 43
2002
3000
1000
1003
,  // measure 44
0010
0000
1000
0000
0010
0000
1000
0010
0000
1000
0010
0000
1000
0000
0010
0000
,  // measure 45
0100
0000
0001
0000
0100
0000
0001
0100
0000
0001
0100
0000
0001
0000
0100
0000
,  // measure 46
0010
0000
0100
0000
0010
0000
0100
0010
0000
0100
0010
0000
0100
0000
0010
0000
,  // measure 47
0001
1000
1001
0220
0000
0000
0330
0000
,  // measure 48
0001
1000
0100
0010
0100
0001
0010
0000
,  // measure 49
0001
0100
0010
1000
0100
0010
0001
0000
,  // measure 50
0001
1000
0010
0100
0010
1000
0100
0000
,  // measure 51
0001
0000
0010
0000
0100
0000
1000
0000
0010
0100
0010
0100
0000
1000
0001
0000
,  // measure 52
2020
0030
0010
3010
,  // measure 53
0001
0000
0010
0000
1000
0000
0010
1000
0000
0001
0100
0000
0010
0000
0100
0000
,  // measure 54
0202
0300
0100
0103
,  // measure 55
0010
1000
0010
1000
0000
0010
1000
0000
0001
0100
0001
0100
0000
0001
0100
0000
,  // measure 56
0001
0100
0001
0100
0001
0100
0001
0100
,  // measure 57
0010
1000
0010
1000
0010
1000
0010
1000
,  // measure 58
0001
0100
1000
0100
0001
0100
1000
0100
,  // measure 59
0001
0010
1000
0010
0001
0010
1000
0010
,  // measure 60
2002
0003
0010
3010
,  // measure 61
2002
3000
0100
0103
,  // measure 62
0010
0000
1000
0000
0100
0000
0010
0100
0000
0010
0100
0000
0001
0000
0010
0000
,  // measure 63
1000
0000
0100
0000
0010
0000
1000
0001
0000
1000
0001
0000
0010
0000
1000
0000
,  // measure 64
0100
0000
0010
0000
0001
0000
0100
0001
0000
0100
0001
0000
0010
0000
0100
0000
,  // measure 65
1000
0010
1001
0110
0000
0000
2002
0000
,  // measure 66
0000
0000
0000
0000
,  // measure 67
3003
0000
0000
0000
;

//---------------dance-single - Chewi----------------
#NOTES:
     dance-single:
     :
     Medium:
     10:
     0.454432,0.531161,0.208104,0.277472,0.079278,272.000000,21.000000,28.000000,0.000000,0.000000,0.000000,0.454432,0.531161,0.208104,0.277472,0.079278,272.000000,21.000000,28.000000,0.000000,0.000000,0.000000:
// measure 0
0000
0000
0000
0000
,  // measure 1
0000
0000
0000
0000
,  // measure 2
1000
0100
1000
0100
,  // measure 3
0010
0001
0010
0001
,  // measure 4
1001
0000
0000
0000
0010
0000
1000
0010
,  // measure 5
0100
0000
0000
0000
0001
0000
0100
0001
,  // measure 6
0010
0000
0000
0000
1000
0000
0010
1000
,  // measure 7
0001
0000
0000
0000
0010
0000
0100
0001
,  // measure 8
1000
0010
1000
0000
0010
0000
0100
0000
,  // measure 9
0001
0100
0001
0000
0010
0000
0100
0000
,  // measure 10
0010
1000
0010
0000
0001
0000
0100
0000
,  // measure 11
0010
1000
0100
0000
1000
0000
0010
0000
,  // measure 12
2002
0000
0000
3003
,  // measure 13
0010
0000
0010
0100
0000
0100
0010
0000
,  // measure 14
0001
0000
0000
0010
0000
0000
0100
0000
0000
1000
0000
0000
0100
0000
0000
0000
,  // measure 15
1000
0000
0000
0100
0000
0000
0010
0000
0000
0001
0000
0000
0010
0000
0000
0000
,  // measure 16
1000
0000
0000
1000
0000
0000
0001
0000
0000
0001
0000
0000
0010
0000
0000
0000
,  // measure 17
0010
1001
0110
1000
,  // measure 18
1000
0000
0000
0100
0000
0000
0010
0000
0000
0001
0000
0000
1000
0000
0000
0000
,  // measure 19
0001
0000
0000
0010
0000
0000
0100
0000
0000
1000
0000
0000
0001
0000
0000
0000
,  // measure 20
0010
0000
0000
0010
0000
0000
0100
0000
0000
0100
0000
0000
0001
0000
0000
0000
,  // measure 21
0010
1000
1001
0110
,  // measure 22
2000
0010
3100
0001
,  // measure 23
0010
0001
0100
1000
,  // measure 24
0002
0100
0013
0010
,  // measure 25
1000
0010
0100
1001
,  // measure 26
0010
1000
0010
1000
0010
0100
0001
0000
,  // measure 27
0010
0100
0010
0100
0001
0100
0010
0000
,  // measure 28
0001
0010
0001
0010
0001
0100
0010
0000
,  // measure 29
1000
0010
0100
0001
,  // measure 30
0002
1000
0100
0013
,  // measure 31
2000
0001
0010
3100
,  // measure 32
0220
0000
0000
0330
,  // measure 33
0001
0010
0100
1000
0010
0100
0001
0000
,  // measure 34
2002
0000
0000
3003
,  // measure 35
1000
0100
0010
0001
,  // measure 36
0220
0000
0000
0330
,  // measure 37
0001
0000
0000
0010
0000
0000
0000
0000
0100
0000
0000
1000
0000
0000
0000
0000
,  // measure 38
0001
0001
0100
0100
,  // measure 39
1000
1000
0010
0010
,  // measure 40
1000
0010
1000
0000
0001
0000
1001
0000
,  // measure 41
0001
0100
0001
0000
1000
0000
1001
0000
,  // measure 42
2002
0000
0000
3003
,  // measure 43
0220
0000
0000
0330
,  // measure 44
0010
1000
0010
1000
0010
1000
0010
1000
,  // measure 45
0001
0100
0001
0100
0001
0100
0001
0100
,  // measure 46
0010
0100
0010
0100
0010
0100
0010
0100
,  // measure 47
0001
0000
0000
0110
0000
0000
0000
0000
,  // measure 48
2000
0010
0100
0010
,  // measure 49
0100
0010
0100
3010
,  // measure 50
0002
0100
0010
0100
,  // measure 51
0010
0100
0010
0103
,  // measure 52
0220
0000
0000
0330
,  // measure 53
0001
0010
0100
1000
,  // measure 54
0220
0000
0000
0330
,  // measure 55
1000
0000
0000
0100
0000
0000
0000
0000
0010
0000
0000
0001
0000
0000
0000
0000
,  // measure 56
0010
1000
0010
0100
,  // measure 57
0001
0100
0010
0100
,  // measure 58
0001
1000
0100
0010
,  // measure 59
0001
0100
0010
1000
,  // measure 60
2002
0000
0000
3003
,  // measure 61
0220
0000
0000
0330
,  // measure 62
1000
0100
1000
0100
1000
0100
1000
0100
,  // measure 63
0010
0100
0010
0100
0010
0100
0010
0100
,  // measure 64
0010
0001
0010
0001
0010
0001
0010
0001
,  // measure 65
0010
0000
0000
0110
0000
0000
2002
0000
,  // measure 66
0000
0000
0000
0000
,  // measure 67
3003
0000
0000
0000
;

//---------------dance-single - Chewi----------------
#NOTES:
     dance-single:
     :
     Easy:
     7:
     0.359581,0.463032,0.257653,0.317111,0.000000,196.000000,26.000000,32.000000,0.000000,0.000000,0.000000,0.359581,0.463032,0.257653,0.317111,0.000000,196.000000,26.000000,32.000000,0.000000,0.000000,0.000000:
// measure 0
0000
0000
0000
0000
,  // measure 1
0000
0000
0000
0000
,  // measure 2
1000
0000
0100
0000
,  // measure 3
0010
0000
0001
0000
,  // measure 4
1001
0000
0000
0001
,  // measure 5
1001
0000
0000
1000
,  // measure 6
1001
0000
0000
0001
,  // measure 7
1001
0000
0000
1000
,  // measure 8
0110
0000
0000
0001
,  // measure 9
0110
0000
0000
1000
,  // measure 10
0110
0000
0000
0001
,  // measure 11
0110
0000
0000
1000
,  // measure 12
2002
0000
0000
3003
,  // measure 13
0010
0010
0100
0000
,  // measure 14
1000
0010
0100
0001
,  // measure 15
1000
0001
0100
0010
,  // measure 16
0001
0100
0010
1000
,  // measure 17
0001
1000
0010
0100
,  // measure 18
1000
0100
0010
0001
,  // measure 19
1000
0010
0100
0001
,  // measure 20
0001
0010
0100
1000
,  // measure 21
0001
0100
0010
1000
,  // measure 22
1001
0000
0110
0000
,  // measure 23
1000
0010
0100
0000
,  // measure 24
1001
0000
0110
0000
,  // measure 25
0001
0100
0010
0000
,  // measure 26
2000
0010
0100
3010
,  // measure 27
0002
0100
0010
0103
,  // measure 28
2000
0010
0100
3010
,  // measure 29
0002
0100
0010
0103
,  // measure 30
0010
1000
0001
0000
,  // measure 31
1000
0001
0100
0000
,  // measure 32
0220
0000
0000
0330
,  // measure 33
0001
0001
1000
0000
,  // measure 34
2000
0010
0010
3010
,  // measure 35
0001
0000
1001
0000
,  // measure 36
0002
0100
0100
0103
,  // measure 37
1000
0000
1001
0000
,  // measure 38
0001
0010
0100
1000
,  // measure 39
1000
0100
0010
0001
,  // measure 40
0100
0010
0100
0010
,  // measure 41
1000
0001
1000
0001
,  // measure 42
0220
0000
0000
0330
,  // measure 43
2002
0000
0000
3003
,  // measure 44
1000
1000
0010
0010
,  // measure 45
0100
0100
0001
0001
,  // measure 46
0100
0100
0010
0010
,  // measure 47
2000
0000
0000
0002
0000
0000
3003
0000
,  // measure 48
0010
0010
0100
0100
,  // measure 49
1000
1000
0001
0001
,  // measure 50
0100
0100
0010
0010
,  // measure 51
1000
1000
0001
0001
,  // measure 52
0220
0000
0000
0330
,  // measure 53
0001
0100
1000
0010
,  // measure 54
2002
0000
0000
3003
,  // measure 55
1000
0010
0100
0001
,  // measure 56
2000
0010
0100
3010
,  // measure 57
0002
0100
0010
0103
,  // measure 58
2000
0010
0100
3010
,  // measure 59
0002
0100
0010
0103
,  // measure 60
2002
0000
0000
3003
,  // measure 61
0220
0000
0000
0330
,  // measure 62
2000
0010
0100
3010
,  // measure 63
0002
0100
0010
0103
,  // measure 64
1000
0010
0100
0001
,  // measure 65
1001
0110
1001
0220
,  // measure 66
0000
0000
0000
0330
;

//---------------dance-single - Chewi----------------
#NOTES:
     dance-single:
     :
     Beginner:
     5:
     0.154309,0.260626,0.307201,0.000000,0.000000,78.000000,31.000000,0.000000,0.000000,0.000000,0.000000,0.154309,0.260626,0.307201,0.000000,0.000000,78.000000,31.000000,0.000000,0.000000,0.000000,0.000000:
// measure 0
0000
0000
0000
0000
,  // measure 1
0000
0000
0000
0000
,  // measure 2
0000
0000
0000
0000
,  // measure 3
0000
0000
0000
0000
,  // measure 4
1001
0000
0000
0000
,  // measure 5
1001
0000
0000
0000
,  // measure 6
1001
0000
0000
0000
,  // measure 7
1001
0000
0000
0000
,  // measure 8
0110
0000
0000
0000
,  // measure 9
0110
0000
0000
0000
,  // measure 10
0110
0000
0000
0000
,  // measure 11
0110
0000
0000
0000
,  // measure 12
1001
0000
0000
0000
,  // measure 13
0000
0000
0000
0000
,  // measure 14
1000
0000
1000
0000
,  // measure 15
0100
0000
0100
0000
,  // measure 16
0010
0000
0010
0000
,  // measure 17
0001
0000
0000
0000
,  // measure 18
0001
0000
0001
0000
,  // measure 19
0010
0000
0010
0000
,  // measure 20
0100
0000
0100
0000
,  // measure 21
1000
0000
0000
0000
,  // measure 22
1001
0000
0000
0000
,  // measure 23
1001
0000
0000
0000
,  // measure 24
0110
0000
0000
0000
,  // measure 25
0110
0000
0000
0000
,  // measure 26
1000
0000
0000
0000
,  // measure 27
0001
0000
0000
0000
,  // measure 28
1000
0000
0000
0000
,  // measure 29
0001
0000
0000
0000
,  // measure 30
1000
0000
0000
0000
,  // measure 31
1001
0000
0000
0000
,  // measure 32
0110
0000
0000
0000
,  // measure 33
0110
0000
0000
0000
,  // measure 34
1001
0000
0000
0000
,  // measure 35
1001
1001
1001
0000
,  // measure 36
0110
0000
0000
0000
,  // measure 37
0110
0110
0110
0000
,  // measure 38
1000
0000
1000
0000
,  // measure 39
1000
0000
1000
0000
,  // measure 40
0001
0000
0001
0000
,  // measure 41
0001
0000
0001
0000
,  // measure 42
0010
0000
0000
0000
,  // measure 43
0100
0000
0000
0000
,  // measure 44
0000
0000
0000
0000
,  // measure 45
0000
0000
0000
0000
,  // measure 46
0000
0000
0000
0000
,  // measure 47
1001
1001
0000
0000
,  // measure 48
0010
0000
0010
0000
,  // measure 49
0010
0000
0010
0000
,  // measure 50
0010
0000
0010
0000
,  // measure 51
0010
0000
0010
0000
,  // measure 52
1001
0000
0000
0000
,  // measure 53
0000
0000
0000
0000
,  // measure 54
0110
0000
0000
0000
,  // measure 55
0000
0000
0000
0000
,  // measure 56
1000
0000
1000
0000
,  // measure 57
1000
0000
1000
0000
,  // measure 58
0001
0000
0001
0000
,  // measure 59
0001
0000
0001
0000
,  // measure 60
0100
0000
0000
0000
,  // measure 61
0010
0000
0000
0000
,  // measure 62
0000
0000
0000
0000
,  // measure 63
0000
0000
0000
0000
,  // measure 64
0000
0000
0000
0000
,  // measure 65
0110
0110
0000
1001
;
