#TITLE:It's my Miracle (Ryu☆Mix);
#SUBTITLE:;
#ARTIST:Another Infinity feat. Mayumi Morinaga;
#TITLETRANSLIT:;
#SUBTITLETRANSLIT:;
#ARTISTTRANSLIT:;
#GENRE:DDR;
#CREDIT:;
#BANNER:;
#BACKGROUND:;
#LYRICSPATH:;
#CDTITLE:;
#MUSIC:It's my Miracle (Ryu Mix).ogg;
#OFFSET:1.265000;
#SAMPLESTART:43.276031;
#SAMPLELENGTH:15.000000;
#LASTBEATHINT:0.504835;
#SELECTABLE:YES;
#DISPLAYBPM:140.000000;
#BPMS:0.000000=140.000000
,68.000000=140.899994
,72.000000=140.000000
;
#STOPS:
;
#BGCHANGES:;
#KEYSOUNDS:;
#ATTACKS:;

//---------------dance-single - ----------------
#NOTES:
     dance-single:
     :
     Easy:
     5:
     0.275229,0.331628,0.142126,0.165814,0.000000,205.000000,18.000000,21.000000,0.000000,0.000000,0.000000,0.275229,0.331628,0.142126,0.165814,0.000000,205.000000,18.000000,21.000000,0.000000,0.000000,0.000000:
0000
0000
0000
0000
,
0000
0000
0000
0000
,
0000
0000
0000
0000
,
0000
0000
0000
0000
,
0000
0000
0000
0000
,
1000
0000
0100
0000
,
1000
0100
0001
0000
,
0001
0000
0010
0000
,
0001
0010
1000
0000
,
0100
1000
0010
0000
,
0010
0100
0001
0000
,
0100
0010
1000
0000
,
0010
0100
0001
0000
,
1000
0100
0001
0000
,
1000
0010
0001
0000
,
0001
0010
1000
0000
,
0001
0100
1000
0000
,
0000
0000
0000
0000
,
1000
0100
1000
0100
,
0001
0100
0001
0100
,
1000
0010
1000
0010
,
0001
0010
0001
0010
,
1000
0100
0020
0030
,
0001
0010
0200
0300
,
0010
1000
0001
0100
,
0220
0000
0330
0000
,
1000
0100
0001
0100
,
0010
0010
0110
0000
,
1000
0100
0001
0100
,
1000
1000
1001
0000
,
1000
0010
0100
0001
,
0110
0110
0110
0000
,
0001
0100
0010
1000
,
1001
1001
1001
0000
,
0020
0000
1030
0000
,
0200
0000
0301
0000
,
0002
0000
0013
0000
,
2000
0000
3100
0000
,
1000
0100
0000
0100
,
0001
0100
0000
0100
,
1000
0100
0000
0100
,
0010
0100
0000
0100
,
0001
0100
1000
0100
,
0010
0100
0010
0100
,
0000
0000
0000
0000
,
0000
0000
0000
0000
,
1000
0100
1000
0100
,
0001
0100
0202
0303
,
0001
0010
0001
0010
,
1000
0010
2020
3030
,
0001
0100
1000
0100
,
0001
1000
0010
0100
,
1000
0010
0001
0010
,
1000
0001
0100
0210
,
0301
0001
0100
0010
,
1000
1000
0010
0100
,
0001
0100
1000
0010
,
1001
1001
2002
3003
,
0001
1000
0010
1000
,
0100
0001
0100
0010
,
1000
0010
0100
0001
,
0110
0110
0220
0330
,
1000
0001
1000
0001
,
0010
0100
0010
0100
,
1000
0100
0010
0001
,
1000
0010
0100
0001
,
0100
0100
0010
0010
,
1000
1000
0001
0001
,
0200
0000
0320
0000
,
2030
0000
0002
0000
,
3003
0000
0000
0000
;

//---------------dance-single - ----------------
#NOTES:
     dance-single:
     :
     Beginner:
     1:
     0.118439,0.165814,0.031584,0.023688,0.000000,98.000000,4.000000,3.000000,0.000000,0.000000,0.000000,0.118439,0.165814,0.031584,0.023688,0.000000,98.000000,4.000000,3.000000,0.000000,0.000000,0.000000:
0000
0000
0000
0000
,
0000
0000
0000
0000
,
0000
0000
0000
0000
,
0000
0000
0000
0000
,
0000
0000
0000
0000
,
1000
0000
0000
0000
,
0001
0000
0000
0000
,
1000
0000
0000
0000
,
0001
0000
0000
0000
,
0010
0000
0000
0000
,
0100
0000
0000
0000
,
0010
0000
0000
0000
,
0100
0000
0000
0000
,
1000
0000
0000
0000
,
0100
0000
0000
0000
,
0010
0000
0000
0000
,
0001
0000
0000
0000
,
0000
0000
0000
0000
,
1000
0000
0100
0000
,
1000
0000
0100
0000
,
1000
0000
0100
0000
,
1000
0000
0000
0000
,
0001
0000
0010
0000
,
0001
0000
0010
0000
,
0001
0000
0010
0000
,
0001
0000
0000
0000
,
0100
0000
0100
0000
,
1000
0000
0001
0000
,
0010
0000
0010
0000
,
0001
0000
1000
0000
,
0100
0000
1000
0000
,
0100
0000
1000
0000
,
0001
0000
0010
0000
,
0001
0000
0010
0000
,
0200
0000
0000
0000
,
0000
0000
0000
0000
,
0300
0000
0000
0000
,
0010
0000
0000
0000
,
0001
0000
0100
0000
,
1000
0000
0000
0000
,
1000
0000
0010
0000
,
0001
0000
0000
0000
,
1001
0000
0000
0000
,
2002
0000
0000
0000
,
3003
0000
0000
0000
,
0000
0000
0000
0000
,
0100
0000
1000
0000
,
0100
0000
1000
0000
,
0100
0000
0010
0000
,
0100
0000
0010
0000
,
0001
0000
0010
0000
,
0001
0000
0010
0000
,
0001
0000
1000
0000
,
0001
0000
1000
0000
,
0100
0000
1000
0000
,
0100
0000
0000
0000
,
0010
0000
0001
0000
,
0010
0000
0000
0000
,
0001
0000
1000
0000
,
0001
0000
0000
0000
,
0010
0000
0100
0000
,
0010
0000
0000
0000
,
1000
0100
1000
0000
,
0100
0000
1000
0000
,
0010
0100
0010
0000
,
0100
0000
0010
0000
,
0001
0010
0001
0000
,
0010
0000
0001
0000
,
1001
0000
0000
0000
,
0100
0000
0000
0000
,
0110
0000
0000
0000
;

//---------------dance-single - ----------------
#NOTES:
     dance-single:
     :
     Medium:
     10:
     0.403819,0.386899,0.276357,0.071063,0.063167,314.000000,35.000000,9.000000,0.000000,0.000000,0.000000,0.403819,0.386899,0.276357,0.071063,0.063167,314.000000,35.000000,9.000000,0.000000,0.000000,0.000000:
0000
0000
0000
0000
,
0000
0000
0000
0000
,
0000
0000
0000
0000
,
0000
0000
0000
0000
,
0000
0000
0000
0000
,
1000
0000
0100
0000
1000
0100
0010
0001
,
0000
1000
0001
1001
,
0010
0000
0001
0000
0001
0010
0100
1000
,
0000
0010
0100
0110
,
1000
0000
0100
0000
0010
0100
0001
1000
,
0000
0010
0100
0110
,
1000
0000
0001
0000
1000
0001
0100
0010
,
0000
1000
0010
0110
,
1000
0000
0100
0000
0010
0001
0010
0100
,
0000
0010
0100
0110
,
0001
0000
0010
0000
0100
1000
0100
0010
,
0000
0000
0100
0001
1000
0000
1001
0000
,
0000
0000
0000
0000
,
1000
0100
0010
0000
0110
0000
0110
0000
,
0001
0010
0100
0000
0001
1000
0001
0000
,
0100
0010
1000
0000
0110
0000
0110
0000
,
0001
1000
0100
0000
0001
0100
0010
0000
,
1000
0010
0100
0000
0001
0001
1000
0000
,
0010
0100
0001
0000
1000
1000
0001
0000
,
0100
0010
1000
0000
0010
0100
0001
0000
,
0220
0000
0330
0000
,
1000
0100
0000
0000
0010
0100
0001
1000
,
0000
0010
0100
0110
,
1000
0000
0001
0000
1000
0001
0100
0010
,
0000
1000
0001
0110
,
1000
0000
0001
0000
0001
0100
0010
1000
,
0000
0010
0100
0110
,
1000
0000
0100
0000
0001
0010
0100
1000
,
0000
0010
0100
0010
1000
0001
0100
0000
,
0020
0000
0130
1000
,
0002
0000
0000
0000
1003
0010
0100
0000
,
2000
0000
3010
0100
,
0002
0000
0000
0000
0103
0010
1000
0000
,
0010
0000
0100
0000
0001
0000
0000
0000
1000
0000
0000
0010
0000
0000
0100
0000
,
0001
0000
0000
1000
0000
0000
0001
0000
0100
0000
0000
0010
0000
0000
1000
0000
,
0001
0000
0100
0000
0010
0000
0000
0000
1000
0000
0000
0100
0000
0000
0010
0000
,
0001
0000
0000
0000
0000
0000
0000
0000
0001
0000
0000
0010
0000
0000
0100
0000
,
1000
0000
1100
0000
,
0001
0100
0010
1000
0001
0100
0010
1000
,
0001
0000
0010
0100
1000
0000
0220
0000
,
0000
0000
0000
0330
,
1000
0000
0010
0000
0100
0000
0000
0000
0001
0000
0000
1000
0000
0000
0100
0000
,
1000
0000
0000
0010
0000
0000
0100
0000
0001
0000
0000
0010
0000
0000
0100
0000
,
1000
0000
0001
0000
0100
0000
0000
0000
0010
0000
0000
1000
0000
0000
0001
0000
,
0100
0000
0000
0001
0000
0000
1000
0000
0100
0000
0010
0000
1000
0000
0000
0000
,
0001
0000
0010
0000
1000
0000
0000
0000
0100
0000
0000
0010
0000
0000
0001
0000
,
0100
0000
0000
0010
0000
0000
1000
0000
0100
0000
0000
0010
0000
0000
0001
0000
,
1000
0000
0010
0000
0100
0000
0000
0000
0001
0000
0000
0010
0000
0000
0100
0000
,
1000
0000
0000
0001
0000
0000
0100
0000
0000
0000
0010
0100
0010
0000
0000
0000
,
1001
0000
1001
0000
0010
1000
0100
0010
,
0000
0000
0001
0000
1000
0001
0110
0000
,
1001
0000
0110
0000
0001
0010
1000
0001
,
0000
0000
0100
0010
1000
0000
1001
0000
,
1100
0000
0101
0000
0001
0100
0010
1000
,
0000
0000
0010
1000
1001
0000
0110
0000
,
0001
0000
0011
0000
1000
0001
0100
0010
,
0000
1000
0010
0100
0001
0000
0101
0000
,
1100
0000
0101
0000
0001
1000
0010
0000
,
0001
0000
0011
0000
0010
1000
0001
0000
,
0011
0000
1010
0000
0100
0010
0001
0000
,
1000
0000
1100
0000
0001
0100
1000
0000
,
0020
0100
0000
0001
,
0100
1000
0000
0130
,
0001
0000
0100
0000
0010
1000
0001
0100
,
0000
0001
0100
0010
1000
0100
0001
0000
,
1001
0000
0000
0000
;

//---------------dance-single - ----------------
#NOTES:
     dance-single:
     :
     Hard:
     13:
     0.637312,0.607984,0.473754,0.039480,0.327680,500.000000,60.000000,5.000000,0.000000,0.000000,0.000000,0.637312,0.607984,0.473754,0.039480,0.327680,500.000000,60.000000,5.000000,0.000000,0.000000,0.000000:
// measure 0
0000
0000
0000
0000
,  // measure 1
0000
0000
0000
0000
,  // measure 2
0000
0000
0000
0000
,  // measure 3
0000
0000
0000
0000
,  // measure 4
0000
0000
0000
0000
,  // measure 5
0110
0000
1100
0000
0010
1000
0100
0001
,  // measure 6
0000
0001
0100
0010
0110
0100
1000
0000
,  // measure 7
0010
0000
1001
0000
0010
1000
0001
0100
,  // measure 8
0000
0000
0010
0000
1000
0000
0100
0000
0010
0000
0001
1000
0001
0000
0000
0000
,  // measure 9
1001
0000
1100
0000
0101
0001
1000
0010
,  // measure 10
0000
0010
1000
0001
0011
0010
0100
0000
,  // measure 11
1000
0000
1100
0000
1000
0010
0100
0001
,  // measure 12
0000
0001
0100
1000
1001
0000
0110
0000
,  // measure 13
1000
0100
0001
0000
0001
0010
1000
0000
,  // measure 14
0010
1000
0001
0100
0010
1000
1010
0000
,  // measure 15
1010
0001
0001
0000
0011
1000
1000
0000
,  // measure 16
0010
1000
0100
0001
0010
0100
0110
0000
,  // measure 17
1000
0010
0100
0001
0010
0100
0110
0000
,  // measure 18
0001
0010
0100
1000
0010
0010
0100
0100
,  // measure 19
0010
0000
1000
0000
0001
0000
0100
0000
1000
0000
0010
0001
1000
0001
1000
0000
,  // measure 20
0001
0010
0100
1000
0001
0010
0200
0310
,  // measure 21
0010
1000
0001
0100
0010
1000
0020
0130
,  // measure 22
0100
0001
0010
1000
0001
0001
1000
1000
,  // measure 23
0001
0000
0010
0000
1000
0000
0100
0000
0010
0000
0001
0010
0100
0010
0100
0000
,  // measure 24
0001
0100
1000
0010
0100
0001
0100
0100
,  // measure 25
0010
0000
1000
0001
0000
0001
1000
0000
0000
0000
1000
0100
0001
0000
0000
0000
,  // measure 26
1001
0000
0101
0000
0001
0100
0010
1000
,  // measure 27
0000
1000
0010
0100
0101
0001
0100
0000
,  // measure 28
1000
0000
1100
0000
1000
0010
0001
0101
,  // measure 29
0000
0001
0010
0100
1001
0001
0100
0000
,  // measure 30
1001
0000
1100
0000
0101
0001
0010
1000
,  // measure 31
0000
1000
0100
0010
0011
0010
0100
0000
,  // measure 32
1100
0000
0101
0000
1001
0001
0010
1000
,  // measure 33
0000
1000
0010
0100
0001
1000
1001
0000
,  // measure 34
0001
0000
0010
0000
1000
0100
0000
0100
0010
0000
0010
0001
0000
0001
0010
0000
,  // measure 35
1000
0000
0001
0100
0000
0100
0010
0000
1000
0000
0001
0100
0000
0100
0010
0000
,  // measure 36
1000
0000
0001
0000
0010
0100
0000
0100
0010
0000
0010
1000
0000
1000
0001
0000
,  // measure 37
0010
0000
0100
0001
0000
0001
1000
0000
0010
0000
0100
0001
0000
0001
0010
0000
,  // measure 38
1000
0000
0100
0000
0010
0100
0010
0100
0001
0000
0001
1000
0000
1000
0010
0000
,  // measure 39
0010
0000
1000
0100
0000
0100
0010
0000
0001
0000
0001
0010
0000
0010
0100
0000
,  // measure 40
1000
0000
0010
0000
0100
0001
0100
0001
0100
0000
1000
0100
0000
0100
0010
0000
,  // measure 41
0001
0000
1000
0000
0010
1000
0010
1000
0010
0000
0001
0010
0000
0010
0100
0000
,  // measure 42
0001
0000
1000
0000
0010
1000
0000
1000
0010
0000
0001
0000
0001
0010
0000
0010
,  // measure 43
0001
0000
0001
0000
0010
0000
0010
0000
1000
0010
0100
0001
1000
0100
0010
0001
,  // measure 44
0000
0010
0100
1000
0010
0100
2002
0000
,  // measure 45
0000
0000
3003
0110
,  // measure 46
0001
0000
1000
0000
0010
0100
0001
1000
0010
0000
0100
0001
0000
0010
1000
0000
,  // measure 47
0100
0000
0001
0010
0000
1000
0100
0000
0010
0000
0001
0010
0000
1000
0100
0000
,  // measure 48
0010
0000
0100
0000
0001
1000
0010
0100
0001
0000
0010
1000
0000
0100
0010
0000
,  // measure 49
0001
0000
1000
0100
0000
0010
0001
0000
0010
0000
1000
0100
0000
0010
0001
0000
,  // measure 50
0010
0000
0100
0000
0010
1000
0001
0100
0010
0000
1000
0001
0000
0010
0100
0000
,  // measure 51
1000
0000
0001
0010
0000
0100
1000
0000
0001
0000
0010
0100
0000
1000
0010
0000
,  // measure 52
0100
0000
0001
0000
0100
0010
1000
0001
0100
0000
0010
1000
0000
0100
0001
0000
,  // measure 53
0010
0000
1000
0100
0000
0100
0010
0000
1000
0000
0001
0100
0000
0100
0010
0000
,  // measure 54
1000
0001
0100
0010
1000
0100
0001
0101
,  // measure 55
0000
0001
0100
1000
1100
0100
0010
0000
,  // measure 56
1001
0000
0110
0000
0001
0010
1000
1010
,  // measure 57
0000
0010
0010
0001
0011
0000
0101
0000
,  // measure 58
0100
1000
0100
0001
0010
1000
0010
0110
,  // measure 59
0000
0001
0010
0100
1000
0001
1001
0000
,  // measure 60
1000
0100
0010
0001
0010
0100
1000
0001
,  // measure 61
0100
0000
0010
1000
0000
1000
0001
0000
0000
0000
0001
1000
1001
0000
0000
0000
,  // measure 62
0001
1000
0010
0100
0001
0100
1000
1100
,  // measure 63
0000
1000
0010
0001
0011
0010
0110
0000
,  // measure 64
1001
0000
0110
0000
0001
0010
0100
1100
,  // measure 65
0000
0100
1000
0001
1001
0000
0110
0000
,  // measure 66
1001
0010
1010
0000
1010
0001
0010
0011
,  // measure 67
0000
0001
0101
0001
1100
1000
1001
0000
,  // measure 68
1001
0000
0110
0000
0001
0010
0100
1000
,  // measure 69
0010
0010
0100
0100
0001
1000
0201
0000
,  // measure 70
1300
0000
0000
0000
;
