#TITLE:インビジブル;
#SUBTITLE:;
#ARTIST:kemu feat MARiA from GARNiDELiA;
#TITLETRANSLIT:Invisible;
#SUBTITLETRANSLIT:;
#ARTISTTRANSLIT:;
#GENRE:Pop;
#CREDIT:;
#BANNER:;
#BACKGROUND:;
#LYRICSPATH:;
#CDTITLE:;
#MUSIC:Invisible.ogg;
#OFFSET:-0.055000;
#SAMPLESTART:47.533051;
#SAMPLELENGTH:15.000000;
#SELECTABLE:YES;
#DISPLAYBPM:192.000000;
#BPMS:0.000000=192.000000
,216.000000=191.600006
,230.000000=192.000000
,362.000000=191.660004
;
#STOPS:
;
#BGCHANGES:;
#KEYSOUNDS:;
#ATTACKS:;

//---------------dance-single - ----------------
#NOTES:
     dance-single:
     :
     Hard:
     14:
     0.750209,0.924928,0.857549,0.408357,0.126591,643.000000,538.000000,105.000000,50.000000,0.000000,0.000000,0.750209,0.924928,0.857549,0.408357,0.126591,643.000000,538.000000,105.000000,50.000000,0.000000,0.000000:
// measure 0
0000
0000
0000
0000
,  // measure 1
0000
0000
0000
0000
,  // measure 2
0000
0000
0000
0000
,  // measure 3
0000
0000
0000
0000
,  // measure 4
0000
0000
0000
0000
,  // measure 5
0000
0000
0000
0000
,  // measure 6
1001
0100
0100
1000
0010
0010
0001
0100
,  // measure 7
0100
0010
1000
1000
1001
0000
1100
0000
,  // measure 8
0110
0001
0001
0100
1000
1000
0010
0001
,  // measure 9
0001
1000
0100
0100
0110
0000
0101
0000
,  // measure 10
1001
0010
0010
0001
0100
0100
1000
0010
,  // measure 11
0010
0100
0001
0001
1001
0000
0011
0000
,  // measure 12
0110
1000
1000
0010
0001
0001
0100
1000
,  // measure 13
1000
0001
0010
0010
0110
0000
1010
0000
,  // measure 14
0010
1000
0001
0100
0010
0100
1000
0010
,  // measure 15
0100
0001
0010
0100
1000
0010
1000
0000
,  // measure 16
2200
0000
3300
0202
0000
0303
2200
0000
,  // measure 17
3300
0202
0000
0303
0001
1000
1001
0000
,  // measure 18
0001
0010
1000
0010
0001
0010
1000
0100
,  // measure 19
0010
0100
0001
0010
0100
1000
0010
1000
,  // measure 20
0001
0010
0000
0011
0000
1001
0000
0010
,  // measure 21
0100
0001
1000
0010
0100
0000
1100
0000
,  // measure 22
0010
1000
0100
0001
0010
0100
1000
0010
,  // measure 23
1000
0100
0010
0100
0001
1000
0010
0000
,  // measure 24
0001
1000
0100
1000
0000
1001
0000
1000
,  // measure 25
0100
0010
0001
0100
1001
1000
0001
0000
,  // measure 26
0010
0000
1000
0010
1000
0000
0001
0000
0100
0001
0100
0000
0010
0000
1000
0001
,  // measure 27
1000
0010
0100
0001
0010
1000
0100
0010
,  // measure 28
0200
0000
0010
0000
,  // measure 29
0010
0010
0310
0001
,  // measure 30
1002
0000
0000
0013
2000
0000
0000
3001
,  // measure 31
0010
0100
1000
0100
0020
0000
0000
0130
,  // measure 32
2000
0000
0000
3001
0020
0000
0000
0031
,  // measure 33
0010
0100
1000
0100
0020
0000
0000
1030
,  // measure 34
0200
0000
0000
0301
2000
0000
0000
3001
,  // measure 35
1000
0010
0100
0001
1000
0000
0110
0000
,  // measure 36
0010
1000
0100
0001
1100
1100
0101
0201
,  // measure 37
0000
0010
0000
0010
0310
0000
0000
0000
,  // measure 38
1002
0000
0000
0013
2001
0000
0000
3010
,  // measure 39
1002
0000
0000
0000
0000
0000
0013
0000
1001
0000
0000
0001
1000
0000
0010
0000
,  // measure 40
0101
0000
0000
0000
0000
0000
0010
0000
0100
0000
0000
1000
0100
0000
0010
0000
,  // measure 41
1000
0000
1100
0000
0101
0000
0000
0001
,  // measure 42
0120
0000
0000
0031
0210
0000
0000
1300
,  // measure 43
0120
0000
0000
1030
0210
0000
0000
0301
,  // measure 44
1001
0000
0001
1000
0010
1000
0100
0001
,  // measure 45
0100
0000
0010
1000
0001
0000
0010
0000
2000
0000
0000
0000
3000
0000
0000
0000
,  // measure 46
1200
0000
0300
0100
0102
0000
0003
0001
,  // measure 47
0011
0000
0000
0010
1000
0000
1000
0000
0010
0000
0000
0010
0001
0000
0001
0000
,  // measure 48
0010
0000
0000
0000
0001
0000
0100
0000
0010
0000
1000
0001
0100
0000
0010
0000
,  // measure 49
1000
0000
1100
0000
0102
0000
0003
0010
,  // measure 50
2010
0000
3000
0001
0012
0000
0003
0100
,  // measure 51
2100
0000
3000
1000
1002
0000
0003
0001
,  // measure 52
0010
1000
0100
0010
0100
0001
0010
0100
,  // measure 53
1000
0000
0010
1000
0001
0000
0010
0000
1000
0000
0000
0000
1001
0000
0000
0000
,  // measure 54
0011
0000
0001
1100
0000
1000
0100
0000
,  // measure 55
0100
0001
0000
0001
0010
0100
1000
0000
,  // measure 56
1000
0010
0000
0010
0001
0010
0100
1000
,  // measure 57
0010
1000
0001
0010
0011
0000
0010
0110
,  // measure 58
0000
1000
1100
0000
0100
0101
0000
0001
,  // measure 59
1001
0000
0010
1000
0100
0010
0100
0001
,  // measure 60
0010
0100
1000
0010
0000
0001
0000
0001
,  // measure 61
1001
0000
0000
0000
1100
0000
0000
0100
,  // measure 62
0101
0000
0000
0001
0011
0000
0000
0010
,  // measure 63
1010
0000
0000
0001
1000
0000
0010
0000
1001
0000
0000
0000
0000
0000
0100
0000
,  // measure 64
1100
0000
0000
0001
0100
0000
0001
0000
1001
0000
0000
0000
1100
0000
0000
0000
,  // measure 65
0101
0000
0000
0001
1001
0000
0000
1000
,  // measure 66
1010
0000
0000
0010
0110
0000
0000
0100
,  // measure 67
0101
0000
0000
0001
0001
0100
0010
1000
,  // measure 68
0100
0000
0010
0000
0100
0000
0001
0000
1000
0001
1000
0001
1000
0000
0010
0000
,  // measure 69
2002
0000
3003
0000
2001
0000
0000
3100
,  // measure 70
1002
0000
0000
0103
2001
0000
0000
3100
,  // measure 71
1001
0000
0000
1000
0001
0000
0100
0000
1010
0000
0000
0000
0000
0000
0100
0000
,  // measure 72
0010
0000
0000
0001
0010
0000
0100
0000
0001
0000
0000
0000
0011
0000
0000
0000
,  // measure 73
1010
0000
0000
1000
0210
0000
0000
1300
,  // measure 74
0120
0000
0000
0031
0210
0000
0000
0301
,  // measure 75
0120
0000
0000
1030
1001
0000
1000
0001
,  // measure 76
0100
0000
0001
0000
0010
0000
1000
0000
0010
0000
0100
0001
1000
0000
0100
0000
,  // measure 77
0002
0000
0003
0000
0021
0000
0030
0010
,  // measure 78
2010
0000
0000
0000
3000
0000
1000
0000
1100
0000
0000
0100
0001
0000
0001
0000
,  // measure 79
0100
0000
0000
0100
1000
0000
1000
0000
0100
0000
0000
0000
1000
0000
0010
0000
,  // measure 80
0100
0000
0001
1000
0010
0000
0100
0000
0001
0000
0000
0000
0011
0000
0000
0000
,  // measure 81
2010
0000
3000
0100
0102
0000
0003
1000
,  // measure 82
2100
0000
3000
0010
0012
0000
0003
0001
,  // measure 83
2001
0000
3000
1000
0100
0001
0010
0100
,  // measure 84
0010
0000
1000
0000
0100
0000
0010
0000
0001
0000
0100
0001
1000
0000
0100
0000
,  // measure 85
0001
0000
1001
0000
0110
0000
0010
1000
,  // measure 86
0010
0000
0100
0000
0011
0000
0011
0000
0010
0000
0001
0000
0010
0000
1000
0100
,  // measure 87
0001
0000
0010
0000
1000
0000
0100
0000
0010
0000
0100
0000
0001
0000
0010
0001
,  // measure 88
1000
0000
0001
0000
0010
0000
1000
0000
0001
0000
0010
0000
1000
0000
0100
1000
,  // measure 89
0001
0000
0010
0100
1000
0000
0010
0000
1000
0000
0000
0000
1100
0000
0000
0000
,  // measure 90
0101
0000
0000
0000
0001
0000
1000
0000
0010
0000
1000
0001
0100
0000
0010
0000
,  // measure 91
1000
0000
0001
0100
0010
0000
1000
0000
0010
0000
1000
0001
0100
0000
0010
0000
,  // measure 92
1000
0000
0001
0010
0100
0000
1000
0000
1001
0000
0001
0000
0011
0000
0010
0000
,  // measure 93
1010
0000
1000
0000
1001
0000
0001
0000
0000
0000
1001
0000
0001
0010
0100
1000
,  // measure 94
0010
0100
0000
1001
0000
0000
0000
0000
;

//---------------dance-single - ----------------
#NOTES:
     dance-single:
     :
     Medium:
     12:
     0.533197,0.655157,0.449192,0.269515,0.000000,457.000000,402.000000,55.000000,33.000000,0.000000,0.000000,0.533197,0.655157,0.449192,0.269515,0.000000,457.000000,402.000000,55.000000,33.000000,0.000000,0.000000:
0000
0000
0000
0000
,
0000
0000
0000
0000
,
0000
0000
0000
0000
,
0000
0000
0000
0000
,
0000
0000
0000
0000
,
0000
0000
0000
0000
,
1001
0000
1000
0100
0000
0100
0010
0000
,
0010
0001
0000
0001
1000
0000
1001
0000
,
0001
0000
0001
0100
0000
0100
0010
0000
,
0010
1000
0000
1000
0001
0000
1001
0000
,
0100
0000
1000
0100
0000
0100
0010
0000
,
0010
0001
0000
0001
1000
0000
1001
0000
,
0001
0000
0001
0100
0000
0100
0010
0000
,
0010
1000
0000
1000
0001
0000
1001
0000
,
1000
0100
0000
0010
0100
0000
0001
0100
,
0000
0010
1000
0000
1000
0100
0001
0010
,
0200
0000
0000
0010
0000
0000
0010
0000
,
0000
0010
0000
0000
0010
0000
0310
0000
,
0001
1000
0010
1000
0001
0000
1000
0000
,
0010
0100
0000
0010
0100
0000
0001
0000
,
1000
0010
0100
0001
0000
1000
0000
0001
,
0100
0010
0000
1000
0001
0000
1001
0000
,
0001
1000
0000
1000
0100
0000
0100
0010
,
0000
0010
0001
0000
1000
0010
0100
0000
,
0001
0000
1000
0010
0000
1000
0000
0001
,
0000
0010
0000
0100
0001
0000
0010
0000
,
1000
0100
1000
0100
0010
0100
0001
0100
,
0010
1000
0000
0010
1000
0001
0000
0010
,
0200
0000
0010
0000
,
0010
0000
0001
0000
,
0301
0000
0000
0001
1000
0000
0000
1000
,
0100
0000
0001
0000
1100
0000
0000
1000
,
0001
0000
0000
0001
0010
0000
0000
0010
,
1000
0000
0010
0000
0011
0000
0000
0001
,
0100
0000
0000
0100
1000
0000
0000
1000
,
0100
0010
1001
0001
,
1000
0010
0100
0001
0100
0010
0000
2100
,
0000
0000
0100
0000
,
3100
0000
0000
0001
0100
0000
0000
1000
,
0100
0000
0000
0001
0100
0000
1000
0000
,
1001
0000
0000
1000
0010
0000
0001
0000
,
0011
1010
1001
0000
,
1001
0000
0000
1000
0100
0000
0000
0100
,
0001
0000
0000
0001
0010
0000
0000
0010
,
1000
0100
0010
0001
0010
0100
1000
0000
,
1100
0101
1001
0000
,
0020
0000
0000
0100
0230
0000
0000
0001
,
0302
1000
0100
0100
,
0013
0000
0000
0010
0100
0000
0001
0000
,
1100
0101
1001
0000
,
0020
0000
0000
1000
2030
0000
0000
3100
,
0200
0000
0000
0001
0302
0000
0000
1000
,
1003
0000
0010
1000
0100
0001
0010
0100
,
1000
1100
0101
0000
,
1200
0000
0000
0001
0000
0000
0010
0000
,
0000
1300
0000
0000
0011
0000
1020
0000
,
0000
1000
0000
0000
0100
0000
0000
0031
,
0000
0000
1000
0000
1100
0000
0000
0101
,
0000
0000
1001
0000
0000
0110
0000
0000
,
1001
0000
0010
0000
1000
0010
0100
0001
,
0010
0100
1000
0010
0000
0100
0000
0100
,
0020
0000
0000
0000
0230
0000
0000
1000
,
2300
0000
0000
0001
3002
0000
0000
0010
,
0023
0000
1000
0000
2030
0000
0000
0100
,
3200
0001
1300
0010
,
1001
0000
0000
0010
0020
0000
0000
1000
,
2030
0000
0000
0100
3200
0000
0000
0001
,
0302
0000
0000
0000
0013
1000
0001
0000
,
0001
0100
1000
0000
1000
0100
0001
0100
,
1000
0000
1100
0000
0001
1000
0100
0000
,
0010
1000
0001
0000
0010
1000
0001
1000
,
0010
0000
0011
0000
0001
1000
0010
0000
,
0010
1000
0001
0000
0001
1000
0010
1000
,
0001
0000
1100
0000
1000
0010
0100
0000
,
0010
0100
0001
0000
0001
0100
0010
1000
,
0100
0000
1100
0000
1000
0010
0100
0000
,
0100
0010
0001
0000
1000
0010
0100
0001
,
0010
0000
1001
0000
1100
0000
0000
1000
,
1100
0000
0000
0100
0101
0000
0001
0000
,
1000
0001
1000
0000
0001
0000
0000
0010
,
0011
0000
0000
0001
1000
0000
0001
0000
,
1001
0000
0000
0010
0100
0000
0000
0100
,
1000
0000
0000
1000
1100
0000
0000
0100
,
0101
0000
0000
0001
1001
0000
0010
1000
,
0100
0001
0100
0000
0011
0000
1100
0000
,
1001
0000
0110
0000
1001
0000
0010
1000
,
0100
0001
0100
0010
2000
0000
0000
0010
,
3020
0000
0000
0001
0032
0000
0000
0100
,
0203
0000
0010
0000
2300
0000
0000
0010
,
3020
0130
1100
0101
,
1001
0000
0000
0000
0020
0000
0000
1000
,
2030
0000
0000
0100
3200
0000
0000
0301
,
0002
0000
0000
1000
1003
0000
0010
0000
,
1001
0000
0010
1000
0000
0001
1000
0010
,
0100
0001
0000
1100
0000
0000
0000
0000
;

//---------------dance-single - ----------------
#NOTES:
     dance-single:
     :
     Easy:
     8:
     0.407190,0.462464,0.220513,0.040836,0.000000,349.000000,322.000000,27.000000,5.000000,0.000000,0.000000,0.407190,0.462464,0.220513,0.040836,0.000000,349.000000,322.000000,27.000000,5.000000,0.000000,0.000000:
0000
0000
0000
0000
,
0000
0000
0000
0000
,
0000
0000
0000
0000
,
0000
0000
0000
0000
,
0000
0000
0000
0000
,
0000
0000
0000
0000
,
1001
0000
0000
1000
0000
0000
0100
0000
,
0000
0010
0000
0000
0001
0000
0001
0000
,
0100
0000
0000
0010
0000
0000
1000
0000
,
0000
0001
0000
0000
1000
0000
1000
0000
,
0010
0000
0000
0100
0000
0000
0001
0000
,
0000
1000
0000
0000
0001
0000
0001
0000
,
0100
0000
0000
0010
0000
0000
1000
0000
,
0000
0001
0000
0000
1000
0000
1000
0000
,
0010
1000
0001
0100
,
0010
1000
0001
0100
,
0010
0000
0000
0010
0000
0000
0010
0000
,
0000
0010
0000
0000
0010
0100
0010
0000
,
1000
0001
0100
0010
,
1000
0001
0100
1000
,
0010
0100
0000
0100
0000
0100
0000
0100
,
0010
1000
0000
1000
0001
0000
1000
0000
,
1001
0000
0010
1000
0000
1000
0010
0000
,
0001
1000
0010
0000
,
0001
0000
1000
0001
0000
0001
1000
0000
,
0010
0100
0001
0000
,
0010
0000
0001
0100
0000
0100
0001
0000
,
1000
0010
0100
0000
0001
0100
0010
0000
,
2000
0000
0002
0000
,
3003
0000
0010
0100
,
0110
0000
0000
1000
0100
0000
0000
1000
,
0100
0000
0000
0000
1001
0000
0000
0001
,
0100
0000
0000
0001
0100
0000
0000
0000
,
1001
0000
1001
0000
,
0010
0000
0000
1000
0010
0000
0000
1000
,
0010
0000
1001
0000
,
0001
0000
1000
0000
0010
0100
0000
0200
,
0000
0000
0300
0000
,
0010
0000
0000
1000
0010
0000
0000
0000
,
0001
0000
0000
0100
0001
0000
0000
0000
,
0010
0000
0000
0001
0100
0000
0000
0000
,
1100
0101
1001
0000
,
0010
0000
0000
1000
0010
0000
0000
0000
,
1001
0000
0000
0001
0010
0000
0000
0000
,
1001
0000
1000
0100
0010
0000
0010
0100
,
0001
0010
1100
0000
,
1000
0000
0000
1000
0100
0000
0000
0100
,
0001
0010
1000
0010
,
0001
0000
0000
0001
1000
0000
0010
0000
,
1000
1100
0101
0000
,
1001
0000
0000
1000
0001
0000
0000
0001
,
1000
0000
0000
1000
0001
0000
0000
0010
,
0100
0000
0100
0010
1000
0000
0001
0000
,
0100
0000
0001
0100
0010
0000
1000
0000
,
0002
0000
0000
1000
0000
0000
1000
0000
,
0000
1000
0003
0000
0100
0000
2000
0000
,
0000
0001
0000
0000
0001
0000
0000
0001
,
0000
0000
3001
0000
0010
0000
0000
0100
,
0000
0000
1000
0000
0000
0010
0000
0000
,
0100
0000
0001
0000
1000
0010
1000
0000
,
0001
0100
0001
0000
0000
1000
0000
1000
,
0001
0000
1001
0000
,
1001
0000
0010
0000
,
0010
0000
1001
0000
,
1001
0000
0100
0100
,
0100
0000
0001
0000
,
1000
0000
0010
0000
,
0100
0000
1000
0010
,
0100
0000
0001
0000
1000
0001
1000
0001
,
1000
0000
0000
0000
0001
0000
0000
1000
,
0001
0000
0000
1000
0001
0000
0010
0000
,
0100
0000
1000
0000
0001
0000
0000
1000
,
0001
0000
0000
1000
0001
0010
0100
0000
,
1000
0000
0000
0000
0001
0000
0000
1000
,
0001
0000
0000
1000
0001
0000
0010
0000
,
1000
0000
0001
0000
0100
0000
0000
0001
,
1000
0000
0000
0001
1000
0010
1000
0000
,
0001
0000
0000
0000
1100
0000
0000
0100
,
0100
0000
0000
0010
0010
0000
0000
0001
,
0001
0000
0000
1000
1000
0000
0000
1000
,
0001
0010
1000
1100
,
0101
0000
0000
0010
0010
0000
0000
0100
,
0100
0000
0000
0001
0001
0000
0000
1000
,
1000
0000
0000
0010
0010
0000
1000
0000
,
0001
0100
0010
0000
1000
0000
0100
0000
,
1100
0001
0100
0000
,
1001
0000
0000
0000
0010
1000
0010
0000
,
0001
1000
0010
0100
,
0001
0010
0001
0000
1000
0000
0010
0000
,
0100
0000
0001
0000
1000
0001
1000
0000
,
1001
0000
0000
0000
0010
1000
0010
0000
,
0100
0001
0100
0000
1000
0000
0010
0000
,
0100
0010
0100
0000
0001
0000
0100
0000
,
1000
0000
0010
0000
0000
0001
0000
0000
,
1000
0001
0000
1001
0000
0000
0000
0000
;

//---------------dance-single - ----------------
#NOTES:
     dance-single:
     :
     Beginner:
     5:
     0.234513,0.381813,0.196011,0.106173,0.000000,201.000000,177.000000,24.000000,13.000000,0.000000,0.000000,0.234513,0.381813,0.196011,0.106173,0.000000,201.000000,177.000000,24.000000,13.000000,0.000000,0.000000:
0000
0000
0000
0000
,
0000
0000
0000
0000
,
0000
0000
0000
0000
,
0000
0000
0000
0000
,
0000
0000
0000
0000
,
0000
0000
0000
0000
,
1001
0000
0000
0000
,
0100
0000
0100
0000
,
0100
0000
0000
0000
,
0010
0000
0010
0000
,
0010
0000
0000
0000
,
1000
0000
1000
0000
,
1000
0000
0000
0000
,
0001
0000
0001
0000
,
0001
0000
0100
0000
,
0010
0000
1000
0000
,
0020
0000
0000
0000
,
0030
0000
0100
0100
,
0001
0000
1000
0000
,
0010
0000
0100
0000
,
0002
0000
0000
0000
,
1003
0000
1000
0000
,
0010
0000
1000
0000
,
0001
0000
1000
0000
,
0200
0000
0000
0000
,
0300
0010
0010
0000
,
1000
0000
0001
0000
,
0100
0000
0010
1000
,
0002
0000
0000
0000
,
0003
0000
0100
0010
,
1000
0000
0001
0000
,
1000
0001
1001
0000
,
0010
0000
0100
0000
,
0010
0100
0110
0000
,
1000
0000
0001
0000
,
1000
0001
1001
0000
,
1000
0001
0100
0010
,
0110
0000
0000
0000
,
1100
0000
0101
0000
,
1100
0000
0010
0000
,
0001
0000
1000
0000
,
0011
0000
1010
0000
,
0011
0000
1010
0000
,
0011
0000
1001
0000
,
0010
0000
1000
0000
,
0001
0001
0001
0000
,
1100
0000
0101
0000
,
1100
0000
0101
0000
,
0010
0000
1000
0000
,
0001
1000
0010
0000
,
1000
0000
0001
0000
,
0100
0000
0010
0000
,
1000
1000
0001
0001
,
2002
0000
3003
0000
,
1000
0000
0000
0000
,
0010
0000
0000
0000
,
0100
0000
0000
0000
,
0001
0000
1000
0000
,
0000
0000
0010
0000
,
0000
0000
0100
0000
,
0000
0000
1001
0000
,
1001
0000
0020
0000
,
0000
0000
0130
0000
,
0100
0000
2000
0000
,
0000
0000
3001
0000
,
0001
0000
1000
0000
,
0010
0000
0100
0000
,
0001
0000
1000
1000
,
0001
0001
2002
0000
,
3003
0000
1000
0000
,
0010
0000
0100
0000
,
0001
0001
1000
0000
,
0010
0000
1000
1000
,
0001
0000
0100
0000
,
0010
0000
1000
0000
,
0001
0000
0100
0000
,
1000
0000
0010
0010
,
0001
0000
0100
0000
,
0010
0000
1000
0000
,
0001
0000
0100
0000
,
0010
0000
1000
1000
,
0001
0000
0100
0000
,
1000
0000
0010
0000
,
0100
0000
0001
0001
,
1000
1000
2002
0000
,
0000
3003
0020
0000
,
0000
0000
0130
0000
,
1000
0000
0010
0000
,
0100
0001
1000
0000
,
0010
0000
0100
0001
,
1000
0000
0010
0000
,
1000
0000
0100
0000
,
0001
1000
0010
0100
,
0001
0000
1001
0000
;
