#TITLE:命の灯火 (かめりあ's Hardstyle Bootleg);
#SUBTITLE:;
#ARTIST:かめりあ;
#TITLETRANSLIT:Inochi no tomoshibi (Camellia's Hardstyle Bootleg);
#SUBTITLETRANSLIT:;
#ARTISTTRANSLIT:Camellia;
#GENRE:Anime/Game;
#CREDIT:;
#BANNER:;
#BACKGROUND:;
#LYRICSPATH:;
#CDTITLE:;
#MUSIC:Inochi no tomoshibi (Camellia's Hardstyle Bootleg).ogg;
#OFFSET:1.358000;
#SAMPLESTART:30.648924;
#SAMPLELENGTH:15.000000;
#LASTBEATHINT:0.715575;
#SELECTABLE:YES;
#DISPLAYBPM:150.000000;
#BPMS:0.000000=150.000000
;
#STOPS:
;
#BGCHANGES:;
#KEYSOUNDS:;
#ATTACKS:;

//---------------dance-single - ----------------
#NOTES:
     dance-single:
     :
     Beginner:
     4:
     0.127232,0.178125,0.082849,0.062137,0.000000,129.000000,117.000000,12.000000,9.000000,0.000000,0.000000,0.127232,0.178125,0.082849,0.062137,0.000000,129.000000,117.000000,12.000000,9.000000,0.000000,0.000000:
0000
0000
0000
0000
,
0000
0000
0000
0000
,
0000
0000
0000
0000
,
0000
0000
0000
0000
,
0000
0000
0000
0000
,
0000
0000
0000
0000
,
0000
0000
0000
0000
,
0000
0000
0000
0000
,
0000
0000
0000
0000
,
0000
0000
0000
0000
,
1001
0000
0001
0000
,
0001
0000
0000
0000
,
1001
0000
1000
0000
,
1000
0000
0000
0000
,
0110
0000
0010
0000
,
0010
0000
0000
0000
,
0110
0000
0100
0000
,
0100
0000
0000
0000
,
1001
0000
0000
0000
,
0000
0000
0000
0000
,
0100
0000
0100
0000
,
1000
0000
1000
0000
,
0010
0000
0010
0000
,
0001
0000
0001
0000
,
0100
0000
0100
0000
,
0010
0000
0010
0000
,
1000
0000
0001
0000
,
1000
0000
0001
0000
,
2002
0000
0000
0000
,
0000
0000
0000
0000
,
3003
0000
0000
0000
,
0000
0000
0000
0000
,
0100
0100
0100
0000
,
0010
0000
0010
0000
,
0100
0100
0100
0000
,
0010
0000
0010
0000
,
1000
1000
1000
0000
,
0001
0000
0001
0000
,
2000
0000
0000
0000
,
3000
0000
0000
0000
,
0001
0001
0001
0000
,
1000
0000
1000
0000
,
0001
0001
0001
0000
,
1000
0000
1000
0000
,
0100
0100
0100
0000
,
0010
0000
0010
0000
,
0200
0000
0300
0000
,
0020
0000
0030
0000
,
1000
0000
0001
0000
,
1001
0000
0000
0000
,
0001
0000
1000
0000
,
1001
0000
0000
0000
,
0100
0000
0010
0000
,
0110
0000
0000
0000
,
0010
0000
0100
0000
,
0110
0000
0000
0000
,
1000
0000
0000
0000
,
0001
0000
0000
0000
,
1000
0000
0000
0000
,
0001
0000
0000
0000
,
0100
0000
0000
0000
,
0010
0000
0000
0000
,
0100
0000
0000
0000
,
0010
0000
0000
0000
,
1000
0000
1000
0000
,
0001
0000
0001
0000
,
0100
0000
0100
0000
,
0010
0000
0010
0000
,
1000
0000
0100
0000
,
0010
0000
0001
0000
,
1000
0000
0010
0000
,
0100
0000
0001
0000
,
0220
0000
0000
0000
,
0000
0000
0000
0000
,
0330
0000
0000
0000
,
0000
0000
0000
0000
,
0001
0000
1000
0000
,
0001
0000
1000
0000
,
0100
0000
0010
0000
,
0100
0000
0010
0000
,
0001
0000
0010
0000
,
0100
0000
1000
0000
,
0001
0000
0100
0000
,
0010
0000
1000
0000
,
2002
0000
0000
0000
,
0000
0000
0000
0000
,
3003
0000
0000
0000
;

//---------------dance-single - ----------------
#NOTES:
     dance-single:
     :
     Easy:
     9:
     0.333368,0.434957,0.214026,0.179506,0.006904,338.000000,307.000000,31.000000,26.000000,0.000000,0.000000,0.333368,0.434957,0.214026,0.179506,0.006904,338.000000,307.000000,31.000000,26.000000,0.000000,0.000000:
0000
0000
0000
0000
,
0000
0000
0000
0000
,
0000
0000
0000
0000
,
0000
0000
0000
0000
,
0000
0000
0000
0000
,
0000
0000
0000
0000
,
0000
0000
0000
0000
,
0000
0000
0000
0000
,
0000
0000
0000
0000
,
0000
0000
0000
0000
,
1001
0001
0001
0100
,
1000
1000
1000
0100
,
0001
0001
0001
0100
,
1000
1000
1000
0100
,
0001
0001
0001
0010
,
1000
1000
1000
0010
,
0001
0001
0001
0010
,
1000
1000
1000
0010
,
0002
0100
0100
0103
,
2000
0100
0100
3100
,
0110
0000
0110
0000
0001
0100
1000
0000
,
0010
0100
0001
1000
,
0110
0000
0110
0000
1000
0100
0001
0000
,
0010
0100
1000
0001
,
0110
0000
0110
0000
0001
0010
1000
0000
,
0100
0001
1000
0010
,
1001
0000
0110
0000
0001
0100
1000
0000
,
0010
0000
1000
0000
0001
1000
0100
0000
,
0020
0000
0100
0000
,
0001
0000
0130
0000
,
0200
0000
0010
0000
,
1000
0000
0310
0000
,
0001
0100
1000
0000
,
1000
0100
0001
0000
,
0001
0010
1000
0100
,
0020
0100
0100
0130
,
0001
0100
0010
0000
,
1000
0010
0100
0000
,
1000
0100
0010
0001
,
2001
0002
3003
0110
,
1001
0010
1000
0100
,
0001
0100
1000
0010
,
1000
0010
0100
0001
,
0010
0010
0100
0100
,
0001
0100
1000
0010
,
1000
0010
0001
0100
,
1000
0100
0010
0001
,
0011
0110
1100
1000
,
0002
0100
0013
1000
,
0100
0010
2002
3003
,
2000
0010
3100
0001
,
1000
0010
0220
0330
,
0001
0100
1000
0010
,
1000
0010
0001
0100
,
2000
0000
0000
0002
0000
0000
3003
0000
,
0020
0000
0000
0100
0000
0000
0130
0000
,
0001
0100
1000
1100
,
1000
0010
0001
0011
,
0001
0100
0010
1001
,
1000
0010
0001
1001
,
0100
1000
0010
0001
,
0100
0010
0001
1000
,
0010
0010
0100
0100
,
0001
0100
2002
3003
,
0010
1000
0010
0000
0001
0000
1000
0000
,
0001
0010
0001
0000
0100
0000
0010
0000
,
1000
0100
1000
0000
0010
0000
0100
0000
,
0001
0010
0001
0000
1000
0000
0010
0000
,
0001
1000
0001
0000
0100
0000
0010
0000
,
1000
0001
1000
0000
0010
0000
0100
0000
,
0001
0010
0100
0000
1000
0000
0001
0000
,
1000
0100
0010
0000
0001
0000
0100
0000
,
2001
0001
0001
3001
,
0210
0010
0010
0310
,
0002
0010
0103
1000
,
2000
0010
3100
0001
,
1001
0000
1100
0000
0001
0100
0010
0000
,
1000
0000
0010
0000
1000
0010
0100
0000
,
0011
0000
0110
0000
1000
0001
0100
0000
,
0010
0000
1000
0000
0001
1000
0100
0000
,
1100
0000
0110
0000
0001
0100
1000
0000
,
0010
0000
0001
0000
1000
0010
0001
0000
,
0100
0000
0000
0100
0000
0000
0100
0000
0000
0000
0010
0000
1000
0000
0000
0000
,
0010
0000
0000
0010
0000
0000
0010
0000
0000
0000
0100
0000
0001
0000
0000
0000
,
0020
0000
0100
0000
,
0001
0000
0130
0000
,
0200
0000
0010
0000
,
1000
0000
0310
0000
,
2002
0000
0000
0000
,
0000
0000
0000
0000
,
3003
0000
0000
0000
;

//---------------dance-single - ----------------
#NOTES:
     dance-single:
     :
     Medium:
     11:
     0.403395,0.497093,0.324492,0.124273,0.155342,409.000000,362.000000,47.000000,18.000000,0.000000,0.000000,0.403395,0.497093,0.324492,0.124273,0.155342,409.000000,362.000000,47.000000,18.000000,0.000000,0.000000:
0000
0000
0000
0000
,
0000
0000
0000
0000
,
0000
0000
0000
0000
,
0000
0000
0000
0000
,
0000
0000
0000
0000
,
0000
0000
0000
0000
,
0000
0000
0000
0000
,
0000
0000
0000
0000
,
0000
0000
0000
0000
,
0000
0000
0000
0000
,
0010
0000
0000
0010
0000
0000
0010
0000
0000
0000
0000
0000
1001
0000
0000
0000
,
0100
0000
0000
0100
0000
0000
0100
0000
0000
0000
0000
0000
1001
0000
0000
0000
,
0100
0000
0000
1000
0000
0000
0010
0000
0000
0000
0000
0000
1001
0000
0000
0000
,
0001
0000
0000
0100
0000
0000
0010
0000
0000
0000
0000
0000
1001
0000
0000
0000
,
0100
0000
0000
1000
0000
0000
0010
0000
0000
0000
0000
0000
1001
0000
0000
0000
,
0010
0000
0000
0100
0000
0000
0001
0000
0000
0000
0000
0000
0110
0000
0000
0000
,
0001
0000
0000
0100
0000
0000
1000
0000
0000
0000
0010
0000
0100
0000
0000
0000
,
1000
0000
0000
0010
0000
0000
0001
0000
0000
0000
0100
0000
0010
0000
0000
0000
,
2001
0001
0001
3001
,
0120
0100
0100
0130
,
0101
0000
1000
0000
0010
1000
0100
0000
,
0010
0100
0001
0000
0100
0000
1010
0000
,
0001
0000
1001
0000
1000
0010
0100
0000
,
0001
0100
0010
0000
1000
0000
1001
0000
,
1000
0100
0010
0000
0001
0100
0010
0000
,
1000
0000
0000
0010
0000
0000
0001
0000
0100
0000
0000
0000
1010
0000
0000
0000
,
0001
0000
0000
0010
0000
0000
0100
0000
0000
0000
1000
0000
0100
0000
0000
0000
,
1000
0000
0000
0100
0000
0000
0010
0000
0000
0000
0001
0000
0010
0000
0000
0000
,
0210
0010
0010
0310
,
1002
1000
1000
1003
,
2100
0100
0100
3100
,
0102
0100
0100
0103
,
1000
0100
0010
0100
,
0001
0000
0000
0100
0000
0000
0010
0000
1000
0000
0000
0000
1001
0000
0000
0000
,
1000
0010
0100
0001
,
0001
0000
0000
0000
0011
0000
0000
0000
1000
0000
0000
0010
0000
0000
0001
0000
,
1000
0100
0010
0000
0001
0000
1001
0000
,
0001
0010
0100
0000
1000
0000
1001
0000
,
1000
0100
0010
0000
0001
0010
0100
0000
,
1000
0000
0000
0000
2010
0000
0000
0000
0000
0000
0000
3000
0001
0000
0000
0000
,
0101
0000
0010
0000
0110
0000
1000
0010
,
0100
0000
0000
0001
0000
0000
0010
0000
0100
0000
0000
0000
1010
0000
0000
0000
,
1100
0000
0000
0000
0001
0000
0000
0000
0010
0000
0000
0100
0000
0000
1000
0000
,
0010
0000
0000
0000
0100
0000
0000
0000
0001
0000
0000
0010
0000
0000
1000
0000
,
0100
0000
0010
0100
0001
0000
1000
0000
,
0010
0000
1000
0010
0100
0000
0001
0000
,
0100
0001
1000
0000
0010
1000
0001
0000
,
0110
0000
1001
0000
0110
1000
0001
0000
,
2100
0000
0000
0100
0000
0000
0100
0000
3100
0000
0000
0000
0000
0000
0000
0000
,
0102
0000
0000
0100
0000
0000
0100
0000
0103
0000
0000
0000
0000
0000
0000
0000
,
2010
0000
0000
0010
0000
0000
0010
0000
3010
0000
0000
0000
0000
0000
0000
0000
,
0012
0010
0010
0013
,
0010
0100
0001
0000
0100
1000
0010
0000
,
1000
0010
0100
0000
0001
0100
0010
0000
,
2000
0001
0010
3100
,
0010
0000
0000
0010
0000
0000
0100
0000
0000
0100
0000
0000
1001
0000
0000
0000
,
1000
0000
0000
0100
0000
0000
0010
0000
0000
0000
0001
0000
0100
0000
0000
0000
,
0010
0000
0000
0100
0000
0000
0001
0000
1000
0000
0000
0000
1001
0000
0000
0000
,
0001
0000
0000
0010
0000
0000
1000
0000
0000
0000
1000
0000
0100
0000
0000
0000
,
0010
0000
0000
1000
0000
0000
0001
0000
0100
0000
0000
0000
1001
0000
0000
0000
,
1000
0000
0010
0000
0000
0100
0000
0000
0000
0000
0001
0000
0010
0000
0000
0000
,
1000
0000
0000
0100
0000
0000
0001
0000
0010
0000
0000
0000
1001
0000
0000
0000
,
0001
0000
0000
0010
0000
0000
0100
0000
0000
0000
1000
0000
0100
0000
0000
0000
,
0001
0000
0000
0100
0000
0000
1000
0000
0010
0000
0000
0000
1001
0000
0000
0000
,
1000
0000
0000
0100
0000
0000
0010
0000
0000
0000
0001
0000
0100
0000
0010
0000
,
0100
0010
0001
1001
,
0001
0000
0000
0100
0000
0000
0010
0000
0000
0000
1000
0000
0010
0000
0100
0000
,
0010
1000
0001
1001
,
0100
0000
0000
1000
0000
0000
0010
0000
0000
0000
0001
0000
0100
0000
0010
0000
,
1000
0000
0000
0010
0000
0000
1000
0000
0001
0000
0000
0000
1001
0000
0000
0000
,
1000
0000
0000
0001
0000
0000
0100
0000
0000
0000
0010
0000
1000
0000
0001
0000
,
0010
0000
0000
1000
0000
0000
0100
0000
0001
0000
0000
0010
0000
0000
0100
0000
,
2000
0000
0010
0000
,
0100
0000
0000
0000
3010
0000
0001
0100
,
0020
0000
0001
0000
,
0100
0000
0031
1001
,
1000
0000
0000
0100
0000
0000
0010
0000
0000
0000
0001
0000
0100
0000
0010
0000
,
1000
0000
0000
0001
0000
0000
0010
0000
1000
0000
0000
0000
1001
0000
0000
0000
,
1000
0000
0000
0100
0000
0000
0001
0000
0000
0000
0010
0000
1000
0000
0001
0000
,
0010
0000
0000
1000
0000
0000
0100
0000
0001
0000
0000
0000
1001
0000
0000
0000
,
0010
0000
0000
1000
0000
0000
0100
0000
0000
0000
0001
0000
0100
0000
0010
0000
,
1000
0000
0000
0010
0000
0000
0100
0000
0001
0000
0000
0000
1001
0000
0000
0000
,
0001
0000
0000
0100
0000
0000
1000
0000
0000
0000
1000
0000
0010
0000
0100
0000
,
0001
0000
0000
0010
0000
0000
0100
0000
1000
0000
0000
0010
0000
0000
0100
0000
,
2001
0000
0100
0000
,
0010
0000
0100
0000
,
3002
0000
0010
0000
,
0100
0000
0010
0003
,
2200
0000
0000
0000
,
0000
0000
0000
0000
,
3300
0000
0000
0000
;

//---------------dance-single - ----------------
#NOTES:
     dance-single:
     :
     Hard:
     14:
     0.506956,0.714572,0.469477,0.138082,0.241643,514.000000,446.000000,68.000000,20.000000,0.000000,0.000000,0.506956,0.714572,0.469477,0.138082,0.241643,514.000000,446.000000,68.000000,20.000000,0.000000,0.000000:
// measure 0
0000
0000
0000
0000
,  // measure 1
0000
0000
0000
0000
,  // measure 2
0000
0000
0000
0000
,  // measure 3
0000
0000
0000
0000
,  // measure 4
0000
0000
0000
0000
,  // measure 5
0000
0000
0000
0000
,  // measure 6
0000
0000
0000
0000
,  // measure 7
0000
0000
0000
0000
,  // measure 8
0000
0000
0000
0000
,  // measure 9
0000
0000
0000
0000
,  // measure 10
1000
0000
0000
0010
0000
0000
0100
0000
0000
0000
0001
0000
0100
0000
0010
0000
,  // measure 11
1000
0000
0000
0100
0000
0000
0010
0000
0001
0000
0000
0000
1001
0000
0000
0000
,  // measure 12
0010
0000
0000
0100
0000
0000
0001
0000
0000
0000
0100
0000
0010
0000
1000
0000
,  // measure 13
0100
0000
0000
0001
0000
0000
0100
0000
0010
0000
0000
0000
1001
0000
0000
0000
,  // measure 14
1000
0000
0000
0100
0000
0000
0010
0000
0000
0000
0001
0000
0100
0000
0010
0000
,  // measure 15
1000
0000
0000
0001
0000
0000
1000
0000
0010
0000
0000
0000
1001
0000
0000
0000
,  // measure 16
1000
0000
0000
0100
0000
0000
0010
0000
0000
0000
0001
0000
0010
0000
0100
0000
,  // measure 17
1000
0000
0000
0010
0000
0000
0100
0000
0001
0000
0000
0010
0000
0000
0100
0000
,  // measure 18
2000
0010
0100
3010
,  // measure 19
0002
0100
0010
0103
,  // measure 20
0101
0000
0000
0100
0000
0000
1000
0000
0000
0000
1000
0000
0100
0000
0010
0000
,  // measure 21
0001
0000
0000
0010
0000
0000
0100
0000
1000
0000
0000
0000
1001
0000
0000
0000
,  // measure 22
1000
0000
0000
0100
0000
0000
0010
0000
0000
0000
0001
0000
0100
0000
0010
0000
,  // measure 23
1000
0000
0000
0100
0000
0000
0001
0000
0010
0000
0000
0000
1001
0000
0000
0000
,  // measure 24
0001
0000
0000
0010
0000
0000
0100
0000
0000
0000
1000
0000
0100
0000
0010
0000
,  // measure 25
0001
0000
0000
0100
0000
0000
0010
0000
1000
0000
0000
0000
1001
0000
0000
0000
,  // measure 26
1100
0000
0000
0100
0000
0000
0101
0000
0000
0010
0001
0000
0010
0000
0100
0000
,  // measure 27
0001
0000
0000
0011
0000
0000
0010
0000
0100
0000
0000
0110
0000
0000
1000
0000
,  // measure 28
2100
0100
0100
3100
,  // measure 29
0102
0000
0100
0000
0100
0000
0103
0010
,  // measure 30
2010
0000
0000
0000
0010
0000
0000
0000
0010
0000
0000
0000
3010
0000
0001
0010
,  // measure 31
0001
0000
0000
1000
0001
0100
0010
0000
0000
0010
0100
0001
1000
0000
0001
0000
,  // measure 32
0100
0000
0010
0000
1000
0000
0010
1000
,  // measure 33
0001
0000
0000
0100
0000
0000
1000
0000
0010
0000
0000
0000
0001
0000
0000
0000
,  // measure 34
1000
0000
0010
0000
0100
0000
0000
0000
0001
0000
0000
0100
0000
0000
1000
0000
,  // measure 35
0100
0000
0010
0000
0100
0000
0001
0000
1000
0000
0000
0100
0000
0000
0010
0000
,  // measure 36
1000
0000
0001
0000
1000
0000
0010
0100
,  // measure 37
0001
0000
0000
0010
0000
0000
0100
0000
1000
0000
0000
0100
0000
0000
0010
0000
,  // measure 38
2000
0000
0001
3001
,  // measure 39
0010
0220
0330
1001
,  // measure 40
0010
0000
0100
0000
0001
0000
0000
0000
0100
0000
1000
0000
0010
0000
0000
1000
,  // measure 41
0100
0000
0001
0000
1000
0000
0000
0000
0010
0000
1000
0000
0001
0000
0000
0001
,  // measure 42
0100
1000
0001
0000
0010
1000
0100
0001
,  // measure 43
0010
0000
0000
0000
0100
0000
0001
0000
0010
0000
0000
1000
0100
0000
1000
0000
,  // measure 44
0001
0000
0100
0000
0010
0000
0000
0000
1000
0000
0010
0000
0100
0000
0000
0010
,  // measure 45
0001
0100
1000
0010
0100
0001
0010
0000
,  // measure 46
1000
0010
0100
0001
0010
0100
1000
0010
,  // measure 47
0200
0001
1000
0301
,  // measure 48
0010
0000
0000
0011
0000
0000
1000
0000
1010
0000
0000
0000
1001
0000
0000
0000
,  // measure 49
0100
0000
0000
1100
0000
0000
1000
0000
0101
0000
0000
0000
1001
0000
0000
0000
,  // measure 50
0010
0000
0000
0110
0000
0000
1010
0000
0010
0000
0000
0110
0000
0000
0101
0000
,  // measure 51
0010
0000
0000
0000
0011
0000
0000
0010
0100
1000
0001
0000
0010
0000
0100
0000
,  // measure 52
2000
0100
0100
3100
,  // measure 53
0002
0100
0100
0103
,  // measure 54
0200
0000
0020
0330
,  // measure 55
0011
0000
0000
0110
0000
0000
1100
0000
0000
1001
0000
0000
0110
0000
0000
0000
,  // measure 56
1100
0000
0000
0100
0000
0000
0001
0000
0000
0000
0010
0000
0100
0000
0001
0000
,  // measure 57
1000
0000
0000
0010
0000
0000
0001
0000
0011
0000
0000
0000
0101
0000
0000
0000
,  // measure 58
0110
0000
0000
0001
0000
0000
1000
0000
0000
0000
0100
0000
0010
0000
1000
0000
,  // measure 59
0100
0000
0000
0001
0000
0000
0100
0000
0110
0000
0000
0000
1001
0000
0000
0000
,  // measure 60
1100
0000
0000
1000
0000
0000
1001
0000
0000
0000
0010
0000
0100
0000
0001
0000
,  // measure 61
0011
0000
0000
0010
0000
0000
0100
0000
0110
0000
0000
0000
0101
0000
0000
0000
,  // measure 62
1100
0000
0000
0101
0000
0000
1010
0000
0000
0000
0001
0000
0100
0000
0010
0000
,  // measure 63
0011
0000
0000
0110
0000
0000
1100
0000
1001
0000
0000
0000
0110
0000
0000
0000
,  // measure 64
1001
0000
0000
0100
0001
0000
0010
0000
0100
0000
1000
0000
0001
0000
0010
0000
,  // measure 65
1000
0000
0000
0010
1000
0000
0001
0000
0100
0000
0000
0000
1001
0000
0000
0000
,  // measure 66
0010
0000
0000
1000
0001
0000
0100
0000
0010
0000
1000
0000
0001
0000
0100
0000
,  // measure 67
0010
0000
0000
0001
0010
0000
0100
0000
0010
0000
0000
0000
1001
0000
0000
0000
,  // measure 68
1100
0000
0000
1000
0100
0000
0010
0000
0100
0000
0001
0000
0010
0000
1000
0000
,  // measure 69
0001
0000
0000
0001
1000
0000
0010
0000
0100
0000
0000
0000
1001
0000
0000
0000
,  // measure 70
1000
0000
0000
1000
0100
0000
1000
0000
0000
0010
0100
0010
1000
0000
0100
0000
,  // measure 71
0010
0000
0000
0001
0010
0000
1000
0000
0000
0100
0010
0100
0001
0000
0000
0000
,  // measure 72
2000
0010
0100
3010
,  // measure 73
0002
0100
0010
0103
,  // measure 74
2000
0100
0010
3001
,  // measure 75
0002
0010
0100
1003
,  // measure 76
1001
0000
0000
0010
1000
0000
0001
0000
0100
0000
0010
0000
1000
0000
0100
0000
,  // measure 77
0010
0000
0000
0010
0001
0000
0100
0000
1010
0000
0000
0000
1100
0000
0001
0000
,  // measure 78
1000
0000
0000
0010
1000
0000
0100
0000
0001
0000
0010
0000
0100
0000
1000
0000
,  // measure 79
0010
0000
0000
0100
0001
0000
1000
0000
0010
0000
1000
0001
0100
0000
0010
0000
,  // measure 80
1000
0001
0100
0010
1000
0001
0010
0100
,  // measure 81
1000
0010
1000
0100
0001
0010
0100
1000
,  // measure 82
0001
0000
0000
1100
0000
0000
0101
0000
0000
0001
0100
0000
1000
0000
0001
0000
,  // measure 83
0011
0000
0000
0110
0000
0000
1100
0000
1001
0000
0000
1010
0000
0000
0101
0000
,  // measure 84
0120
0000
0001
0000
,  // measure 85
0100
0000
0001
0000
,  // measure 86
0230
0000
0010
0000
,  // measure 87
1000
0000
0010
0000
,  // measure 88
0002
0000
0000
0000
,  // measure 89
0000
0000
0000
0000
,  // measure 90
0303
0000
0000
0000
;
