#TITLE:Infinity Rise;
#SUBTITLE:;
#ARTIST:Ryu☆ feat. kradness & Kanae Asaba;
#TITLETRANSLIT:;
#SUBTITLETRANSLIT:;
#ARTISTTRANSLIT:;
#GENRE:DDR;
#CREDIT:;
#BANNER:;
#BACKGROUND:;
#LYRICSPATH:;
#CDTITLE:;
#MUSIC:Infinity Rise.ogg;
#OFFSET:1.820000;
#SAMPLESTART:108.939705;
#SAMPLELENGTH:15.000000;
#LASTBEATHINT:1.669778;
#SELECTABLE:YES;
#BPMS:0.000000=130.000000
;
#STOPS:
;
#BGCHANGES:;
#KEYSOUNDS:;
#ATTACKS:;

//---------------dance-single - ----------------
#NOTES:
     dance-single:
     :
     Hard:
     11:
     0.412816,0.399853,0.208393,0.305643,0.076411,342.000000,30.000000,44.000000,0.000000,0.000000,0.000000,0.412816,0.399853,0.208393,0.305643,0.076411,342.000000,30.000000,44.000000,0.000000,0.000000,0.000000:
0000
0000
0000
0000
,
0000
0000
0000
0000
,
0000
0000
0000
0000
,
0000
0000
0000
0000
,
0000
0000
0000
0000
,
2000
0000
3200
0000
,
0320
0000
0032
0000
,
1003
0100
0010
0001
,
1000
0010
0100
0010
0001
0010
1000
0000
,
0001
0000
1000
0000
0010
1000
0100
0000
,
0010
0100
0001
0000
0001
0100
1000
0000
,
0010
1000
0100
0010
0001
0010
0100
0000
,
0001
0100
0010
1000
0100
1000
0100
0000
,
0010
0100
1000
0000
0100
0010
0001
0000
,
0001
0010
0100
0000
0100
0010
1000
0000
,
1000
0100
0001
0100
1000
0100
0010
0000
,
1000
0010
0001
0010
1000
0010
0100
0000
,
0001
0000
1100
0000
1000
0100
0001
0000
,
0010
0000
0011
0000
0001
0100
1000
0000
,
2000
0100
0100
3100
,
0002
0100
0100
0103
,
0010
1000
0001
0000
0010
0100
0001
0000
,
0001
0100
1000
0000
1000
0010
0001
0000
,
0001
0100
1000
0100
0001
0010
1000
0010
,
0001
0100
1000
0010
1000
0100
0001
0010
,
1000
0000
0000
0100
0000
0000
2100
0000
0000
0000
0000
0000
0000
0000
3200
0000
,
0000
0000
0000
0000
0000
0000
0020
0300
0000
0000
0000
0000
0032
0000
0000
0000
,
0013
0000
0000
0001
0000
0000
0021
0000
0000
0000
0000
0000
0000
0000
0032
0000
,
0000
0000
0000
0203
0000
0000
0320
0000
,
1030
0000
0000
0100
0000
0000
2000
0000
0000
0000
0000
0000
0000
0000
3020
0000
,
0000
0000
0000
0032
0000
0000
0203
0000
,
0310
0000
0000
1000
0000
0000
2100
0000
0000
0000
0000
0000
0000
0000
0200
0000
,
0000
0000
0000
0000
,
3000
0000
0000
0301
,
0010
0000
0000
1000
0000
0000
0100
0000
0010
0000
0001
0000
0010
0000
0000
0000
,
0001
0000
0100
0000
0010
1000
0001
0000
,
0001
0000
0000
0100
0000
0000
1000
0000
0010
0000
1000
0000
0100
0000
0000
0000
,
0001
0100
1000
0000
1000
0100
0010
0000
,
0001
0000
0000
0100
0000
0000
1000
0000
0010
0000
1000
0000
0100
0000
0000
0000
,
0001
0100
1000
0000
0010
1000
0100
0000
,
0001
0000
0000
0100
0000
0000
1100
0000
0000
0000
1000
0000
0001
0000
0101
0000
,
0000
0001
0010
1000
0100
0010
0001
0000
,
1000
0001
1000
0001
1000
0001
0200
0000
,
0320
0000
2030
0000
,
3002
0000
0203
0000
,
0320
0000
2030
0000
,
3002
0000
0203
0000
,
0310
0001
0100
0000
1000
0100
0001
0000
,
0010
0100
1000
0000
0010
0100
0001
0000
,
0001
0100
1000
0100
0001
0100
1000
0000
,
1000
0010
0001
0010
1000
0010
0001
0000
,
1100
0000
0000
1000
0000
0000
1002
0000
0000
0000
0000
0000
0000
0000
0203
0000
,
0000
0320
0000
2030
0000
0000
3001
0000
,
0011
0000
0000
0010
0000
0000
0210
0000
0000
0000
0000
0000
0000
0000
0302
0000
,
0000
0000
0023
0000
0000
0030
2000
0000
0000
0000
0000
3000
0001
0000
0000
0000
,
1100
0000
0000
0101
0000
0000
2020
0000
0000
0000
3030
0000
0000
0000
1001
0000
,
0000
0011
0000
1100
0000
1001
0000
0000
,
0011
0000
0000
1100
0000
0000
0201
0000
0000
0000
0000
0000
0000
0000
0002
0000
,
0000
0000
0000
0000
,
0300
0000
0000
1003
,
1000
0100
1000
0100
0010
0000
1001
0000
,
0001
0010
0100
0000
0010
0100
1000
0000
,
0010
0001
0010
0001
0100
0000
1001
0000
,
1000
0100
0001
0000
0001
0010
1000
0000
,
1000
0100
0010
0100
0001
0000
0011
0000
,
0001
0100
1000
0000
1000
0100
0001
0000
,
0010
0000
0000
0100
0000
0000
0210
0000
0000
0000
0000
0000
0000
0000
0302
0000
,
0000
1000
1000
1003
,
1000
0100
0000
0100
0000
0000
0110
0000
0000
0000
0000
0000
0001
0000
0010
0000
,
1000
0000
0001
1000
0100
0000
0010
0000
,
0001
0010
0000
0010
0000
0000
1001
0000
0000
0000
1000
0000
0100
0000
0001
0000
,
0000
0001
0010
1000
0000
1000
0100
0001
,
0100
0001
0000
0001
0000
0000
0110
0000
0000
0000
0001
0000
0100
0000
1000
0000
,
0000
1000
0100
0001
0010
1000
0001
0000
,
0001
0100
0000
0100
0000
0010
1000
0000
0000
0000
0001
0000
1000
0000
2100
0000
,
0000
0000
0000
0000
,
0100
0000
0100
0000
3100
0010
0110
0000
;

//---------------dance-single - ----------------
#NOTES:
     dance-single:
     :
     Medium:
     8:
     0.301673,0.373197,0.159768,0.222286,0.041679,249.000000,23.000000,32.000000,0.000000,0.000000,0.000000,0.301673,0.373197,0.159768,0.222286,0.041679,249.000000,23.000000,32.000000,0.000000,0.000000,0.000000:
0000
0000
0000
0000
,
0000
0000
0000
0000
,
0000
0000
0000
0000
,
0000
0000
0000
0000
,
0000
0000
0000
0000
,
0002
0000
0203
0000
,
0320
0000
0000
0000
0000
0000
0000
0000
2030
0000
0000
0000
0000
0000
0000
3000
,
0001
0100
0010
1000
,
0001
0100
0010
0000
1000
0000
1001
0000
,
1000
0000
0100
0000
0010
1000
0001
0000
,
0010
0000
0100
0000
0001
0100
1000
0000
,
0010
0000
1000
0000
0001
1000
0100
0000
,
0010
0100
0001
1001
,
0010
1000
0100
0000
0010
0100
0001
0000
,
0010
0010
0100
0100
,
1000
0100
0010
0001
,
0100
0001
0100
0000
1100
0000
0000
0000
,
1000
0010
0100
0001
,
0010
0100
1000
0000
0010
0100
0001
0000
,
2000
3200
0000
0010
,
0310
0001
0010
1000
,
0001
0100
0001
0000
1000
0100
1000
0000
,
0010
1000
0010
0000
0001
0010
0001
0000
,
0001
0100
1000
0010
,
1000
0100
0001
0000
0010
0000
0110
0000
,
1000
0000
0000
0100
0000
0000
2000
0000
0000
0000
0000
0000
0000
0000
0020
0000
,
0000
0000
0000
3030
,
0001
0000
0000
0100
0000
0000
0002
0000
0000
0000
0000
0000
0000
0000
0200
0000
,
0000
0000
0000
0303
,
1000
0000
0000
0010
0000
0000
2000
0000
0000
0000
0000
0000
0000
0000
0020
0000
,
0000
0000
0000
3030
,
0001
0000
0000
0010
0000
0000
0002
0000
0000
0000
0000
0000
0000
0000
0020
0000
,
0000
0000
0000
0000
,
0033
0000
0000
0110
,
1000
0000
0100
0000
0001
0100
0001
0000
,
0010
1000
0001
0100
,
1000
0000
0010
0000
0001
0010
0001
0000
,
0100
0001
0010
1000
,
0001
0000
0100
0000
1000
0100
1000
0000
,
0010
1000
0001
0100
,
0001
0000
0000
0100
0000
0000
2000
0000
0000
0000
0000
0000
0000
0000
0020
0000
,
0000
0000
0000
0000
,
3030
0000
0000
1001
,
0200
0000
0010
0000
,
0302
0000
1000
0000
,
0023
0000
0100
0000
,
2030
0000
0001
0000
,
3100
0001
0100
0001
,
1000
0100
1000
0100
,
0010
0100
0010
0100
,
0001
0100
0001
1100
,
1000
0000
0000
0100
0000
0000
2100
0000
0000
0000
0000
0000
0000
0000
0200
0000
,
0000
0000
0000
3300
,
0001
0000
0000
0100
0000
0000
0102
0000
0000
0000
0000
0000
0000
0000
0200
0000
,
0000
0000
0000
0303
,
0010
0000
0000
0100
0000
0000
0210
0000
0000
0000
0000
0000
0000
0000
0020
0000
,
0000
0000
0000
0330
,
0001
0000
0000
1000
0000
0000
2001
0000
0000
0000
0000
0000
0000
0000
0002
0000
,
0000
0000
0000
0000
,
3003
0000
0000
0110
,
0001
0100
1000
0000
0010
0000
1001
0000
,
1000
0100
0001
0000
0010
0000
1001
0000
,
0001
0100
0010
0000
1000
0010
0100
0000
,
0001
0000
0100
0000
1000
0000
0100
0000
0001
0000
0000
0000
1100
0000
0000
0100
,
0000
0001
0010
0000
1000
0000
1001
0000
,
0001
1000
0010
0000
0001
0000
1001
0000
,
1000
0000
0000
0100
0000
0000
0002
0000
0000
0000
0000
0000
0000
0000
0020
0000
,
0000
0000
0000
0033
,
0001
0100
0001
0100
1000
0000
1100
0000
,
1000
0010
1001
0000
,
1000
0100
1000
0100
0001
0000
0011
0000
,
0001
0100
1001
0000
,
0010
0100
0010
0100
0001
0000
1000
0000
,
0100
0001
1100
0010
,
1000
0000
0000
0010
0000
0000
0200
0000
0000
0000
0000
0000
0000
0000
0002
0000
,
0000
0000
0000
0000
,
0303
0000
0000
0000
0001
1000
1001
0000
;

//---------------dance-single - ----------------
#NOTES:
     dance-single:
     :
     Easy:
     6:
     0.239155,0.293226,0.097250,0.187553,0.000000,200.000000,14.000000,27.000000,0.000000,0.000000,0.000000,0.239155,0.293226,0.097250,0.187553,0.000000,200.000000,14.000000,27.000000,0.000000,0.000000,0.000000:
0000
0000
0000
0000
,
0000
0000
0000
0000
,
0000
0000
0000
0000
,
0000
0000
0000
0000
,
0000
0000
0000
0000
,
2000
0000
3020
0000
,
0230
0000
0302
0000
,
0013
0010
0100
0100
,
0001
0001
1000
1001
,
1000
0100
1000
0001
,
0010
0010
0001
0000
,
0001
0010
0001
0100
,
1000
1000
0010
0000
,
1000
0100
0010
0000
,
0001
0010
0100
0000
,
1000
0100
0001
0000
,
0001
0010
1000
0000
,
1000
0100
0010
0100
,
1000
0100
0010
0100
,
1000
2000
0000
0000
,
3100
0000
0010
0000
,
0001
0010
0100
0010
,
0001
0010
0100
0010
,
0002
0000
0023
0000
,
0230
0000
2300
0000
,
3100
1000
2100
0000
,
0100
0000
3100
0000
,
0001
0100
0102
0000
,
0100
0000
0103
0000
,
0010
0100
0210
0000
,
0010
0000
0310
0000
,
1000
0001
1002
0000
,
2000
0000
0000
0000
,
0000
0000
0000
3003
,
1000
0100
1000
0000
,
0001
0100
0001
0000
,
1000
0010
1000
0000
,
0001
0010
0001
0000
,
0100
0010
0100
0000
,
0001
1000
0001
0000
,
1000
0100
0001
0010
,
2100
0000
0100
0000
,
0100
0000
0200
3300
,
0002
0000
0000
0000
,
0013
0000
0010
0000
,
2000
0000
0000
0000
,
3100
0000
0100
0000
,
0100
0001
0010
0000
,
1000
0010
0100
0000
,
0011
0100
1000
0000
,
1001
1000
0100
0000
,
0011
0000
0100
0000
,
1100
0000
1000
0000
,
0011
0000
0001
0000
,
0110
0000
1000
0000
,
1000
0000
0100
0000
,
0010
0000
0001
0100
,
1000
0000
0010
0000
,
0002
0100
0100
0100
,
0200
0000
0000
0303
,
0001
0100
0010
0000
,
0100
0001
0100
0000
,
1000
0100
0010
0000
,
1000
0010
0001
0000
,
0010
0100
0001
0000
,
0010
1000
0100
1100
,
0002
0023
0230
0000
,
2300
0100
0100
3100
,
0001
0100
1000
0100
,
0001
0010
1000
0010
,
1000
0010
0001
0010
,
1000
0100
0001
0100
,
1000
0010
0100
0001
,
0100
0010
1000
0001
,
0200
0001
0020
0300
,
2000
0000
0000
0000
,
0000
0000
3030
1001
;

//---------------dance-single - ----------------
#NOTES:
     dance-single:
     :
     Beginner:
     2:
     0.101219,0.106628,0.006946,0.062518,0.000000,92.000000,1.000000,9.000000,0.000000,0.000000,0.000000,0.101219,0.106628,0.006946,0.062518,0.000000,92.000000,1.000000,9.000000,0.000000,0.000000,0.000000:
// measure 0
0000
0000
0000
0000
,  // measure 1
0000
0000
0000
0000
,  // measure 2
0000
0000
0000
0000
,  // measure 3
0000
0000
0000
0000
,  // measure 4
0000
0000
0000
0000
,  // measure 5
1000
0000
0000
0000
,  // measure 6
0001
0000
0000
0000
,  // measure 7
1000
0000
0001
0000
,  // measure 8
1000
0000
0001
0000
,  // measure 9
1000
0000
0100
0000
,  // measure 10
0010
0000
0000
0000
,  // measure 11
0001
0000
0010
0000
,  // measure 12
0100
0000
0000
0000
,  // measure 13
1000
0000
0100
0000
,  // measure 14
0001
0000
0000
0000
,  // measure 15
0001
0000
0010
0000
,  // measure 16
1000
0000
0000
0000
,  // measure 17
0100
0000
1000
0000
,  // measure 18
0100
0000
1000
0000
,  // measure 19
0100
0000
0000
0000
,  // measure 20
0001
0000
0000
0000
,  // measure 21
0001
0000
0010
0000
,  // measure 22
0001
0000
0010
0000
,  // measure 23
0001
0000
0000
0000
,  // measure 24
1000
0000
0000
0000
,  // measure 25
0200
0000
0000
0000
,  // measure 26
0300
0000
0000
0000
,  // measure 27
0200
0000
0000
0000
,  // measure 28
0300
0000
0000
0000
,  // measure 29
0020
0000
0000
0000
,  // measure 30
0030
0000
0000
0000
,  // measure 31
0020
0000
0000
0000
,  // measure 32
0030
0000
0000
0000
,  // measure 33
0000
0000
0000
0000
,  // measure 34
1000
0000
0100
0000
,  // measure 35
0001
0000
0000
0000
,  // measure 36
0001
0000
0010
0000
,  // measure 37
1000
0000
0000
0000
,  // measure 38
0100
0000
0010
0000
,  // measure 39
1000
0000
0000
0000
,  // measure 40
0001
0000
0100
0000
,  // measure 41
0010
0000
0000
0000
,  // measure 42
0010
0000
0000
0000
,  // measure 43
0100
0000
0000
0000
,  // measure 44
1000
0000
0000
0000
,  // measure 45
0001
0000
0000
0000
,  // measure 46
0010
0000
0000
0000
,  // measure 47
0100
0000
0100
0000
,  // measure 48
0010
0000
0010
0000
,  // measure 49
1000
0000
0100
0000
,  // measure 50
0001
0000
0010
0000
,  // measure 51
2000
0000
0000
0000
,  // measure 52
3000
0000
0000
0000
,  // measure 53
0002
0000
0000
0000
,  // measure 54
0003
0000
0000
0000
,  // measure 55
0020
0000
0000
0000
,  // measure 56
0030
0000
0000
0000
,  // measure 57
0200
0000
0000
0000
,  // measure 58
0300
0000
0000
0000
,  // measure 59
0100
0000
0000
0000
,  // measure 60
1000
0000
0100
0000
,  // measure 61
0001
0000
0000
0000
,  // measure 62
0001
0000
0010
0000
,  // measure 63
1000
0000
0000
0000
,  // measure 64
1000
0000
0100
0000
,  // measure 65
0010
0000
0000
0000
,  // measure 66
0001
0000
0010
0000
,  // measure 67
0100
0000
0000
0000
,  // measure 68
1000
0000
0100
0000
,  // measure 69
0001
0000
0010
0000
,  // measure 70
1000
0000
0100
0000
,  // measure 71
0001
0000
0010
0000
,  // measure 72
1000
0000
0100
0000
,  // measure 73
0001
0000
0010
0000
,  // measure 74
1000
0000
0100
0000
,  // measure 75
2000
0000
0000
0000
,  // measure 76
3000
0000
0000
1001
;
