#TITLE:Indigo Bird;
#SUBTITLE:;
#ARTIST:猫叉Master feat.Sana;
#TITLETRANSLIT:;
#SUBTITLETRANSLIT:;
#ARTISTTRANSLIT:Nekomata Master feat.Sana;
#GENRE:DDR;
#CREDIT:Nanolite;
#BANNER:;
#BACKGROUND:;
#LYRICSPATH:;
#CDTITLE:;
#MUSIC:Indigo Bird.ogg;
#OFFSET:2.705997;
#SAMPLESTART:66.819626;
#SAMPLELENGTH:15.000000;
#LASTBEATHINT:2.398879;
#SELECTABLE:YES;
#DISPLAYBPM:88.000000;
#BPMS:0.000000=88.000000
;
#STOPS:
;
#BGCHANGES:;
#KEYSOUNDS:;
#ATTACKS:;

//---------------dance-single - ----------------
#NOTES:
     dance-single:
     :
     Hard:
     11:
     0.368281,0.378661,0.271365,0.049988,0.085694,361.000000,323.000000,38.000000,7.000000,0.000000,0.000000,0.368281,0.378661,0.271365,0.049988,0.085694,361.000000,323.000000,38.000000,7.000000,0.000000,0.000000:
0000
0000
0000
0000
,
0000
0000
0000
0000
,
0000
0000
0000
0000
,
0000
0000
0000
0000
,
0000
0000
0000
0000
,
0001
0000
0000
1000
0010
0000
0100
0000
0001
0000
0000
1000
0010
0000
0100
0000
,
0001
0000
0000
0001
0010
0000
0100
0000
1000
0000
0000
0001
0010
0000
0100
0000
,
1000
0000
0000
0010
0100
0000
0001
0000
1000
0000
0000
0010
0100
0000
0001
0000
,
2000
0000
0000
0000
0000
0100
3100
0000
,
1000
0100
0010
0010
0100
0001
0010
0010
,
1000
0001
1001
0000
0010
0100
0110
0000
,
0001
0100
0010
0010
1000
0100
0010
0010
,
0100
1000
1100
0000
0010
0001
0011
0000
,
0100
1000
0001
0001
0100
0010
1000
1000
,
0010
0100
0001
0010
1100
0000
0101
0000
,
0010
0100
0010
0100
0001
1000
0001
1000
,
1100
0000
0011
0000
0110
0010
1001
0000
,
2001
0001
0000
0001
0000
0010
0000
3010
,
1002
1000
0000
1000
0000
0100
0000
0103
,
1001
0010
0000
0100
0000
0010
0000
0100
,
1001
0010
0000
0010
1001
0100
0000
0100
,
1001
0010
0010
1000
0000
0010
0010
0001
,
0011
0001
0010
0100
0000
0100
0100
0010
,
1100
1000
1000
0100
0000
0010
0100
0001
,
0010
0000
0100
0000
0010
0000
0100
0002
,
0000
0000
0000
0000
1000
0000
1003
0000
0010
0000
1000
0000
0010
0100
0010
0000
,
1000
0000
0010
0000
0100
0000
0001
0000
0010
0000
0100
0000
1000
0001
1000
0000
,
0010
0000
1000
0000
0100
0000
0010
0000
0001
0000
1000
0000
0100
0010
0100
0000
,
0001
0000
1000
0000
0100
0000
0010
0000
0001
0000
1000
0000
0001
1000
0001
0000
,
0100
0000
0001
0000
1000
0000
0100
0000
0010
0000
1000
0000
0100
0010
1000
0000
,
0001
0000
1000
0000
0010
0000
1000
0000
0100
0000
0010
0000
0100
0001
1000
0000
,
0010
0000
1000
0000
0100
0000
0010
0000
0100
0000
0001
0000
1000
0010
0100
0000
,
0001
0000
1000
0000
0010
0000
1000
0000
0100
0000
0010
0000
0001
1000
0010
0000
,
0100
0000
0010
0000
0110
0000
0000
0000
0001
0000
0100
0000
1000
0100
1000
0000
,
0010
0000
1000
0000
0100
0000
0010
0000
0001
0000
0100
0000
0010
0100
0010
0000
,
1000
0000
0100
0000
0010
0000
0001
0000
0100
0000
0010
0000
0001
0010
0001
0000
,
0100
0000
0010
0000
0001
0000
1000
0000
0100
0000
1000
0000
0100
1000
0100
0000
,
0010
0000
0100
0000
0001
0000
1000
0000
1000
0000
0100
0000
0010
0100
1000
0000
,
0001
0000
0100
0000
1000
0000
0010
0000
0001
0000
0100
0000
0001
1000
0100
0000
,
0010
0000
1000
0000
0010
0000
0100
0000
0010
0000
1000
0000
0100
0001
0010
0000
,
0001
0000
0100
0000
1000
0010
0100
0000
0020
0000
0000
0000
0100
0000
0000
0000
,
0001
0000
0100
0000
1030
0010
0101
0000
,
0110
0000
1100
0000
0001
0010
1010
0000
,
0110
0000
0101
0000
1001
0010
1000
0100
,
0010
0000
0001
0000
0100
0000
0010
0000
1000
0000
0001
1000
0001
0000
0100
0000
,
1001
0100
1010
0000
0001
0100
1010
0000
,
0110
0000
0011
0000
1000
0100
0101
0000
,
0110
0000
1010
0000
1001
0100
0001
0010
,
0100
0000
1000
0000
0010
0000
0100
0000
0001
0000
1000
0001
1000
0000
0010
0000
,
1001
0010
0101
0000
0220
0000
0000
0000
,
0000
0000
0330
0000
;

//---------------dance-single - ----------------
#NOTES:
     dance-single:
     :
     Medium:
     8:
     0.273405,0.306535,0.249941,0.078553,0.000000,268.000000,233.000000,35.000000,11.000000,0.000000,0.000000,0.273405,0.306535,0.249941,0.078553,0.000000,268.000000,233.000000,35.000000,11.000000,0.000000,0.000000:
0000
0000
0000
0000
,
0000
0000
0000
0000
,
0000
0000
0000
0000
,
0000
0000
0000
0000
,
0000
0000
0000
0000
,
1000
0100
0100
0000
0001
0000
1001
0000
,
0001
0010
0010
0000
0100
0000
0110
0000
,
1000
0100
0010
0000
0001
0010
0100
0000
,
2002
0000
0000
3003
,
1000
0100
1000
0100
0010
0000
0010
0000
,
0001
0010
0001
0010
0100
0000
0100
0000
,
1000
0001
1000
0001
0010
0000
0010
0000
,
0001
1000
0001
1000
0100
0000
0100
0000
,
1000
0100
0010
0000
0001
0010
0100
0000
,
1000
0001
0100
0010
1000
0000
1100
0000
,
0010
1000
0100
0000
0010
0100
0001
0000
,
0100
1000
0010
0001
0100
0000
1001
0000
,
0020
0100
0000
0031
,
0200
0010
0000
1300
,
0002
0100
0000
0013
,
2000
0010
0000
3100
,
0010
0100
0010
0100
0000
1000
1001
0000
,
0100
0010
0100
0010
0000
0001
1001
0000
,
0100
1000
0010
0001
0000
0100
1100
0000
,
0010
0001
0100
1000
0010
0000
0011
0002
,
0000
0000
1000
0000
1003
0100
1000
0000
,
0010
0100
0010
0000
0001
0010
0001
0000
,
1001
0000
1001
0000
0001
0010
0001
0000
,
0100
0010
0100
0000
1000
0100
1000
0000
,
1001
0000
0110
0000
1000
0100
0010
0000
,
0001
0010
0100
0000
1000
0010
0100
0000
,
0011
0000
1001
0000
0010
0100
0001
0000
,
0100
0010
1000
0000
0001
0010
0100
0000
,
1100
0000
1001
0000
0100
1000
0100
1000
,
0010
0000
0010
0000
0100
0001
0100
0001
,
0010
0000
0010
0000
0001
0010
0001
0010
,
0100
0000
0100
0000
1000
0010
1000
0010
,
0100
0000
0100
0000
1000
0100
0010
0001
,
0010
0000
0010
0000
0001
0010
0100
1000
,
0100
0000
0100
0000
1000
0010
0100
0001
,
0100
0010
0220
0000
,
0000
0330
1001
0100
,
1100
0000
0010
0100
0110
0000
0001
0000
,
0011
0000
0100
1000
1001
0000
0100
0000
,
1100
1000
0010
0000
0001
0001
1001
0000
,
1000
1000
1001
0000
1001
0000
0010
0000
,
0011
0000
0100
0010
0110
0000
1000
0000
,
1100
0000
0010
0001
1001
0000
0010
0000
,
0011
0001
0100
0000
1000
1000
1001
0000
,
0001
0001
1001
0000
2002
0000
0000
0000
,
0000
0000
3003
0000
;

//---------------dance-single - ----------------
#NOTES:
     dance-single:
     :
     Easy:
     5:
     0.179550,0.234409,0.107118,0.178529,0.000000,176.000000,161.000000,15.000000,25.000000,0.000000,0.000000,0.179550,0.234409,0.107118,0.178529,0.000000,176.000000,161.000000,15.000000,25.000000,0.000000,0.000000:
0000
0000
0000
0000
,
0000
0000
0000
0000
,
0000
0000
0000
0000
,
0000
0000
0000
0000
,
0000
0000
0000
0000
,
0010
0100
0010
0000
,
1000
0001
1000
0000
,
0001
0010
0001
0000
,
2200
0000
0000
3300
,
1000
0100
0010
0010
,
0001
0010
0200
0300
,
0001
0010
0100
0100
,
1000
0100
0020
0030
,
0001
0100
1000
1000
,
0010
0100
0002
1003
,
0100
0010
0001
0001
,
1000
0010
2000
3001
,
0200
0010
0000
0010
,
0000
1000
0000
1000
,
0000
0001
0000
0001
,
0000
0010
0000
0310
,
0110
1000
0000
1000
,
0110
0001
0000
0001
,
0110
1000
0000
1000
,
1100
0101
1100
0011
,
0000
0000
0001
0100
,
0010
0010
1000
0010
,
0200
0310
1000
0010
,
0100
0100
0001
0100
,
0020
0130
0001
0100
,
0010
0001
0100
0010
,
2000
3100
1000
0010
,
0001
0001
0100
0010
,
0210
0000
0010
0000
0310
0010
0010
0000
,
0100
0000
0100
0000
1000
1000
1000
0000
,
0010
0000
0010
0000
0001
0001
0001
0000
,
0100
0000
0100
0000
1000
1000
1000
0000
,
0010
0000
0010
0000
0100
0100
0100
0000
,
0001
0000
0010
0000
1000
1000
1000
0000
,
0010
0000
0100
0000
0010
0010
0010
0000
,
1000
0001
2002
0000
,
0000
3003
0100
0010
,
0220
0330
0001
1000
,
2002
3003
1000
0100
,
0010
0000
0001
0000
0100
0100
0200
0000
,
0010
0310
0010
0100
,
0220
0330
1000
0001
,
2002
3003
0001
0010
,
0100
0000
1000
0000
0010
0010
0020
0000
,
0100
0130
0220
0000
,
0000
0000
0330
0000
;

//---------------dance-single - ----------------
#NOTES:
     dance-single:
     :
     Beginner:
     2:
     0.070392,0.106046,0.049988,0.007141,0.000000,69.000000,62.000000,7.000000,1.000000,0.000000,0.000000,0.070392,0.106046,0.049988,0.007141,0.000000,69.000000,62.000000,7.000000,1.000000,0.000000,0.000000:
// measure 0
0000
0000
0000
0000
,  // measure 1
0000
0000
0000
0000
,  // measure 2
0000
0000
0000
0000
,  // measure 3
0000
0000
0000
0000
,  // measure 4
0000
0000
0000
0000
,  // measure 5
0001
0000
0000
0000
,  // measure 6
1000
0000
0000
0000
,  // measure 7
0010
0000
0000
0000
,  // measure 8
0100
0000
0000
0000
,  // measure 9
1000
0000
0000
0000
,  // measure 10
0100
0000
0000
0000
,  // measure 11
0010
0000
0000
0000
,  // measure 12
0001
0000
0000
0000
,  // measure 13
1000
0000
0000
0000
,  // measure 14
0010
0000
0000
0000
,  // measure 15
0100
0000
0000
0000
,  // measure 16
0001
0000
0000
0000
,  // measure 17
1001
0000
0000
0000
,  // measure 18
0000
0000
0000
0000
,  // measure 19
0110
0000
0000
0000
,  // measure 20
0000
0000
0000
0000
,  // measure 21
1000
0000
0000
0000
,  // measure 22
0001
0000
0000
0000
,  // measure 23
0100
0000
0000
0000
,  // measure 24
0010
0000
0000
0000
,  // measure 25
0000
0000
1001
0000
,  // measure 26
0100
0000
0100
0000
,  // measure 27
0000
0000
1001
0000
,  // measure 28
0010
0000
0010
0000
,  // measure 29
0000
0000
0110
0000
,  // measure 30
0001
0000
0001
0000
,  // measure 31
0000
0000
0110
0000
,  // measure 32
1000
0000
1000
0000
,  // measure 33
0000
0000
0001
0000
,  // measure 34
0001
0000
0100
0000
,  // measure 35
0100
0000
1000
0000
,  // measure 36
1000
0000
0100
0000
,  // measure 37
0100
0000
0001
0000
,  // measure 38
0001
0000
0010
0000
,  // measure 39
0010
0000
1000
0000
,  // measure 40
1000
0000
0020
0000
,  // measure 41
0030
0000
0100
0000
,  // measure 42
0100
0000
0010
0000
,  // measure 43
0010
0000
1000
0000
,  // measure 44
1000
0000
0001
0000
,  // measure 45
0001
0000
1000
0000
,  // measure 46
1000
0000
0001
0000
,  // measure 47
0001
0000
0010
0000
,  // measure 48
0010
0000
0100
0000
,  // measure 49
0100
0000
1001
0000
;
