#TITLE:IN THE NAVY '99 (XXL Disaster Remix);
#SUBTITLE:;
#ARTIST:CAPTAIN JACK;
#TITLETRANSLIT:;
#SUBTITLETRANSLIT:;
#ARTISTTRANSLIT:;
#GENRE:Dancemania;
#CREDIT:;
#BANNER:IN THE NAVY '99 (XXL Disaster Remix).png;
#BACKGROUND:IN THE NAVY '99 (XXL Disaster Remix)-bg.png;
#LYRICSPATH:;
#CDTITLE:;
#MUSIC:IN THE NAVY '99 (XXL Disaster Remix).ogg;
#OFFSET:-0.782500;
#SAMPLESTART:23.408510;
#SAMPLELENGTH:15.000000;
#SELECTABLE:YES;
#DISPLAYBPM:135.000000;
#BPMS:0.000000=134.800003
,4.000000=135.000000
;
#STOPS:
;
#BGCHANGES:;
#KEYSOUNDS:;
#ATTACKS:;

//---------------dance-single - ----------------
#NOTES:
     dance-single:
     :
     Beginner:
     3:
     0.153625,0.189673,0.067740,0.118546,0.000000,127.000000,119.000000,8.000000,14.000000,0.000000,0.000000,0.153625,0.189673,0.067740,0.118546,0.000000,127.000000,119.000000,8.000000,14.000000,0.000000,0.000000:
0000
0000
0000
0000
,
0000
0000
0000
0000
,
0000
0000
0000
0000
,
0000
0000
0000
0000
,
0000
0000
0000
0000
,
0001
0000
0001
0000
,
0001
0000
0001
0000
,
1000
0000
1000
0000
,
1000
0000
1000
0000
,
0100
0000
0100
0000
,
0100
0000
0100
0000
,
1000
0000
1000
0000
,
0010
0000
0010
0000
,
1000
0000
0010
0000
,
1000
0000
1000
0000
,
0010
0000
1000
0000
,
0010
0000
0010
0000
,
1000
0000
0100
0000
,
0100
0000
1000
0000
,
1000
0000
0100
0000
,
1000
0000
1000
0000
,
0001
0000
0100
0000
,
0001
0000
0001
0000
,
0100
0000
0001
0000
,
0100
0000
0100
0000
,
0001
0000
0010
0000
,
0010
0000
0001
0000
,
0001
0000
0010
0000
,
0001
0000
0001
0000
,
0010
0020
0000
0130
,
0000
1000
0000
1001
,
0000
0200
0000
0310
,
0000
1000
0000
1001
,
0000
0100
0000
0001
,
0000
1000
0000
0010
,
0000
2000
0000
3100
,
0000
0002
0000
1003
,
0000
0001
0000
0100
,
0000
0010
0000
0100
,
0000
0002
0000
0013
,
0000
0001
0000
0001
,
0000
0000
0010
0000
,
1000
0000
0001
0000
,
1000
0000
0010
0000
,
0002
0000
1003
0000
,
0001
0000
0010
0000
,
1000
0000
0100
0000
,
0002
0000
1000
1003
,
0000
1001
0000
1001
,
0000
0200
0000
0301
,
0000
0010
0000
0010
,
0000
0002
0000
0103
,
0000
0001
0000
0001
,
0000
0020
0000
0031
,
0000
0001
0000
0010
,
0000
1001
0000
1001
,
0000
0010
0000
0001
,
0000
0020
0030
0010
,
0000
0001
0000
0001
,
0000
0200
0000
0301
,
0000
0100
0000
0010
,
0000
0020
0000
0031
,
0000
1001
0000
1001
,
0000
0200
0000
0001
,
0300
0000
0000
0000
;

//---------------dance-single - ----------------
#NOTES:
     dance-single:
     :
     Easy:
     6:
     0.310880,0.353626,0.152416,0.118546,0.000000,257.000000,239.000000,18.000000,14.000000,0.000000,0.000000,0.310880,0.353626,0.152416,0.118546,0.000000,257.000000,239.000000,18.000000,14.000000,0.000000,0.000000:
0000
0000
0000
0000
,
0000
0000
0000
0000
,
0000
0000
0000
0000
,
0000
0000
0000
0000
,
0000
0000
0000
0000
,
0001
0010
0001
0010
,
0001
0010
0002
1003
,
1000
0100
1000
0100
,
1000
0100
2000
3001
,
0100
0001
0100
0001
,
0100
0001
0200
0310
,
1000
0010
2000
3001
,
0010
0001
0010
0002
,
1003
0100
0010
0001
,
1000
0001
1000
0001
,
0010
0001
1000
0100
,
0010
0100
0010
0100
,
1000
0010
0100
0001
,
0100
0010
1000
0001
,
1000
0010
0100
0001
,
1000
0001
1000
1001
,
0001
0010
0100
1000
,
0001
1000
0001
1000
,
0100
1000
0001
0010
,
0100
0010
0100
0010
,
0001
0100
0010
1000
,
0010
0100
0001
1000
,
0001
0100
0010
1000
,
0001
1000
0001
1001
,
0010
0100
0010
0000
0100
0010
0100
0000
,
0001
1000
0001
1001
,
0100
0010
0100
0000
0010
0100
0010
0000
,
1000
1000
0001
1001
,
1000
0100
0010
0001
,
1000
1000
0001
0010
,
0100
1000
0010
0100
,
0001
0001
1000
1000
,
0001
0001
1000
0100
,
0010
0010
0001
0100
,
1001
0001
0100
0010
,
1000
0001
1000
0001
,
0200
0000
0310
1001
,
2000
0000
3001
1001
,
2000
3001
0020
0130
,
0001
1001
1000
1001
,
0002
1003
0010
1001
,
2000
3010
0100
1001
,
0002
1000
1000
1003
,
0001
1001
1000
1001
,
1000
0100
0010
0001
,
1000
0010
1000
0010
,
0100
0001
0010
0100
,
0010
0001
0010
0001
,
0100
0010
1000
0001
,
0010
0001
1000
0010
,
1000
1001
0001
1001
,
1000
0010
0100
0001
,
1000
0010
0100
0010
,
0100
0001
0010
0001
,
1000
0100
0010
0001
,
1000
0100
1000
0010
,
1000
0010
0100
0001
,
1000
1001
0001
1001
,
1000
0100
0010
0001
,
2002
3003
0000
0000
;

//---------------dance-single - ----------------
#NOTES:
     dance-single:
     :
     Medium:
     9:
     0.391926,0.435232,0.228624,0.135481,0.000000,324.000000,297.000000,27.000000,16.000000,0.000000,0.000000,0.391926,0.435232,0.228624,0.135481,0.000000,324.000000,297.000000,27.000000,16.000000,0.000000,0.000000:
0000
0000
0000
0000
,
0000
0000
0000
0000
,
0000
0000
0000
0000
,
0000
0000
0000
0000
,
0000
0000
0000
0000
,
0001
0010
0001
0010
,
0001
0010
0002
1003
,
1000
0100
1000
0100
,
1000
0100
2000
3001
,
1000
0100
1000
0001
,
0100
0001
0020
0031
,
0010
0001
0010
0001
,
0010
0000
0001
0000
0010
0000
0001
0001
,
1000
0000
0100
1000
0100
0000
0010
0000
,
0001
0000
1000
0000
0001
0100
0001
0000
,
0100
0000
0010
1000
0001
0000
1000
0000
,
0100
0000
0010
0000
1000
0001
0100
0000
,
0010
0000
1000
0100
0010
0000
0001
0000
,
1000
0000
0001
0000
0010
0001
1000
0000
,
0100
0000
0100
1000
0001
0000
0001
0000
,
1000
0000
1000
0001
0010
0000
1001
0000
,
0001
0000
0010
0001
0010
0000
0100
0000
,
1000
0000
0001
0000
1000
0010
1000
0000
,
0010
0000
0100
0001
1000
0000
0001
0000
,
0010
0000
0100
0000
0001
1000
0010
0000
,
0100
0000
0001
0010
0100
0000
1000
0000
,
0001
0000
1000
0000
0100
1000
0001
0000
,
0010
0000
0010
0001
1000
0000
1000
0000
,
0001
0000
0001
1000
0100
0000
1001
0000
,
0001
0010
0001
0000
1000
0100
1000
0000
,
0010
1000
0010
0000
0100
0001
0100
0000
,
0010
1000
0010
0000
0100
0001
0100
0000
,
1000
0010
1000
0000
0100
0001
0100
0000
,
0001
0000
0100
0000
0001
0100
1000
0000
,
1000
0000
0100
0000
1000
0100
0001
0000
,
1000
0010
0100
0000
0010
1000
0001
0000
,
1000
1001
0010
0110
,
0002
0000
0013
0000
0001
0010
1000
0000
,
0020
0000
0130
0000
1000
0100
0001
0000
,
0100
1000
0001
0000
0010
0001
0100
0000
,
0001
1001
1000
1001
,
0110
0000
1001
0000
0001
0100
0010
0000
,
1001
0000
0110
0000
0100
0001
1000
0000
,
0010
1000
0100
0000
0100
1000
0010
0000
,
0101
1100
0101
1100
,
0002
0000
0103
0000
0010
0100
0001
0000
,
2000
0000
3010
0000
0100
0010
1000
0000
,
0100
1000
0010
0000
0010
1000
0100
0000
,
0011
0000
1010
0000
0011
0000
1000
1000
,
2000
0000
3100
0010
0001
0000
1001
0000
,
0010
0000
0100
0000
0001
0100
1000
0000
,
2000
0000
3100
0010
0001
0000
1001
0000
,
0100
0000
0010
0000
1000
0100
0001
0000
,
0200
0000
1300
0010
1000
0000
1001
0000
,
0010
1000
0100
0000
0100
0001
0010
0000
,
1000
0000
0001
0001
0100
0000
0110
0000
,
0001
0000
1000
0001
0100
0000
0010
0010
,
0200
0000
0310
1000
0001
0000
1001
0000
,
0100
0000
0001
0000
1000
0100
0001
0000
,
0200
0000
0310
0100
0001
0000
1001
0000
,
1000
0000
0100
0000
1000
0100
0001
0001
,
2000
0000
3010
0100
0001
0000
1001
0000
,
0010
1010
0100
0101
,
0200
0000
0301
1000
0010
0000
1001
0002
,
2000
3003
0000
0000
;

//---------------dance-single - ----------------
#NOTES:
     dance-single:
     :
     Hard:
     12:
     0.526197,0.707252,0.491118,0.093143,0.495351,435.000000,377.000000,58.000000,11.000000,0.000000,0.000000,0.526197,0.707252,0.491118,0.093143,0.495351,435.000000,377.000000,58.000000,11.000000,0.000000,0.000000:
0000
0000
0000
0000
,
0000
0000
0000
0000
,
0000
0000
0000
0000
,
0000
0000
0000
0000
,
0000
0000
0000
0000
,
1000
0100
0010
0001
,
1000
0100
0010
0001
,
1000
0100
0010
0001
,
1000
0100
0010
0001
,
1000
0100
0010
0001
,
1000
0100
0010
0001
,
2000
3200
0320
0032
,
1003
0000
0000
0000
0001
0000
0000
0000
1001
0000
0000
0000
0001
0000
0000
0001
,
1000
0000
0000
1000
0001
0000
0000
0001
0100
0000
0000
0100
0010
0000
0000
0010
,
1000
0000
0000
1000
0010
0000
0000
0010
0100
0000
0000
0100
0001
0000
0000
0001
,
0100
0000
0000
0100
0010
0000
0000
0010
1000
0000
0000
1000
0001
0000
0000
0001
,
1000
0000
0000
1000
0100
0000
0000
0100
0010
0000
0000
0010
0001
0000
0000
0001
,
0010
0000
0000
0010
0100
0000
0000
0100
1000
0000
0000
1000
0001
0000
0000
0001
,
0100
0000
0000
0100
0010
0000
0000
0010
1000
0000
0000
1000
0001
0000
0000
0001
,
0010
0000
0000
0010
0100
0000
0000
0100
1000
0000
0000
1000
0001
0000
0000
0001
,
0010
0000
0000
0010
0100
0000
0000
0100
1000
0000
0000
0000
1001
0000
0000
0000
,
0001
0000
0000
0001
1000
0000
0000
1000
0010
0000
0000
0010
0100
0000
0000
0100
,
0001
0000
0000
0001
0100
0000
0000
0100
0010
0000
0000
0010
1000
0000
0000
1000
,
0010
0000
0000
0010
0100
0000
0000
0100
0001
0000
0000
0001
1000
0000
0000
1000
,
0001
0000
0000
0001
0010
0000
0000
0010
0100
0000
0000
0100
1000
0000
0000
1000
,
0100
0000
0000
0100
0010
0000
0000
0010
0001
0000
0000
0001
1000
0000
0000
1000
,
0010
0000
0000
0010
0100
0000
0000
0100
0001
0000
0000
0001
1000
0000
0000
1000
,
0100
0000
0000
0100
0010
0000
0000
0010
0001
0000
0000
0001
1000
0000
0000
1000
,
0100
0000
0000
0100
0010
0000
0000
0010
0001
0000
0000
0000
1001
0000
0000
0000
,
0011
0011
1001
0000
1010
1010
0110
0000
,
0101
0101
0011
0000
0110
0110
1100
0000
,
1001
1001
1010
0000
0101
0101
0011
0000
,
1001
1001
1001
0000
0110
0000
1001
0000
,
1100
0000
0101
0000
0001
0100
1000
0000
,
1100
0000
0101
0000
1000
0100
0001
0000
,
0100
1000
0001
0000
0010
0001
1000
0000
,
1000
1001
0010
0110
,
0011
0000
1010
0000
0001
0010
1000
0000
,
1100
0000
0101
0000
1000
0100
0001
0000
,
0100
0010
1000
0000
0010
0001
0100
0000
,
0011
1010
0011
1010
,
0110
0000
1001
0000
0001
0100
0010
0000
,
1001
0000
0110
0000
0100
0001
1000
0000
,
0020
1000
0130
0000
0200
1000
0310
0000
,
0101
1100
0101
1100
,
0011
0000
1100
0000
0010
0100
0001
0000
,
1100
0000
0011
0000
0100
0010
1000
0000
,
0200
1000
0310
0000
0020
1000
0130
0000
,
0011
0000
0000
0000
1010
0000
0000
0000
1001
0000
0000
0000
0001
0000
0000
0001
,
1000
0000
0000
1000
0100
0000
0000
0100
0010
0000
0000
0010
0001
0000
0000
0001
,
0010
0000
0000
0010
0001
0000
0000
0001
0100
0000
0000
0100
0010
0000
0000
0010
,
1000
0000
0000
1000
0010
0000
0000
0010
0100
0000
0000
0100
0001
0000
0000
0001
,
0010
0000
0000
0010
0100
0000
0000
0100
1000
0000
0000
1000
0001
0000
0000
0001
,
0010
0000
0000
0010
0001
0000
0000
0001
1000
0000
0000
1000
0100
0000
0000
0100
,
0010
0000
0000
0010
0001
0000
0000
0001
1000
0000
0000
1000
0010
0000
0000
0010
,
0100
0000
0000
0100
0001
0000
0000
0001
1000
0000
0000
1000
0010
0000
0000
0010
,
1000
0000
0000
1000
0001
0000
0000
0001
0100
0000
0000
0100
0001
0000
0000
0001
,
0100
0000
0000
0100
0010
0000
0000
0010
1000
0000
0000
1000
0001
0000
0000
0001
,
0100
0000
0000
0100
0001
0000
0000
0001
1000
0000
0000
1000
0010
0000
0000
0010
,
1000
0000
0000
1000
0100
0000
0000
0100
0010
0000
0000
0010
0001
0000
0000
0001
,
1000
0000
0000
1000
0100
0000
0000
0100
1000
0000
0000
1000
0100
0000
0000
0100
,
1000
0000
0000
1000
0010
0000
0000
0010
1000
0000
0000
1000
0001
0000
0000
0001
,
0200
0000
0000
0000
0301
0000
0000
0000
1001
0000
0000
0001
0100
0000
0000
0100
,
0010
0000
0000
0000
1001
0000
0000
0000
0001
0000
0000
0001
1000
0000
0000
0000
,
2002
3003
0000
0000
;

//---------------dance-double - ----------------
#NOTES:
     dance-double:
     :
     Easy:
     6:
     0.319347,0.353626,0.177818,0.127013,0.000000,264.000000,243.000000,21.000000,15.000000,0.000000,0.000000,0.319347,0.353626,0.177818,0.127013,0.000000,264.000000,243.000000,21.000000,15.000000,0.000000,0.000000:
00000000
00000000
00000000
00000000
,
00000000
00000000
00000000
00000000
,
00000000
00000000
00000000
00000000
,
00000000
00000000
00000000
00000000
,
00000000
00000000
00000000
00000000
,
00001000
00010000
00001000
00010000
,
00001000
00000100
00001000
00000100
,
00010000
00001000
00010000
00001000
,
00010000
00100000
00010000
10000000
,
00010000
01000000
00010000
00001000
,
00000010
00001000
00000001
00001000
,
00010000
00001000
00010000
00001000
,
00010000
00001000
00010000
00001000
,
00001000
00100000
01000000
10000000
,
00100000
10000000
01000000
00100000
,
00010000
00100000
00001000
00000010
,
00000001
00001000
00000100
00001000
,
00000010
00001000
00010000
00100000
,
00010000
01000000
00010000
00100000
,
00011000
00000010
00000110
00000001
,
00001000
00001001
00000010
00000110
,
00010000
00000100
00000010
00000001
,
00000100
00000001
00000010
00000100
,
00001000
00000100
00010000
01000000
,
10000000
00010000
00100000
00010000
,
01000000
00010000
00001000
00000100
,
00001000
00000010
00001000
00000100
,
00011000
01000000
01100000
10000000
,
00010000
10010000
01000000
01100000
,
10000000
00010000
10000000
00000000
00010000
10000000
00010000
00000000
,
10000000
00000000
10000000
00000000
00010000
10000000
00010000
00000000
,
01000000
00010000
01000000
00000000
00001000
00010000
00001000
00000000
,
00000100
00000000
00000100
00000000
00000001
00001000
00000001
00000000
,
00000001
00001000
00000010
00000100
,
00010000
00001000
00100000
01000000
,
01000000
01100000
00100000
10010000
,
01000000
01000000
00100000
00100000
,
00010000
00010000
00001000
00000100
,
00000010
00000010
00000001
00001000
,
00001001
00000100
00000110
00000001
,
00001000
00001000
00000001
00000001
,
00000002
00001003
00000010
00000100
,
00020000
00031000
00100000
01000000
,
10000000
10010000
00100000
01100000
,
01000000
02000000
03100000
00200000
,
00310000
00010000
00001000
00000100
,
00000010
00000010
00000001
00001000
,
00001001
00000010
00000110
00000001
,
00001000
00002000
00003001
00000002
,
00001003
00000010
00000100
00000001
,
00001000
00000100
00010000
00001000
,
00100000
00010000
10000000
01000000
,
00100000
00010000
00100000
00010000
,
00100000
00001000
00010000
00001000
,
00000010
00000100
00001000
00000001
,
00001000
00001001
00000010
00000110
,
00010000
00001000
00010000
00001000
,
00200000
00310000
10000000
01000000
,
00100000
01000000
10000000
00010000
,
00200000
00310000
01000000
00001000
,
00010000
00001000
00010000
00001000
,
00200000
00301000
02000000
03010000
,
10000000
10010000
00100000
01100000
,
20000000
32000000
03200000
00310000
,
02200000
03300000
00000000
00000000
;

//---------------dance-double - ----------------
#NOTES:
     dance-double:
     :
     Medium:
     8:
     0.393136,0.435232,0.584261,0.203221,0.000000,325.000000,256.000000,69.000000,24.000000,0.000000,0.000000,0.393136,0.435232,0.584261,0.203221,0.000000,325.000000,256.000000,69.000000,24.000000,0.000000,0.000000:
00000000
00000000
00000000
00000000
,
00000000
00000000
00000000
00000000
,
00000000
00000000
00000000
00000000
,
00000000
00000000
00000000
00000000
,
00000000
00000000
00000000
00000000
,
00010000
00001000
00010000
00000010
,
00010000
00001000
01000000
00001000
,
00010000
00001000
00010000
00000010
,
00010000
00001000
01000000
00001000
,
00010000
00001000
00010000
00000100
,
00010000
00001000
00100000
00001000
,
00010000
00001000
00010000
00001000
,
00010000
00000000
00001000
00000000
00020000
00000000
00031000
00001000
,
00010000
01000000
00100000
10010000
,
01000000
00010000
00100000
00000000
00001000
00000000
00011000
00000000
,
00000100
00000100
00000010
00000110
,
00000001
00001000
00000100
00000000
00010000
00000000
00011000
00000000
,
01000000
01000000
00100000
00100000
,
10010000
10010000
00100000
00101000
,
00000100
00001100
00000010
00000011
,
00001010
00011000
00010000
00011000
,
00010000
01000000
00100000
10010000
,
01000000
00010000
00100000
00000000
00001000
00000000
00011000
00000000
,
00000100
00000100
00000010
00000110
,
00000001
00001000
00000100
00000000
00010000
00000000
00011000
00000000
,
01000000
01000000
00100000
00100000
,
10010000
10010000
00100000
00101000
,
00000100
00001100
00000010
00000011
,
00001010
00011000
00010000
00011000
,
10000000
00010000
10000000
00000000
00010000
10000000
00010000
00000000
,
10000000
00000000
10000000
00000000
00010000
10000000
00010000
00000000
,
01000000
00010000
01000000
00000000
00001000
00010000
00001000
00000000
,
00000100
00000000
00000100
00000000
00000001
00001000
00000001
00000000
,
00000002
00001003
00001010
00001100
,
00020000
01030000
00110000
01010000
,
10000000
00010000
01000000
00000000
00100000
10000000
00010000
00000000
,
01000000
01100000
10000000
10010000
,
00002000
00003000
00000011
00000101
,
00020000
00030000
11000000
10100000
,
02000000
03000000
00002000
00013000
,
00000100
00001000
00010000
00000000
00011000
00000000
00110000
00000000
,
20000000
00000000
30000000
00100000
10000000
00000000
10010000
00000000
,
00020000
00000000
00030000
00100000
00001000
00000000
01001000
00000000
,
00100000
00101000
00010000
00010100
,
00001100
00001010
00000110
00000101
,
00002000
00000000
00003000
00010000
00001000
00000000
00010100
00000000
,
00002000
00000000
00003000
00100000
00001000
00000000
01000000
00000000
,
01010000
00110000
01100000
10010000
,
00200000
00000000
00320000
00000000
20030000
00000000
30010000
00100000
,
00020000
00000000
00030000
00000100
00001000
00000000
00000110
00000000
,
00001000
00000000
00201000
00000000
10300000
00000000
00010000
00010000
,
00100000
00000000
00000000
00001000
00000100
00000010
00000001
00000000
,
00001001
00000000
00000010
00000000
00000110
00000000
00001000
00001000
,
00020000
00000000
00030000
00100000
00010000
00000000
00110000
00000000
,
00101000
00011000
00010100
00011000
,
00200000
00000000
00300000
01000000
01100000
00000000
10000000
00010000
,
01000000
00000000
00000000
00010000
10000000
00000000
10000000
00010000
,
20000000
00000000
30000000
00100000
10000000
00000000
10010000
00000000
,
00100000
00000000
00120000
00000000
00031000
00000000
00010000
00001000
,
00000100
00000000
00000000
00000010
00000100
00000000
00000110
00000000
,
00000001
00000000
00001001
00000000
00000010
00000000
00000100
00000010
,
00002000
00000000
00003000
00100000
00010000
00000000
01100000
00000000
,
10000000
11000000
00100000
00110000
,
20000000
00000000
30000000
01000000
01100000
00000000
10010000
00000000
,
20020000
30030000
00000000
00000000
;

//---------------dance-double - ----------------
#NOTES:
     dance-double:
     :
     Hard:
     13:
     0.566116,0.707252,0.491118,0.194754,0.652001,468.000000,410.000000,58.000000,23.000000,0.000000,0.000000,0.566116,0.707252,0.491118,0.194754,0.652001,468.000000,410.000000,58.000000,23.000000,0.000000,0.000000:
00000000
00000000
00000000
00000000
,
00000000
00000000
00000000
00000000
,
00000000
00000000
00000000
00000000
,
00000000
00000000
00000000
00000000
,
00000000
00000000
00000000
00000000
,
00010000
00000000
00000000
00010000
00001000
00000000
00000000
00001000
00010000
00000000
00000000
00010000
00001000
00000000
00000000
00001000
,
00010000
00000000
00000000
00010000
00001000
00000000
00000000
00001000
00010000
00000000
00000000
00010000
00001000
00000000
00000000
00001000
,
00010000
00000000
00000000
00010000
00001000
00000000
00000000
00001000
00010000
00000000
00000000
00010000
00001000
00000000
00000000
00001000
,
00010000
00000000
00000000
00010000
00001000
00000000
00000000
00001000
00010000
00000000
00000000
00010000
00001000
00000000
00000000
00001000
,
00000100
00000000
00000000
00000100
00000001
00000000
00000000
00000001
00000010
00000000
00000000
00000010
00001000
00000000
00000000
00001000
,
00010000
00000000
00000000
00010000
01000000
00000000
00000000
01000000
10000000
00000000
00000000
10000000
00100000
00000000
00000000
00100000
,
01000000
00000000
00000000
01000000
00001000
00000000
00000000
00001000
00000010
00000000
00000000
00000010
00000100
00000000
00000000
00000100
,
00010000
00000000
00000000
00010000
00001000
00000000
00000000
00001000
00010000
00000000
00000000
00010000
00001000
00000000
00000000
00001000
,
00000010
00000000
00000000
00000010
00000001
00000000
00000000
00000001
00000100
00000000
00000000
00000100
00001000
00000000
00000000
00001000
,
01000000
00000000
00000000
01000000
10000000
00000000
00000000
10000000
00100000
00000000
00000000
00100000
00010000
00000000
00000000
00010000
,
00001000
00000000
00000000
00001000
01000000
00000000
00000000
01000000
00010000
00000000
00000000
00010000
00100000
00000000
00000000
00100000
,
00001000
00000000
00000000
00001000
00010000
00000000
00000000
00010000
00000100
00000000
00000000
00000100
00001000
00000000
00000000
00001000
,
00000001
00000000
00000000
00000001
00000010
00000000
00000000
00000010
00000100
00000000
00000000
00000100
00001000
00000000
00000000
00001000
,
01000000
00000000
00000000
01000000
00100000
00000000
00000000
00100000
00010000
00000000
00000000
00010000
10000000
00000000
00000000
10000000
,
00010000
00000000
00000000
00010000
00100000
00000000
00000000
00100000
00001000
00000000
00000000
00001000
00000010
00000000
00000000
00000010
,
00000001
00000000
00000000
00000001
00001000
00000000
00000000
00001000
00000010
00000000
00000000
00000000
00001001
00000000
00000000
00001000
,
01000000
00000000
00000000
01000000
10000000
00000000
00000000
10000000
00100000
00000000
00000000
00100000
00010000
00000000
00000000
00010000
,
00000010
00000000
00000000
00000010
00000001
00000000
00000000
00000001
00000100
00000000
00000000
00000100
00001000
00000000
00000000
00001000
,
00010000
00000000
00000000
00010000
00000010
00000000
00000000
00000010
00001000
00000000
00000000
00001000
00000100
00000000
00000000
00000100
,
00010000
00000000
00000000
00010000
00001000
00000000
00000000
00001000
00100000
00000000
00000000
00100000
00010000
00000000
00000000
00010000
,
10000000
00000000
00000000
10000000
01000000
00000000
00000000
01000000
00100000
00000000
00000000
00100000
00010000
00000000
00000000
00010000
,
00000010
00000000
00000000
00000010
00000100
00000000
00000000
00000100
00001000
00000000
00000000
00001000
00000001
00000000
00000000
00000001
,
00001000
00000000
00000000
00001000
00000100
00000000
00000000
00000100
00010000
00000000
00000000
00010000
01000000
00000000
00000000
01000000
,
10000000
00000000
00000000
10000000
00010000
00000000
00000000
00010000
01000000
00000000
00000000
00000000
10010000
00000000
00000000
00000000
,
10100000
10010000
02020000
03030000
10010000
10010000
22000000
33000000
,
01010000
01010000
00220000
00330000
00011000
00001100
00000220
00000330
,
00001001
00000101
00000022
00000033
00000110
00000110
00002002
00003003
,
00000011
00001001
00000202
00000303
00000110
00001010
00002200
00003300
,
00001010
00011000
01010000
10010000
,
00101000
00011000
00010100
00001001
,
00000010
00001000
00000001
00000000
00000100
00000010
00001000
00000000
,
00000010
00000110
00000001
00001001
,
00000011
00000101
00001100
00001010
,
00110000
01010000
11000000
10100000
,
01000000
00010000
10000000
00000000
00100000
10000000
01000000
00000000
,
10000000
10010000
00100000
10010000
,
01010000
00000000
00011000
00000000
00000010
00010000
00001000
00000000
,
00001010
00000000
00001100
00000000
00100000
00001000
00010000
00000000
,
00000020
00001000
00000031
00000000
00000200
00000010
00001300
00000000
,
00000011
00000100
00001100
00000010
,
00000110
00000000
00001010
00000000
00000010
00010000
00001000
00000000
,
01100000
00000000
01010000
00000000
01000000
00001000
00010000
00000000
,
00000010
00010000
01000000
00000000
00100000
00001000
00000100
00000000
,
00000220
00000000
00000000
00000000
00000330
00000000
00000000
00000000
00002001
00000000
00000000
00000000
00003001
00000000
00000000
00000001
,
00000100
00000000
00000000
00000100
00000001
00000000
00000000
00000001
00001000
00000000
00000000
00001000
00000010
00000000
00000000
00000010
,
00010000
00000000
00000000
00010000
00000100
00000000
00000000
00000100
00010000
00000000
00000000
00010000
00001000
00000000
00000000
00001000
,
00100000
00000000
00000000
00100000
01000000
00000000
00000000
01000000
10000000
00000000
00000000
10000000
00010000
00000000
00000000
00010000
,
00100000
00000000
00000000
00100000
00001000
00000000
00000000
00001000
00000100
00000000
00000000
00000100
00000001
00000000
00000000
00000001
,
00000010
00000000
00000000
00000010
00000100
00000000
00000000
00000100
00010000
00000000
00000000
00010000
00001000
00000000
00000000
00001000
,
01000000
00000000
00000000
01000000
00001000
00000000
00000000
00001000
00100000
00000000
00000000
00100000
00010000
00000000
00000000
00010000
,
10000000
00000000
00000000
10000000
01000000
00000000
00000000
01000000
00100000
00000000
00000000
00100000
00010000
00000000
00000000
00010000
,
01000000
00000000
00000000
01000000
00001000
00000000
00000000
00001000
00010000
00000000
00000000
00010000
00000010
00000000
00000000
00000010
,
00000100
00000000
00000000
00000100
00000001
00000000
00000000
00000001
00001000
00000000
00000000
00001000
00000010
00000000
00000000
00000010
,
00010000
00000000
00000000
00010000
00000100
00000000
00000000
00000100
00010000
00000000
00000000
00010000
00001000
00000000
00000000
00001000
,
00100000
00000000
00000000
00100000
00010000
00000000
00000000
00010000
10000000
00000000
00000000
10000000
01000000
00000000
00000000
01000000
,
00100000
00000000
00000000
00100000
00001000
00000000
00000000
00001000
00010000
00000000
00000000
00010000
00000100
00000000
00000000
00000100
,
00001000
00000000
00000000
00001000
00000001
00000000
00000000
00000001
00001000
00000000
00000000
00001000
00000001
00000000
00000000
00000001
,
00000010
00000000
00000000
00000010
00000001
00000000
00000000
00000001
00000100
00000000
00000000
00000100
00000001
00000000
00000000
00000001
,
00001000
00000000
00000000
00001000
00000010
00000000
00000000
00000010
00010000
00000000
00000000
00010000
00001000
00000000
00000000
00002000
,
00020000
00033000
00000000
00000000
;

//---------------dance-single - ----------------
#NOTES:
     dance-single:
     :
     Challenge:
     10:
     0.347169,0.380828,0.143948,0.093143,0.000000,287.000000,270.000000,17.000000,11.000000,120.000000,0.000000,0.347169,0.380828,0.143948,0.093143,0.000000,287.000000,270.000000,17.000000,11.000000,120.000000,0.000000:
0000
0000
0000
0000
,
0000
0000
0000
0000
,
0000
0000
0000
0000
,
0000
0000
0000
0000
,
0000
0000
0000
0000
,
0001
0010
0001
0010
,
0001
0010
0001
MMMM
,
1000
0100
1000
0100
,
1000
0100
1000
MMMM
,
1000
0100
1000
0001
,
0100
0001
0010
MMMM
,
0010
0001
0010
0001
,
0010
0000
0001
0000
0010
0000
0001
0001
,
1000
0000
0100
1000
0100
0000
0010
0000
,
0001
0000
MMMM
0000
0001
0100
0001
0000
,
0100
0000
0010
1000
0001
0000
1000
0000
,
0100
0000
MMMM
0000
1000
0001
0100
0000
,
0010
0000
1000
0100
0010
0000
0001
0000
,
1000
0000
MMMM
0000
0010
0001
1000
0000
,
0100
0000
0100
1000
0001
0000
0001
0000
,
MMMM
0000
1000
0001
0010
0000
1001
0000
,
0001
0000
0010
0001
0010
0000
0100
0000
,
1000
0000
MMMM
0000
1000
0010
1000
0000
,
0010
0000
0100
0001
1000
0000
0001
0000
,
0010
0000
MMMM
0000
0001
1000
0010
0000
,
0100
0000
0001
0010
0100
0000
1000
0000
,
0001
0000
MMMM
0000
0100
1000
0001
0000
,
0010
0000
0010
0001
1000
0000
1000
0000
,
MMMM
0000
0001
1000
0100
0000
1001
0000
,
0001
0010
0001
0000
1000
0100
1000
0000
,
0010
1000
0010
0000
0100
0001
0100
MMMM
,
0010
1000
0010
0000
0100
0001
0100
0000
,
1000
0010
1000
0000
0100
0001
0100
MMMM
,
0001
0000
0100
0000
0001
0100
1000
0000
,
1000
0000
0100
0000
1000
0100
0001
0000
,
1000
0010
0100
0000
0010
1000
0001
0000
,
1000
MMMM
0010
MMMM
,
0002
0000
0013
0000
0001
0010
1000
0000
,
0020
0000
0130
0000
1000
0100
0001
0000
,
0100
1000
0001
0000
0010
0001
0100
0000
,
0001
MMMM
1000
MMMM
,
0110
0000
MMMM
0000
0001
0100
0010
0000
,
1001
0000
MMMM
0000
0100
0001
1000
0000
,
0010
1000
0100
0000
0100
1000
0010
0000
,
0101
MMMM
1100
MMMM
,
0002
0000
0103
0000
0010
0100
0001
0000
,
2000
0000
3010
0000
0100
0010
1000
0000
,
0100
1000
0010
0000
0010
1000
0100
0000
,
0011
0000
MMMM
0000
1010
0000
1000
1000
,
2000
0000
3100
0010
0001
0000
1001
0000
,
0010
0000
MMMM
0000
0001
0100
1000
0000
,
2000
0000
3100
0010
0001
0000
1001
0000
,
0100
0000
MMMM
0000
1000
0100
0001
0000
,
0200
0000
1300
0010
1000
0000
1001
0000
,
0010
1000
0100
0000
0100
0001
0010
0000
,
1000
0000
0001
0001
0100
0000
MMMM
0000
,
0001
0000
1000
0001
0100
0000
0010
0010
,
0200
0000
0310
1000
0001
0000
1001
0000
,
0100
0000
MMMM
0000
1000
0100
0001
0000
,
0200
0000
0310
0100
0001
0000
1001
0000
,
1000
0000
MMMM
0000
1000
0100
0001
0001
,
2000
0000
3010
0100
0001
0000
1001
0000
,
MMMM
1010
MMMM
0101
,
0200
0000
0301
1000
0010
0000
1001
0001
,
1000
MMMM
0000
0000
;

//---------------dance-double - ----------------
#NOTES:
     dance-double:
     :
     Challenge:
     9:
     0.359266,0.408030,0.541923,0.127013,0.000000,297.000000,233.000000,64.000000,15.000000,232.000000,0.000000,0.359266,0.408030,0.541923,0.127013,0.000000,297.000000,233.000000,64.000000,15.000000,232.000000,0.000000:
00000000
00000000
00000000
00000000
,
00000000
00000000
00000000
00000000
,
00000000
00000000
00000000
00000000
,
00000000
00000000
00000000
00000000
,
00000000
00000000
00000000
00000000
,
00010000
00001000
00010000
00000010
,
00010000
00001000
01000000
MMMMMMMM
,
00001000
00010000
00001000
00010000
,
00000010
00010000
00001000
MMMMMMMM
,
00001000
00010000
00001000
MMMMMMMM
,
00000100
00010000
00001000
MMMMMMMM
,
00001000
00010000
00001000
MMMMMMMM
,
00001000
MMMMMMMM
00001000
MMMMMMMM
,
00010000
01000000
00100000
10010000
,
01000000
00010000
00100000
00000000
MMMMMMMM
00000000
00011000
00000000
,
00000100
00000100
00000010
00000110
,
00000001
00001000
00000100
00000000
MMMMMMMM
00000000
00011000
00000000
,
01000000
01000000
00100000
00100000
,
10010000
10010000
MMMMMMMM
00101000
,
00000100
00001100
00000010
00000011
,
00001010
00011000
MMMMMMMM
00011000
,
00010000
01000000
00100000
10010000
,
01000000
00010000
00100000
00000000
MMMMMMMM
00000000
00011000
00000000
,
00000100
00000100
00000010
00000110
,
00000001
00001000
00000100
00000000
MMMMMMMM
00000000
00011000
00000000
,
01000000
01000000
00100000
00100000
,
10010000
10010000
MMMMMMMM
00101000
,
00000100
00001100
00000010
00000011
,
00001010
00011000
MMMMMMMM
00011000
,
10000000
00010000
10000000
00000000
00010000
10000000
00010000
00000000
,
10000000
00000000
10000000
00000000
00010000
10000000
00010000
MMMMMMMM
,
01000000
00010000
01000000
00000000
00001000
00010000
00001000
00000000
,
00000100
00000000
00000100
00000000
00000001
00001000
00000001
MMMMMMMM
,
00000002
00001003
00001010
00001100
,
00020000
01030000
00110000
01010000
,
10000000
00010000
01000000
00000000
00100000
10000000
00010000
00000000
,
01000000
MMMMMMMM
10000000
MMMMMMMM
,
00002000
00003000
00000011
00000101
,
00020000
00030000
11000000
10100000
,
02000000
03000000
00002000
00013000
,
00000100
00001000
00010000
00000000
00011000
00000000
MMMMMMMM
00000000
,
20000000
00000000
30000000
00100000
10000000
00000000
10010000
00000000
,
00020000
00000000
00030000
00100000
00001000
00000000
01001000
00000000
,
00100000
00101000
00010000
00010100
,
00001100
00001010
00000110
MMMMMMMM
,
00002000
00000000
00003000
00010000
00001000
00000000
00010100
00000000
,
00002000
00000000
00003000
00100000
00001000
00000000
01000000
00000000
,
01010000
00110000
01100000
10010000
,
00100000
00000000
00010000
00000000
10000000
00000000
MMMMMMMM
00100000
,
00020000
00000000
00030000
00000100
00001000
00000000
00000110
00000000
,
00001000
00000000
00101000
00000000
MMMMMMMM
00000000
00010000
00010000
,
00100000
00000000
00000000
00001000
00000100
00000010
00000001
00000000
,
00001001
00000000
00000010
00000000
MMMMMMMM
00000000
00001000
00001000
,
00020000
00000000
00030000
00100000
00010000
00000000
00110000
00000000
,
00101000
00011000
00010100
00011000
,
00200000
00000000
00300000
01000000
01100000
00000000
10000000
00010000
,
01000000
00000000
MMMMMMMM
00010000
10000000
00000000
10000000
00010000
,
10000000
00000000
MMMMMMMM
00100000
10000000
00000000
10010000
00000000
,
00100000
00000000
00120000
00000000
00031000
00000000
00010000
00001000
,
00000100
00000000
MMMMMMMM
00000010
00000100
00000000
00000110
00000000
,
00000001
00000000
00001001
00000000
00000010
00000000
00000100
00000010
,
00001000
00000000
MMMMMMMM
00100000
00010000
00000000
01100000
00000000
,
10000000
11000000
00100000
00110000
,
20000000
00000000
30000000
01000000
01100000
00000000
10010000
00000000
,
10010000
MMMMMMMM
00000000
00000000
;
