#TITLE:I will be back -オレは帰ってきた-;
#SUBTITLE:;
#ARTIST:SUPER STAR 満-MITSURU-;
#TITLETRANSLIT:I will be back -ore wa kaettekita-;
#SUBTITLETRANSLIT:;
#ARTISTTRANSLIT:SUPER STAR MITSURU;
#GENRE:beatmania IIDX;
#CREDIT:;
#BANNER:;
#BACKGROUND:;
#LYRICSPATH:;
#CDTITLE:./CDTITLES/BEATMANIA IIDX.PNG;
#MUSIC:I will be back -ore wa kaettekita-.ogg;
#OFFSET:0.360000;
#SAMPLESTART:83.359772;
#SAMPLELENGTH:15.000000;
#SELECTABLE:YES;
#BPMS:0.000000=172.000000
;
#STOPS:
;
#BGCHANGES:2.000=I will be back -ore wa kaettekita-.avi=1.000=0=0=1=====,
99999=-nosongbg-=1.000=0=0=0 // don't automatically add -songbackground-
;
#KEYSOUNDS:;
#ATTACKS:;

//---------------dance-single - ----------------
#NOTES:
     dance-single:
     :
     Beginner:
     2:
     0.127622,0.170821,0.061916,0.017690,0.000000,92.000000,7.000000,2.000000,0.000000,0.000000,0.000000,0.127622,0.170821,0.061916,0.017690,0.000000,92.000000,7.000000,2.000000,0.000000,0.000000,0.000000:
// measure 0
0000
0000
0000
0000
,  // measure 1
0000
0000
0000
0000
,  // measure 2
0000
0000
0000
0000
,  // measure 3
0000
0000
0000
0000
,  // measure 4
0000
0000
0000
0000
,  // measure 5
1000
0000
0000
0000
,  // measure 6
0001
0000
0000
0000
,  // measure 7
1000
0000
0000
0000
,  // measure 8
0001
0000
0000
0000
,  // measure 9
0000
0000
0000
0000
,  // measure 10
1001
0000
0000
0000
,  // measure 11
0100
0000
0000
0000
,  // measure 12
1001
0000
0000
0000
,  // measure 13
0010
0000
0000
0000
,  // measure 14
1000
0000
0000
0000
,  // measure 15
0100
0000
0000
0000
,  // measure 16
0001
0000
0000
0000
,  // measure 17
0100
0000
0000
0000
,  // measure 18
1000
0000
1000
0000
,  // measure 19
0001
0000
0001
0000
,  // measure 20
1000
0000
1000
0000
,  // measure 21
0001
0000
0001
0000
,  // measure 22
1000
0000
1000
0000
,  // measure 23
0001
0000
0001
0000
,  // measure 24
1000
0000
1000
0000
,  // measure 25
0001
0000
0001
0000
,  // measure 26
0100
0000
0000
0000
,  // measure 27
0100
0000
0000
0000
,  // measure 28
0010
0000
0000
0000
,  // measure 29
0010
0000
0000
0000
,  // measure 30
0001
0000
0000
0000
,  // measure 31
0001
0000
0000
0000
,  // measure 32
1000
0000
0000
0000
,  // measure 33
1000
0000
0000
0000
,  // measure 34
0100
0000
0000
0000
,  // measure 35
0100
0000
0000
0000
,  // measure 36
0100
0000
0000
0000
,  // measure 37
0100
0000
0000
0000
,  // measure 38
0010
0000
0000
0000
,  // measure 39
0010
0000
0000
0000
,  // measure 40
0010
0000
0000
0000
,  // measure 41
0010
0000
0000
0000
,  // measure 42
0001
0000
0000
0000
,  // measure 43
0100
0000
0000
0000
,  // measure 44
1000
0000
0000
0000
,  // measure 45
0010
0000
0000
0000
,  // measure 46
0001
0000
0000
0000
,  // measure 47
0100
0000
0000
0000
,  // measure 48
1000
0000
0000
0000
,  // measure 49
0010
0000
0000
0000
,  // measure 50
1001
0000
0000
0000
,  // measure 51
0100
0000
0000
0000
,  // measure 52
0100
0000
0000
0000
,  // measure 53
0100
0000
0000
0000
,  // measure 54
1001
0000
0010
0000
,  // measure 55
0010
0000
0010
0000
,  // measure 56
1001
0000
0000
0000
,  // measure 57
0100
0000
0000
0000
,  // measure 58
1001
0000
0000
0000
,  // measure 59
0000
0000
0000
0000
,  // measure 60
1000
0000
0100
0000
,  // measure 61
0001
0000
0000
0000
,  // measure 62
0001
0000
0100
0000
,  // measure 63
1000
0000
0000
0000
,  // measure 64
1000
0000
0010
0000
,  // measure 65
0001
0000
0000
0000
,  // measure 66
0001
0000
0010
0000
,  // measure 67
1000
0000
0000
0000
,  // measure 68
1000
0000
0100
0000
,  // measure 69
1000
0000
0100
0000
,  // measure 70
0001
0000
0100
0000
,  // measure 71
0001
0000
0100
0000
,  // measure 72
1000
0000
0010
0000
,  // measure 73
1000
0000
0010
0000
,  // measure 74
0001
0000
0010
0000
,  // measure 75
0001
0000
0010
0000
,  // measure 76
0000
0220
0000
0000
,  // measure 77
0000
0330
0000
0000
;

//---------------dance-single - ----------------
#NOTES:
     dance-single:
     :
     Easy:
     6:
     0.298206,0.341642,0.185747,0.185747,0.000000,194.000000,21.000000,21.000000,0.000000,0.000000,0.000000,0.298206,0.341642,0.185747,0.185747,0.000000,194.000000,21.000000,21.000000,0.000000,0.000000,0.000000:
0000
0000
0000
0000
,
0000
0000
0000
0000
,
0000
0000
0000
0000
,
0000
0000
0000
0000
,
0000
0000
0000
0000
,
0200
0000
1000
0000
,
0001
0000
1000
0000
,
0320
0000
1000
0000
,
0001
0000
1000
0000
,
0030
0000
0100
0010
,
0110
0000
0100
0000
,
0100
0000
0100
0000
,
0110
0000
0010
0000
,
0010
0000
0010
0000
,
1001
0000
1000
0000
,
1000
0000
1000
0000
,
1001
0000
0001
0000
,
0001
0000
0001
0000
,
1000
0100
1000
0100
,
0001
0100
0001
0100
,
1000
0100
1000
0100
,
0001
0100
0001
0100
,
1000
0010
1000
0010
,
0001
0010
0001
0010
,
1000
0010
0001
0010
,
1000
0010
0001
0010
,
2000
0000
3100
0000
,
0002
0000
0103
0000
,
2000
0000
3010
0000
,
0002
0000
0013
0000
,
2000
0000
3100
0000
,
0002
0000
0103
0000
,
2000
0000
3010
0000
,
0002
0000
0013
0000
,
0200
0000
1000
0000
,
0001
0000
1000
0000
,
0320
0000
1000
0000
,
0001
0000
1000
0000
,
2030
0000
0100
0000
,
0010
0000
0100
0000
,
3002
0000
0100
0000
,
0010
0000
0100
0000
,
1003
0000
0100
0000
,
1100
0000
1000
0000
,
0001
0000
0100
0000
,
0101
0000
0001
0000
,
0010
0000
0100
0000
,
0110
0000
0010
0000
,
1000
0000
0001
0000
,
1001
0000
1001
0000
,
1000
0000
1100
0000
,
1000
0000
1100
0000
,
0001
0000
0101
0000
,
0001
0000
0101
0000
,
1001
0000
1001
0000
,
0110
0000
0110
0000
,
1100
0100
0001
0100
,
0101
0010
0100
1000
,
2200
0000
0000
3300
,
1000
0000
0000
0110
0000
0000
0001
0000
,
0010
0100
0010
0100
,
0001
1000
0001
1000
,
0001
0100
0010
1000
,
1000
0100
0010
0001
,
1000
0001
1000
0001
,
0010
0100
0010
0100
,
0001
0010
0100
1000
,
0001
1000
0010
0100
,
2000
0000
0000
0100
0000
0000
3100
0000
,
0002
0000
0000
0010
0000
0000
0013
0000
,
2000
0000
0000
0001
0000
0000
3001
0000
,
0001
0010
0100
1000
,
0100
1000
0100
1000
,
0100
0001
0100
0001
,
0010
1000
0010
1000
,
0010
0001
0010
0001
,
0100
0020
0200
0000
0000
0000
0000
0000
,
0000
0330
0000
0000
;

//---------------dance-single - ----------------
#NOTES:
     dance-single:
     :
     Medium:
     8:
     0.419510,0.546627,0.477635,0.212282,0.017690,254.000000,54.000000,24.000000,0.000000,0.000000,0.000000,0.419510,0.546627,0.477635,0.212282,0.017690,254.000000,54.000000,24.000000,0.000000,0.000000,0.000000:
0000
0000
0000
0000
,
0000
0000
0000
0000
,
0000
0000
0000
0000
,
0000
0000
0000
0000
,
0000
0000
0000
0000
,
0210
0000
1000
0000
,
0001
0000
1300
0010
,
0002
0000
0100
0000
,
0010
0000
0000
0000
0103
0000
0010
0100
,
0000
0000
0000
0000
,
2001
0000
0000
0001
0000
0000
0000
0001
,
0000
0000
0000
0001
0000
0000
3001
0000
,
1002
0000
0000
1000
0000
0000
0000
1000
,
0000
0000
0000
1000
0000
0000
1003
0000
,
0110
0000
0000
0001
0000
0000
0000
1100
,
0000
0000
0000
1000
0000
0000
1001
0000
,
0001
0000
0000
0011
0000
0000
0000
0100
,
0000
0000
0000
1100
0000
0000
1001
0000
,
0010
1000
0010
1000
0010
1000
0010
0000
,
0001
0100
0001
1000
,
0001
0100
0001
0100
0001
0100
0001
0000
,
1000
0010
0100
0001
,
0010
0100
0010
0100
0010
0100
0010
0000
,
0001
1000
0100
0001
,
0010
1000
0010
1000
0010
1000
0010
0000
,
0001
1000
0100
0010
,
2000
0000
3200
0000
,
0302
0000
0023
0000
,
2030
0000
3200
0000
,
0302
0000
0023
0000
,
2030
0000
3200
0000
,
0302
0000
0023
0000
,
2030
0000
3200
0000
,
0302
0000
0023
0000
,
1030
0100
1100
0000
,
0001
0100
0101
0000
,
0001
0010
0011
0000
,
1000
0010
1010
0000
,
1000
0100
0001
0100
,
1000
0010
0001
0010
,
1000
0100
0001
0100
,
1000
0010
0001
0010
,
1000
0100
1100
0000
,
0001
0100
0101
0000
,
0010
0100
0110
0000
,
1000
0001
1001
0000
,
1000
0100
0101
0000
,
0001
0100
1100
0000
,
1000
0010
0011
0000
,
0001
0010
1010
0000
,
1000
1000
0100
0100
,
0001
0001
0010
0010
,
1000
1000
0100
0100
,
0001
0001
0010
0010
,
1100
1000
1001
0001
,
0011
0010
0110
0100
,
1100
1001
0011
0110
,
0010
0100
0000
0110
0000
0000
1000
0001
0000
1001
0000
0000
,
0220
0000
0000
0330
,
0001
0000
0000
0010
0000
0000
0100
0000
0000
1000
0000
0000
1100
0000
0000
0000
,
1000
0001
1000
0000
0010
0000
1001
0000
,
0100
0001
0100
0000
0010
0000
0110
0000
,
1000
0100
0001
0000
0100
0000
1010
0000
,
0001
1000
0010
0000
1000
0000
0011
0000
,
0001
1000
0100
0000
0001
0000
1001
0000
,
0010
1000
0100
0000
0001
0000
0110
0000
,
1000
0100
0001
0000
0100
0000
1100
0000
,
1000
0001
0010
0000
1000
0000
0101
0000
,
0010
0000
0000
1100
0000
0000
1000
0000
,
0001
0000
0000
0011
0000
0000
1000
0000
,
0001
0000
0000
1100
0000
0000
1001
0000
,
0010
0000
1000
0100
0001
0000
1000
0000
,
1001
0000
0000
0010
0000
0000
1100
0000
,
1000
0000
0000
0101
0000
0000
0110
0000
,
0001
1100
1000
1001
,
0001
0011
0010
0110
,
0001
1000
2002
0000
0000
0000
0000
0000
,
0000
3003
0000
0000
;

//---------------dance-single - ----------------
#NOTES:
     dance-single:
     :
     Hard:
     12:
     0.573668,0.649119,0.194592,0.141522,0.110564,416.000000,22.000000,16.000000,0.000000,0.000000,0.000000,0.573668,0.649119,0.194592,0.141522,0.110564,416.000000,22.000000,16.000000,0.000000,0.000000,0.000000:
0000
0000
0000
0000
,
0000
0000
0000
0000
,
0000
0000
0000
0000
,
0000
0000
0000
0000
,
0000
0000
0000
0000
,
0200
0000
2000
3000
,
0002
0000
0003
0000
2000
0000
3000
0300
,
0020
0000
2000
3000
,
0002
0000
0003
0000
2000
0000
3000
0030
,
0000
0000
0001
1000
,
2001
0000
0000
0010
0000
0000
0000
0100
,
0000
0000
0000
0010
0000
0000
3100
0000
,
1002
0000
0000
0100
0000
0000
0000
0010
,
0000
0000
0000
0100
0000
0000
0013
0000
,
2001
0000
0000
0010
0000
0000
0000
0100
,
0000
0000
0000
0010
0000
0000
3100
0000
,
1002
0000
0000
0100
0000
0000
0000
0010
,
0000
0000
0000
0103
1000
0001
1001
0000
,
1000
0100
1000
0000
0001
0100
0001
0000
,
0001
0100
1000
0000
1000
0100
0001
0000
,
1000
0010
1000
0000
0001
0010
0001
0000
,
1000
0010
0001
0000
0001
0010
1000
0000
,
0100
1000
0010
0000
0010
0100
0001
0000
,
1000
0100
0001
0000
0001
0010
1000
0000
,
0010
1000
0010
1000
0001
0100
0001
0100
,
0001
0010
0100
1000
0001
0010
0100
1000
,
0001
0100
0010
0100
0001
1000
0000
0110
,
0000
1000
0100
0010
0100
1000
0100
0010
,
0100
0001
0010
0100
1000
0010
0000
1000
,
0000
0100
0000
1100
0000
1000
0001
0001
,
1000
0010
0100
0010
1000
0001
0000
0110
,
0000
0001
0010
0100
0010
0001
0010
0100
,
0010
1000
0100
0010
0001
0100
0000
0001
,
0000
0010
0000
0011
0000
0001
1000
0000
,
0001
0010
0100
0000
0010
0100
1000
0000
,
1000
0100
0010
0000
0100
0010
0001
0000
,
0001
0100
1000
0000
0001
0100
1000
0000
,
0001
0010
1000
0000
0001
0010
1000
0000
,
0010
1000
0001
0000
0001
1000
0010
0000
,
0100
0001
1000
0000
1000
0001
0100
0000
,
0001
0100
1000
0000
1000
0100
0001
0000
,
0001
0010
1000
0000
1000
0010
0001
0000
,
1000
0100
0001
0001
0000
0001
0100
1000
,
0000
1000
0100
0001
0000
0001
0100
1000
,
0010
0100
0010
0001
0000
0001
0010
0100
,
0000
0010
0100
0001
1000
0001
0100
0010
,
1000
0100
0010
0001
0000
0001
0010
0100
,
0000
0100
1000
0100
0000
0010
1000
0100
,
0001
0010
0100
1000
0000
0010
1000
0100
,
0000
0001
0010
0100
1000
0010
0100
0001
,
0100
0000
0000
0100
0000
0000
0100
0000
0000
0100
0010
0100
,
0010
0000
0000
0001
0000
0000
0001
0000
1000
0001
1000
0001
,
1000
0000
0000
0010
0000
0000
0010
0000
0000
1000
0010
1000
,
0010
0000
0000
0100
0000
0000
0100
0000
0001
0100
0001
0100
,
0001
0100
1100
1000
,
1001
0001
0011
0010
,
1100
0110
0011
1001
,
1000
0100
0001
1000
0010
0001
1000
0000
1100
0000
1100
0000
,
2200
0000
0000
3300
,
0001
0010
0000
0010
0000
0000
0100
1000
0000
1000
0000
0000
0010
0000
1000
0000
,
0001
1000
0001
1000
0010
0100
0010
0100
,
0001
0100
1000
0001
0010
1000
0010
0000
,
1000
0001
1000
0001
0100
0010
0100
0010
,
1000
0010
0001
1000
0100
0001
0100
0000
,
0001
0010
0100
1000
0010
1000
0001
0000
,
0001
1000
0100
0001
0100
0001
0010
0000
,
0001
0010
0100
1000
0001
0010
0100
1000
,
0001
0100
0010
1000
0001
0100
0010
1000
,
0001
1000
0100
0001
0000
0001
0100
1000
,
0001
0100
0010
0100
0000
0100
0010
0100
,
1000
0001
1000
0010
0000
0010
1000
0100
,
0001
0000
0000
0100
0000
0000
1000
0000
0000
0100
0000
0000
0010
0000
0001
0000
,
0010
0100
1000
0001
0000
0001
1000
0100
,
0010
0001
0100
1000
0000
1000
0100
0001
,
0010
0100
1000
0010
1000
0100
0001
0010
,
0100
0000
0010
0000
0100
0000
0010
0000
0010
0100
0010
0100
0010
0100
0010
0000
,
1001
1001
2002
0000
0000
0000
0000
0000
,
0000
3003
0000
0000
;
