#TITLE:Hunny Bunny;
#SUBTITLE:;
#ARTIST:U1 overground;
#TITLETRANSLIT:;
#SUBTITLETRANSLIT:;
#ARTISTTRANSLIT:;
#GENRE:jubeat;
#CREDIT:;
#BANNER:;
#BACKGROUND:;
#LYRICSPATH:;
#CDTITLE:;
#MUSIC:Hunny Bunny.ogg;
#OFFSET:-0.430000;
#SAMPLESTART:25.945671;
#SAMPLELENGTH:15.000000;
#SELECTABLE:YES;
#BPMS:0.000000=160.000000
;
#STOPS:191.875000=1.493000
;
#BGCHANGES:;
#KEYSOUNDS:;
#ATTACKS:;

//---------------dance-single - ----------------
#NOTES:
     dance-single:
     :
     Beginner:
     4:
     0.160768,0.181404,0.025195,0.041992,0.000000,126.000000,3.000000,5.000000,0.000000,0.000000,0.000000,0.160768,0.181404,0.025195,0.041992,0.000000,126.000000,3.000000,5.000000,0.000000,0.000000,0.000000:
0000
0000
0000
0000
,
0000
0000
0000
0000
,
0000
0000
0000
0000
,
2000
0000
0000
0000
,
3002
0000
0000
0000
,
0103
0000
0100
0000
,
0010
0000
0010
0000
,
1000
0000
1000
0000
,
0001
0000
0001
0000
,
1000
0000
0100
0000
,
1000
0000
0010
0000
,
1000
0000
0100
0000
,
1000
0000
0010
0000
,
0001
0000
0100
0000
,
0001
0000
0010
0000
,
0001
0000
0100
0000
,
0001
0000
0000
0000
,
1000
0000
0100
0000
,
0010
0000
0100
0000
,
1000
0000
0100
0000
,
0020
0000
0100
0000
,
0031
0000
0010
0000
,
0100
0000
0010
0000
,
0001
0000
0010
0000
,
0200
0000
0010
0000
,
0310
0001
1000
0000
,
0010
0000
0010
0000
,
0010
1000
0001
0000
,
0010
0000
0010
0000
,
0100
1000
0001
0000
,
0100
0000
0100
0000
,
0001
0100
1000
0000
,
0000
0000
0010
0000
,
0001
0000
0100
0000
,
1000
0000
0000
0000
,
0010
0000
0100
0000
,
0001
0000
1000
0000
,
0010
0000
0000
0000
,
0100
0000
0001
0000
,
1000
0000
0010
0000
,
1001
0000
0000
0000
,
0010
0000
1000
0000
,
0010
0000
0100
0000
,
0100
0001
0010
0000
,
0100
0000
1001
0000
,
0100
0000
0010
0000
,
1000
0000
0010
0000
,
0100
0001
1000
0000
,
1001
0000
0000
0000
,
0100
0000
0000
0000
,
1000
0000
0000
0000
,
0010
0000
0000
0000
,
0001
0000
0100
0000
,
1000
0000
0000
0000
,
1000
0000
0100
0000
,
0001
0000
0000
0000
,
1000
0000
0010
0000
,
0100
0000
0010
0000
,
1000
0000
0000
0000
,
1000
0000
0000
0000
,
0001
0000
0100
0000
,
0010
0000
0100
0000
,
0001
0000
0000
0000
,
0001
0000
0000
0000
,
1000
0000
0100
0000
,
0010
0000
0100
0000
,
1000
0000
0100
0000
,
0010
0000
0000
0000
,
0001
0000
0010
0000
,
0100
0000
0010
0000
,
0001
0000
0010
0000
,
0200
0000
0000
0000
,
0310
0000
0000
0000
;

//---------------dance-single - ----------------
#NOTES:
     dance-single:
     :
     Easy:
     7:
     0.373127,0.332575,0.058788,0.100780,0.000000,292.000000,7.000000,12.000000,0.000000,0.000000,0.000000,0.373127,0.332575,0.058788,0.100780,0.000000,292.000000,7.000000,12.000000,0.000000,0.000000,0.000000:
0000
0000
0000
0000
,
0000
0000
0000
0000
,
0000
0000
0000
0000
,
1000
0100
1000
0100
,
0001
0100
0001
0100
,
1000
0010
1000
0010
,
0001
0010
0001
0010
,
1000
0001
1000
0001
,
0020
0100
0100
0130
,
0001
0000
1000
0000
0100
1000
0100
0000
,
0010
1000
0001
0100
,
0010
0000
0001
0000
0010
0001
0010
0000
,
1000
0010
0100
0001
,
1001
0000
1100
0000
0010
1000
0001
0000
,
0100
0010
1000
0001
,
1001
0000
0101
0000
0001
0100
0010
0000
,
2000
0000
0000
0000
0001
0000
0001
3000
,
0010
1000
0010
0100
,
0002
0000
0100
0103
,
0010
1000
0001
0000
0100
0000
0010
0000
,
2000
0000
0001
3001
,
0010
0100
0001
1000
,
0020
0000
0100
0130
,
0001
1000
0010
0000
1000
0000
0100
0000
,
0002
0000
0100
0103
,
1000
0010
0100
0000
0001
0000
1000
0000
,
0010
0000
0100
0000
0001
0100
0010
0000
,
1000
0001
0010
0100
,
0001
0000
1000
0000
0001
0100
0010
0000
,
1000
0100
0001
0100
,
0010
0000
1000
0000
1000
0100
0001
0000
,
0010
1000
0001
0100
,
0020
0100
0100
0130
,
0001
1000
0010
1000
,
0100
0000
0001
0100
0001
0000
1001
0000
,
0010
1000
0001
0100
,
0001
0000
0010
0000
1000
0010
1000
0000
,
0001
1000
0010
1000
,
0001
0010
0001
0000
1001
0000
0010
0000
,
1000
0010
0100
0001
,
0200
0010
0010
0310
,
0001
0000
1000
0000
0010
1000
0100
0000
,
0010
0000
1000
0000
0001
0100
0010
0000
,
0001
0100
0010
1000
,
0001
0001
1000
1000
,
0010
1000
0001
0000
0100
0000
0010
0000
,
1000
0001
0100
0000
0010
0000
1000
0000
,
0001
0010
1000
0000
0100
0000
0001
0000
,
1000
0010
0000
0100
,
0001
0000
0000
0000
1000
0001
0010
0000
,
1000
0001
0000
0100
,
0001
0000
0000
0000
1000
0010
0001
0000
,
0100
0001
0000
0100
,
1000
0000
0000
0000
0010
1000
0001
0000
,
0100
0010
1000
0001
,
0100
0000
0100
0000
0020
0000
0100
0030
,
0001
1000
0010
1000
,
0001
0100
0001
1000
,
0010
1000
0100
0001
,
0010
0100
0001
1000
,
0020
0100
0100
0031
,
2000
0100
0100
3010
,
0002
0100
0100
0013
,
1000
0010
0100
0001
,
1000
0100
0010
0000
0100
0000
0001
0000
,
1000
0010
0001
1000
,
0001
0010
0100
0000
1000
0000
0010
0000
,
0100
0001
0100
0010
,
0001
0100
0010
0000
1000
0000
0001
0000
,
0100
0010
0001
1000
,
0100
1000
0010
0000
0100
0000
0001
0000
,
1000
0000
0010
0000
0100
0001
1000
0000
,
1100
0000
0000
0000
;

//---------------dance-single - ----------------
#NOTES:
     dance-single:
     :
     Medium:
     11:
     0.514699,0.453511,0.327536,0.033593,0.008398,386.000000,39.000000,4.000000,0.000000,0.000000,0.000000,0.514699,0.453511,0.327536,0.033593,0.008398,386.000000,39.000000,4.000000,0.000000,0.000000,0.000000:
0000
0000
0000
0000
,
0000
0000
0000
0000
,
0000
0000
0000
0000
,
0010
1000
0010
0001
,
0100
1000
0100
0001
,
1000
0010
0100
0000
0001
0000
1001
0000
,
0001
0100
0010
0000
1000
0000
1001
0000
,
1000
0010
0100
0000
0001
0100
0010
0000
,
1000
0100
0010
0000
0100
0010
0001
0000
,
0100
0000
1001
0000
0010
1000
0001
0100
,
0010
1000
1000
1000
,
0100
0000
0001
0000
0100
0010
1000
0001
,
0100
0001
0001
0001
,
1000
0010
0100
0000
0001
0100
0010
0000
,
1000
0100
0001
0000
0001
0010
1000
0000
,
1000
0010
0100
0001
0010
0100
1000
0001
,
0200
0010
0010
0310
,
0001
0010
0100
1000
0010
1000
0001
0100
,
1001
0000
0001
1000
0010
0100
1000
0000
,
0010
1000
0100
0010
0100
0001
0100
0010
,
0110
0000
0001
0100
0010
0000
1000
0010
,
0100
0001
1000
0010
1000
0100
0001
0100
,
0110
0000
0001
0010
0100
0000
0010
0100
,
1000
0000
0010
1000
0001
0000
0001
1000
,
0010
0000
0010
1000
0001
0100
1000
0000
,
1100
0000
0101
0001
0100
0000
0010
1000
,
0001
0000
1000
0000
0010
1000
0001
0000
,
0011
0000
1010
0010
1000
0000
0001
0000
,
0100
0010
1000
0000
0010
0100
0001
0100
,
0010
0000
1100
0100
0001
0000
0100
0000
,
1010
0000
0001
1000
0010
0100
0001
0000
,
0011
0000
0101
0001
0010
0000
1000
0000
,
0001
1000
0010
0100
0001
0000
1100
0000
,
0001
1000
0010
0000
0010
1000
0001
0000
,
0100
1000
0100
0001
0100
1000
0100
0000
,
0010
1000
0001
0000
0001
1000
0010
0000
,
0001
0010
1000
0010
1000
0010
0001
0000
,
0010
1000
0001
0000
0001
1000
0010
0000
,
1000
0010
0001
0010
1000
0010
0001
0000
,
0001
0100
0010
0000
1000
0010
0100
0000
,
1000
0100
0001
0100
0001
0100
1000
0000
,
0100
0000
1001
0000
0010
1000
0001
0000
,
1100
0101
0010
1001
,
0001
0100
0010
0000
1000
0000
1010
0000
,
1010
0011
0101
1001
,
0001
1000
0010
0100
0001
0000
1100
0000
,
1000
0010
0100
0001
0100
0000
1001
0000
,
0001
1000
0010
0100
1000
0000
1200
0000
,
0301
1000
0010
0100
,
0002
0000
0100
0103
,
1000
0010
0100
0001
,
2000
0000
0010
3010
,
0001
1000
0010
0000
1001
0000
0000
0000
,
1000
0001
0100
0000
1001
0000
0000
0000
,
1000
0010
0100
0000
0100
0001
0100
0000
,
0010
1000
0001
0000
0010
0000
0011
0000
,
0100
0000
0001
0000
0100
0010
1000
0000
,
0100
0000
1100
0000
0010
1000
0001
0000
,
0010
0000
0011
0000
0001
0100
1000
0000
,
0010
0000
1001
0000
0010
1000
0001
0000
,
0100
1000
0010
0000
0010
0100
0001
0000
,
0001
0100
0001
0000
1000
0000
0000
0000
0100
0000
0000
0000
0010
0000
0000
0000
,
1000
0100
0001
0000
0001
0100
1000
0000
,
1000
0100
1000
0000
0010
0000
0000
0000
0001
0000
0000
0000
1001
0000
0000
0000
,
0010
1000
0100
0000
0010
0000
1001
0000
,
0001
0100
0010
0000
1000
0000
1010
0000
,
0001
1000
0010
0000
0001
0000
0011
0000
,
0100
0001
1000
0000
0100
0000
0110
0000
,
1000
0001
0010
0000
1000
0010
0100
0000
,
0001
0100
0010
0000
0100
0010
1000
0000
,
0001
0010
0100
1000
0100
0010
0001
0100
,
1000
0100
0010
0001
0010
0100
1000
0000
,
1001
0000
0000
0000
;

//---------------dance-single - ----------------
#NOTES:
     dance-single:
     :
     Hard:
     15:
     0.758251,0.967490,0.184764,0.033593,0.453511,606.000000,22.000000,4.000000,0.000000,0.000000,0.000000,0.758251,0.967490,0.184764,0.033593,0.453511,606.000000,22.000000,4.000000,0.000000,0.000000,0.000000:
// measure 0
0000
0000
0000
0000
,  // measure 1
0000
0000
0000
0000
,  // measure 2
0000
0000
0000
0000
,  // measure 3
1000
0100
0010
0100
0001
0010
0100
0000
,  // measure 4
0001
0100
0010
0100
1000
0010
0100
0000
,  // measure 5
0001
0010
0100
1000
0100
0010
0001
0100
,  // measure 6
0010
1000
0100
0010
0100
0001
0010
0100
,  // measure 7
1000
0010
0100
0001
0010
0100
1000
0010
,  // measure 8
0100
0001
1000
0010
0100
0001
1001
0000
,  // measure 9
1000
0100
1000
0000
0100
1000
0100
0010
,  // measure 10
0001
0000
0000
0000
0010
0000
0000
0000
0100
0000
0001
0000
1000
0010
1000
0001
,  // measure 11
0100
0000
0010
0000
0001
0100
0010
1000
,  // measure 12
0001
0000
0000
0000
0101
0000
0000
0000
0001
0000
0100
0000
0010
1000
0001
0100
,  // measure 13
0010
0000
0100
0000
1100
0100
0010
0100
,  // measure 14
0001
0000
0000
0000
0010
0000
0000
0000
0011
0000
0010
0000
1000
0010
0100
0001
,  // measure 15
0010
0100
1000
0010
1000
0001
0100
0010
,  // measure 16
0200
0000
0000
0300
,  // measure 17
0001
0100
0010
1000
0100
0010
1000
0001
,  // measure 18
1001
0000
0010
1000
1100
1000
0010
0100
,  // measure 19
0001
0100
0010
1000
0100
0001
0100
0010
,  // measure 20
1001
0000
0000
0000
0001
0000
0100
0000
0001
0000
1000
0000
0010
0100
0001
0100
,  // measure 21
1000
0010
0100
0001
0010
0100
0001
1000
,  // measure 22
1001
0000
0100
0001
0011
0001
0100
0010
,  // measure 23
1000
0010
0100
0001
0010
1000
0010
0100
,  // measure 24
1001
0000
0000
0000
1000
0000
0010
0000
1000
0000
0001
0000
0100
0010
1000
0010
,  // measure 25
1000
0001
0010
0100
1000
0001
0100
0010
,  // measure 26
1100
0000
0000
0000
0001
1000
0010
0100
0001
0000
0010
0000
1001
0000
0000
0000
,  // measure 27
0010
1000
0010
0100
0001
0010
0100
1000
,  // measure 28
0001
0000
0100
0000
0010
0000
1000
0000
0001
0100
0001
1000
0010
0000
0000
0000
,  // measure 29
0001
1000
0010
1000
0100
0001
0010
0100
,  // measure 30
1000
0000
0010
0000
0001
0000
0010
1000
0010
0000
0100
0000
0001
0000
0010
0000
,  // measure 31
0100
1000
0010
0100
0001
0010
0100
1000
,  // measure 32
0001
0000
1000
0000
0010
0000
0100
0000
0001
1000
0010
0100
0001
0000
0000
0000
,  // measure 33
0010
0000
1000
0000
0100
0000
0010
0100
0001
0000
0010
0000
0100
0000
1000
0000
,  // measure 34
0010
0000
0100
0000
0001
0000
0100
0010
1000
0000
0001
0000
1010
0000
0000
0000
,  // measure 35
0001
0000
1000
0000
0010
0100
0001
0000
0010
0000
0100
0000
1000
0000
0010
0000
,  // measure 36
0100
0000
0001
0000
0010
0000
0100
0000
1000
0100
0010
0100
1000
0000
0010
0000
,  // measure 37
0100
0000
0001
0000
0010
0000
0100
0010
1000
0000
0100
0000
0010
0000
0001
0000
,  // measure 38
0100
0000
0010
0000
1000
0000
0010
0100
0001
0000
1000
0000
0101
0000
0000
0000
,  // measure 39
1000
0000
0001
0000
0100
0010
1000
0000
0100
0000
0010
0000
0001
0000
0100
0000
,  // measure 40
0010
0000
1000
0000
0100
0000
0010
0000
0001
0010
0100
0010
0001
0000
0100
0000
,  // measure 41
0001
0010
0100
1000
0001
0000
1001
0000
,  // measure 42
0010
1000
0001
0100
0010
1000
1100
0000
,  // measure 43
0010
1000
0001
0100
0010
0000
0110
0000
,  // measure 44
0001
0010
1000
0100
0001
0100
0101
0000
,  // measure 45
0101
0100
0100
1000
1000
1000
0010
0010
,  // measure 46
0110
0100
0100
0001
0001
0001
0010
0010
,  // measure 47
1000
0000
0010
0000
1000
0000
0100
0000
0001
0000
0010
0000
0100
0010
2000
0000
,  // measure 48
3010
0000
0001
0000
0100
0010
1000
0001
,  // measure 49
0200
0000
0000
0000
0000
0000
0000
0000
0310
1000
0000
1000
0010
0000
1000
0001
,  // measure 50
0100
0000
1000
0000
0010
0100
0001
1000
,  // measure 51
0020
0000
0000
0000
0000
0000
0000
0000
0130
0001
0000
0001
0100
0000
0001
1000
,  // measure 52
0001
1000
0010
0100
1100
0000
0100
0000
,  // measure 53
0001
1000
0010
0100
0011
0000
0001
0000
,  // measure 54
0100
0010
0001
0000
1000
0000
0001
0000
1000
0100
0010
0000
0001
0000
1000
0000
,  // measure 55
0001
0010
0100
1000
0010
0100
1000
0100
0010
0001
0100
1000
0100
0000
0000
0000
,  // measure 56
0001
0000
1000
0000
0001
0010
1000
0100
0001
0000
0010
0000
0100
0000
1000
0100
,  // measure 57
1000
0000
0001
0000
1000
0100
0001
0010
1000
0000
0100
0000
0010
0000
0001
0010
,  // measure 58
0100
0000
0010
0000
0100
0001
0010
1000
0100
0000
0001
0000
1000
0000
0010
1000
,  // measure 59
0100
0000
0001
0000
1000
0100
0001
0010
1000
0000
0100
0000
0010
0000
0001
0010
,  // measure 60
0100
0000
1000
0000
0001
0010
0100
0010
0001
0010
0100
0010
0001
0000
1000
0000
,  // measure 61
0001
0010
0100
1000
0001
0100
0010
1000
0100
0000
0001
0000
0010
0000
0100
0000
,  // measure 62
1000
0010
1000
0010
0100
0001
0100
0001
0010
0100
0010
0100
0001
1000
0001
1000
,  // measure 63
0100
0010
1000
0001
0010
0100
1000
0010
1000
0100
0001
0010
0001
0000
0000
0000
,  // measure 64
0001
0100
0010
1000
0010
0000
1000
0010
0100
0000
0001
0000
1000
0000
0010
0000
,  // measure 65
0010
0001
1000
0100
1000
0000
0100
1000
0001
0000
0010
0000
0100
0000
1000
0000
,  // measure 66
0100
1000
0001
0010
0001
0000
0010
0001
1000
0000
0100
0000
0010
0000
0001
0000
,  // measure 67
1000
0010
0100
0001
0100
0000
0001
0100
0010
0000
1000
0000
0001
0000
0100
0000
,  // measure 68
1000
0100
0010
0000
0100
0000
1000
0000
0001
0010
0100
0000
0010
0000
0001
0000
,  // measure 69
1000
0100
0001
0000
0010
0000
0100
0000
0001
0010
1000
0000
0100
0000
0010
0000
,  // measure 70
0001
1000
0001
1000
0010
0100
0010
0100
1000
0100
1000
0100
0001
0010
0001
0010
,  // measure 71
1000
0100
0010
0001
0100
0010
1000
0100
0010
0001
1000
0100
0010
1000
0001
0100
,  // measure 72
0010
0000
0000
0000
;
