#TITLE:Howling;
#SUBTITLE:;
#ARTIST:PON;
#TITLETRANSLIT:;
#SUBTITLETRANSLIT:;
#ARTISTTRANSLIT:;
#GENRE:beatmania IIDX;
#CREDIT:;
#BANNER:;
#BACKGROUND:;
#LYRICSPATH:;
#CDTITLE:;
#MUSIC:Howling.ogg;
#OFFSET:1.210000;
#SAMPLESTART:17.349937;
#SAMPLELENGTH:15.000000;
#LASTBEATHINT:0.452435;
#SELECTABLE:YES;
#BPMS:0.000000=155.000000
;
#STOPS:
;
#BGCHANGES:;
#KEYSOUNDS:;
#ATTACKS:;

//---------------dance-single - ----------------
#NOTES:
     dance-single:
     :
     Beginner:
     2:
     0.108726,0.183709,0.026244,0.017496,0.000000,87.000000,84.000000,3.000000,2.000000,0.000000,0.000000,0.108726,0.183709,0.026244,0.017496,0.000000,87.000000,84.000000,3.000000,2.000000,0.000000,0.000000:
// measure 0
0000
0000
0000
0000
,  // measure 1
0000
0000
0000
0000
,  // measure 2
0000
0000
0000
0000
,  // measure 3
0001
0000
0000
0000
,  // measure 4
1000
0000
0000
0000
,  // measure 5
0100
0000
1000
0000
,  // measure 6
0100
0000
0000
0000
,  // measure 7
0010
0000
0001
0000
,  // measure 8
0020
0000
0000
0000
,  // measure 9
0000
0000
0000
0000
,  // measure 10
0030
0000
0000
0000
,  // measure 11
0000
0000
0100
0100
,  // measure 12
1000
0000
0100
0000
,  // measure 13
0010
0000
0000
0000
,  // measure 14
0001
0000
0010
0000
,  // measure 15
0100
0000
0000
0000
,  // measure 16
1000
0000
0100
0000
,  // measure 17
0001
0000
0000
0000
,  // measure 18
0001
0000
0010
0000
,  // measure 19
1000
0000
0000
0000
,  // measure 20
0100
0000
0000
0000
,  // measure 21
0010
0000
0000
0000
,  // measure 22
1000
0000
0000
0000
,  // measure 23
0001
0000
0000
0000
,  // measure 24
0010
0000
0000
0000
,  // measure 25
0100
0000
0000
0000
,  // measure 26
0001
0000
0000
0000
,  // measure 27
1000
0000
0000
0000
,  // measure 28
0100
0000
0000
0000
,  // measure 29
0100
0000
0000
0000
,  // measure 30
0100
0000
0000
0000
,  // measure 31
0100
0000
0010
0000
,  // measure 32
1000
0000
0000
0000
,  // measure 33
1000
0000
0000
0000
,  // measure 34
1000
0000
0000
0000
,  // measure 35
1000
0000
0001
0000
,  // measure 36
0100
0000
0000
0000
,  // measure 37
0100
0000
0000
0000
,  // measure 38
0010
0000
0000
0000
,  // measure 39
0010
0000
0000
0000
,  // measure 40
1000
0000
0000
0000
,  // measure 41
1000
0000
0000
0000
,  // measure 42
0001
0000
0000
0000
,  // measure 43
0001
0000
0000
0000
,  // measure 44
0100
0000
0100
0000
,  // measure 45
0100
0100
0200
0000
,  // measure 46
0310
0000
0000
0000
,  // measure 47
1001
0000
0000
0000
,  // measure 48
0100
0000
0000
0000
,  // measure 49
1001
0000
0000
0000
,  // measure 50
1000
0000
0100
0000
,  // measure 51
1000
0000
0000
0000
,  // measure 52
0001
0000
0010
0000
,  // measure 53
0001
0000
0000
0000
,  // measure 54
1000
0000
0010
0000
,  // measure 55
0100
0000
0000
0000
,  // measure 56
0001
0000
0100
0000
,  // measure 57
0010
0000
0000
0000
,  // measure 58
1000
0000
0100
0000
,  // measure 59
0001
0000
0000
0000
,  // measure 60
0001
0000
0010
0000
,  // measure 61
1000
0000
0000
0000
,  // measure 62
1000
0000
0000
0000
,  // measure 63
0001
0000
0000
0000
,  // measure 64
1000
0000
0000
0000
,  // measure 65
0001
0000
0000
0000
,  // measure 66
0100
0000
0000
0000
,  // measure 67
0010
0000
0000
0000
,  // measure 68
0100
0000
0000
0000
,  // measure 69
0010
0000
0000
0000
,  // measure 70
1001
0000
0000
0000
;

//---------------dance-single - ----------------
#NOTES:
     dance-single:
     :
     Easy:
     6:
     0.324928,0.434779,0.306182,0.402411,0.000000,260.000000,225.000000,35.000000,46.000000,0.000000,0.000000,0.324928,0.434779,0.306182,0.402411,0.000000,260.000000,225.000000,35.000000,46.000000,0.000000,0.000000:
// measure 0
0000
0000
0000
0000
,  // measure 1
0000
0000
0000
0000
,  // measure 2
0000
0000
0000
0000
,  // measure 3
1001
0000
1001
0000
,  // measure 4
0110
0110
0110
0000
,  // measure 5
1000
0100
0010
0001
,  // measure 6
0100
0010
0220
0330
,  // measure 7
0001
0010
0100
1000
,  // measure 8
2002
0000
0000
0000
,  // measure 9
0000
0000
0000
0003
,  // measure 10
0001
0000
0001
0000
,  // measure 11
0001
0000
3001
0010
,  // measure 12
0110
1000
0100
0000
,  // measure 13
0010
0100
0001
0000
,  // measure 14
1000
0010
0100
0000
,  // measure 15
0001
1001
1001
0000
,  // measure 16
0010
0100
0001
1000
,  // measure 17
1000
0010
0200
0300
,  // measure 18
0010
0100
0001
0001
,  // measure 19
1000
0010
0110
0110
,  // measure 20
0002
0103
1000
0010
,  // measure 21
2000
3100
0001
0010
,  // measure 22
1000
0001
0010
0100
,  // measure 23
0001
1001
2002
3003
,  // measure 24
0002
0103
1000
0010
,  // measure 25
2000
3010
0001
0100
,  // measure 26
1000
0010
0100
0001
,  // measure 27
0110
0110
0220
0330
,  // measure 28
0001
0100
1000
0100
,  // measure 29
0001
0010
1000
0010
,  // measure 30
0001
1000
0001
1000
,  // measure 31
0010
0100
0220
0330
,  // measure 32
1000
0010
0001
0010
,  // measure 33
1000
0100
0001
0100
,  // measure 34
1000
0010
1000
0001
,  // measure 35
0100
0001
0010
0001
,  // measure 36
2001
0000
3002
0000
,  // measure 37
0203
0000
0320
0000
,  // measure 38
2030
0000
3002
0000
,  // measure 39
0203
0000
0320
0000
,  // measure 40
0032
0000
2003
0000
,  // measure 41
3200
0000
0320
0000
,  // measure 42
1030
1000
0001
0001
,  // measure 43
1000
1000
0001
0001
,  // measure 44
0110
0110
0110
0110
,  // measure 45
0001
1000
2002
3003
,  // measure 46
2000
0000
3020
0000
,  // measure 47
0230
0302
0023
0000
,  // measure 48
2030
0000
3002
0000
,  // measure 49
0203
2300
3020
0000
,  // measure 50
0130
1001
0100
0010
,  // measure 51
1000
1001
0010
0100
,  // measure 52
0001
1001
0100
0010
,  // measure 53
2000
0000
0001
3001
,  // measure 54
0010
0100
0001
1001
,  // measure 55
0100
0010
1000
1001
,  // measure 56
1000
0100
0010
0001
,  // measure 57
0110
0110
0220
0330
,  // measure 58
0001
0100
0010
1010
,  // measure 59
1000
0010
0100
0101
,  // measure 60
0001
0100
0010
1000
,  // measure 61
0020
0100
0200
0330
,  // measure 62
0001
0100
0010
1000
,  // measure 63
1000
0010
0100
0001
,  // measure 64
1000
0100
0001
0100
,  // measure 65
1000
0100
0001
0100
,  // measure 66
1000
0010
0100
0001
,  // measure 67
0001
0100
0010
1000
,  // measure 68
0001
0010
1000
0010
,  // measure 69
0001
0010
1000
0010
,  // measure 70
0220
0000
0000
0000
,  // measure 71
0330
0000
0000
0000
;

//---------------dance-single - ----------------
#NOTES:
     dance-single:
     :
     Medium:
     10:
     0.482393,0.527946,0.314930,0.096229,0.069985,386.000000,350.000000,36.000000,11.000000,0.000000,0.000000,0.482393,0.527946,0.314930,0.096229,0.069985,386.000000,350.000000,36.000000,11.000000,0.000000,0.000000:
// measure 0
0000
0000
0000
0000
,  // measure 1
0000
0000
0000
0000
,  // measure 2
0000
0000
0000
0000
,  // measure 3
1100
0000
0101
0000
,  // measure 4
0010
0100
0010
0100
0020
0000
0130
0000
,  // measure 5
1000
0000
0010
0100
0001
0000
0100
0000
,  // measure 6
0001
0000
0100
0010
1000
0000
0001
0000
,  // measure 7
0100
0000
0010
0000
1000
0000
0010
0100
,  // measure 8
0210
0000
0010
0000
,  // measure 9
0010
0000
0010
0000
,  // measure 10
0310
0000
0000
0100
0000
0000
0010
0000
0100
0000
0000
1000
0000
0000
0001
0000
,  // measure 11
1000
0000
0000
0001
0000
0000
0100
0000
0010
0000
1000
0000
0001
0000
0000
0000
,  // measure 12
1001
0000
0100
0000
0010
1000
0001
0000
,  // measure 13
0100
0000
0010
0000
0001
0100
0010
0000
,  // measure 14
1000
0000
0010
0100
0001
0000
1000
0000
,  // measure 15
1100
0101
2200
3300
,  // measure 16
0010
0000
1000
0010
0100
0000
0001
0100
,  // measure 17
0010
0000
1000
0100
0001
0000
0110
0000
,  // measure 18
0001
0000
0100
0010
1000
0000
0001
0100
,  // measure 19
0010
0011
2020
3030
,  // measure 20
0001
1000
0001
0000
0010
0100
0010
0000
,  // measure 21
1000
0001
1000
0000
0100
0010
0100
0000
,  // measure 22
1000
0100
0001
0000
0001
0010
1000
0000
,  // measure 23
1000
0010
0100
0001
0100
0000
1001
0000
,  // measure 24
0001
0010
0001
0000
1000
0100
1000
0000
,  // measure 25
0001
1000
0001
0000
0100
0010
0100
0000
,  // measure 26
1000
0010
1000
0000
0001
0100
0001
0000
,  // measure 27
1000
0010
1000
0001
0100
0010
1000
0000
,  // measure 28
1001
0000
1001
0000
0010
0100
0010
0000
,  // measure 29
1001
0000
1001
0000
0100
0010
0100
0000
,  // measure 30
1000
0100
0001
0000
0001
0010
1000
0000
,  // measure 31
0020
0100
0001
0130
,  // measure 32
0001
0100
0001
0000
1000
0000
1100
0000
,  // measure 33
1000
0010
1000
0000
0001
0000
0011
0000
,  // measure 34
1000
0100
0001
0000
0010
1000
0001
0000
,  // measure 35
0100
0001
1000
0010
0100
0001
1000
0000
,  // measure 36
1001
0000
0000
0001
0001
0000
0000
1000
,  // measure 37
1000
0000
0000
0010
0010
0000
0000
0100
,  // measure 38
0100
0000
0000
1000
1000
0000
0000
0001
,  // measure 39
0001
0000
0000
0000
0000
0000
0000
0000
0000
0100
0000
0000
0010
0000
0100
0000
0010
0000
0100
0000
0000
0000
0000
0000
,  // measure 40
1000
0010
0000
0001
0010
0001
0000
1000
,  // measure 41
0010
1000
0000
0001
0010
0001
0000
0100
,  // measure 42
0020
0100
0001
0100
,  // measure 43
0001
0000
0000
0000
0100
0000
0000
0000
1000
0000
0000
0000
0100
0030
0000
0000
,  // measure 44
0200
0010
1000
0010
,  // measure 45
1000
0010
0001
0310
,  // measure 46
1001
0000
0000
0000
0000
0000
0010
0100
0010
0000
0000
0000
0000
0000
1000
0001
,  // measure 47
1000
0000
0000
0000
0000
0000
0010
0100
0010
0000
0000
0000
0000
0000
1000
0100
,  // measure 48
1000
0000
0000
0000
0000
0000
0010
0100
0010
0000
0000
0000
0000
0000
0000
0000
,  // measure 49
0001
0100
0010
1000
0001
0000
1001
0000
,  // measure 50
1000
0000
0000
0000
0000
0000
0010
0100
0010
0000
0000
0000
0000
0000
0001
1000
,  // measure 51
0001
0000
0000
0000
0010
0000
0000
0000
1001
0000
0000
0000
0000
0000
0100
0010
,  // measure 52
0100
0000
0000
0000
0000
0000
1000
0001
1000
0000
0000
0000
0000
0000
0010
0100
,  // measure 53
0010
0000
0000
0000
0000
0000
0000
0000
0001
0000
0000
0001
0000
0000
0001
0000
,  // measure 54
1001
0000
1000
0100
0010
0000
0001
0100
,  // measure 55
0010
0000
1000
0001
0010
0000
1000
0000
,  // measure 56
1001
0000
0001
0100
1000
0000
0010
0000
,  // measure 57
0100
0010
0100
0001
1000
0000
1001
0000
,  // measure 58
0010
0000
0100
0010
1000
0000
0010
0100
,  // measure 59
0001
0000
0100
1000
0010
0000
0001
0100
,  // measure 60
0010
0000
1000
0001
0100
0000
0010
0000
,  // measure 61
0001
1000
0001
1000
0010
0000
0010
0000
,  // measure 62
1001
0000
1001
0010
0100
0000
0010
0000
,  // measure 63
1001
0000
1001
0100
0010
0000
1001
0000
,  // measure 64
1000
0100
0001
0000
0001
0010
1000
0000
,  // measure 65
0010
0100
0010
0100
0001
1000
0001
0000
,  // measure 66
0110
0000
0110
1000
0001
0000
1001
0000
,  // measure 67
0110
0000
0110
0001
1000
0000
1001
0000
,  // measure 68
0100
0010
1000
0000
0010
0100
0001
0000
,  // measure 69
0001
0100
1000
0010
0100
0001
1000
0000
,  // measure 70
0022
0000
0000
0000
,  // measure 71
0033
0000
0000
0000
;

//---------------dance-single - ----------------
#NOTES:
     dance-single:
     :
     Hard:
     13:
     0.636109,0.683224,0.314930,0.113725,0.328052,509.000000,473.000000,36.000000,13.000000,0.000000,0.000000,0.636109,0.683224,0.314930,0.113725,0.328052,509.000000,473.000000,36.000000,13.000000,0.000000,0.000000:
// measure 0
0000
0000
0000
0000
,  // measure 1
0000
0000
0000
0000
,  // measure 2
0000
0000
0000
0000
,  // measure 3
1001
0000
0000
0000
0000
0000
0100
0010
0100
0000
0000
0000
0000
0000
0000
0000
,  // measure 4
0001
0100
0010
1000
0001
0000
1001
0000
,  // measure 5
1000
0100
0010
0100
0001
0000
1001
0000
,  // measure 6
0001
0100
0010
1000
0001
0000
1001
0000
,  // measure 7
1000
0100
0010
0001
0010
0100
1000
0010
,  // measure 8
0220
0000
0000
0000
,  // measure 9
0000
0000
0000
0330
,  // measure 10
0010
0100
0000
0010
0000
0000
0100
0000
0001
1000
0000
0001
0000
0000
1000
0000
,  // measure 11
0001
1000
0000
0010
0000
0000
0100
0000
0001
0000
1000
0000
0010
0000
0100
0000
,  // measure 12
0001
0000
0000
0000
0100
0000
0010
0100
0010
0000
0000
0000
1000
0000
0001
0000
,  // measure 13
0100
0000
0000
0000
0010
0000
1000
0100
1000
0000
0000
0000
0010
0000
0100
0000
,  // measure 14
0001
0000
0000
0000
0100
0000
0010
0001
0010
0000
0000
0000
0010
0000
0000
0000
,  // measure 15
1000
0001
0100
0010
1001
0000
0110
0000
,  // measure 16
0001
0000
0000
0000
0100
0000
0010
1000
0010
0000
0000
0000
0100
0000
0010
0000
,  // measure 17
1000
0000
0000
0000
0001
0000
1000
0001
1000
0000
0000
0000
0010
0000
0100
0000
,  // measure 18
0001
0000
0000
0000
1000
0000
0100
0010
0100
0000
0000
0000
1000
0000
0000
0000
,  // measure 19
0010
1000
0100
0001
0010
0100
1000
0000
,  // measure 20
0001
0000
0000
1000
0001
0000
1000
0000
0010
0000
0100
0000
0001
0000
1000
0000
,  // measure 21
0010
0000
0000
0010
0100
0000
0001
0000
0010
0000
1000
0000
0100
0000
0010
0000
,  // measure 22
0001
0000
0000
1000
0001
0000
1000
0000
0010
0000
1000
0000
0100
0000
0010
0000
,  // measure 23
0001
0010
0100
1000
1001
0000
0110
0000
,  // measure 24
0001
0000
0000
1000
0010
0000
0100
0000
0001
0000
0010
0000
0100
0000
1000
0000
,  // measure 25
0001
0000
0000
0001
0010
0000
0100
0000
0010
0000
1000
0000
0010
0000
0100
0000
,  // measure 26
0001
0000
0000
0100
0010
0000
1000
0000
0001
0000
0010
0000
0100
0000
1000
0000
,  // measure 27
0010
0100
0001
0010
1000
0001
0100
0000
,  // measure 28
0001
0000
0100
0000
0001
0000
0000
0000
1010
0000
0000
0100
0010
0000
0001
0000
,  // measure 29
0100
0000
0010
0000
0100
0000
0000
0000
0011
0000
0000
1000
0001
0000
1000
0000
,  // measure 30
0010
0000
0100
0000
0001
0000
0000
0000
0101
0000
0000
0010
0100
0000
1000
0000
,  // measure 31
0010
0000
1000
0000
0100
0000
0000
0000
1100
0000
0000
0100
0010
0000
0100
0000
,  // measure 32
0001
0000
0010
0000
0100
0000
0000
0000
1010
0000
0000
0010
1000
0000
0001
0000
,  // measure 33
0100
0000
0010
0000
0100
0000
0000
0000
0011
0000
0000
0001
0100
0000
0010
0000
,  // measure 34
1000
0000
0001
0000
0100
0000
0000
0000
1001
0000
0000
0010
0100
0000
0001
0000
,  // measure 35
1000
0000
0100
0000
0010
0000
0000
0000
0110
0000
0000
0001
1000
0000
0010
0000
,  // measure 36
1000
0100
0000
0100
0010
0001
0000
0001
,  // measure 37
0100
0010
0000
0010
1000
0100
0000
0100
,  // measure 38
1000
0001
0000
0001
1000
0010
0000
1000
,  // measure 39
0100
0000
0000
0010
0000
0000
0000
0000
0000
0010
0000
0000
0100
0000
0001
0000
1000
0000
0010
0000
0000
0001
0000
0000
,  // measure 40
0010
0100
0000
1000
0010
0100
0000
0001
,  // measure 41
0100
0010
0000
1000
0010
0100
0000
0001
,  // measure 42
0100
0010
0100
0010
0000
0000
1000
0001
1000
0001
0000
0000
,  // measure 43
1000
0100
1000
0100
0000
0000
0001
0010
0001
0010
0000
0000
,  // measure 44
1000
0010
1000
0010
1000
0010
0100
0001
0100
0001
0100
0001
,  // measure 45
0010
0010
0010
0010
0220
0000
0330
0000
,  // measure 46
2001
0000
0000
3000
0000
0000
0010
0100
0010
0000
0000
0000
0000
0000
0001
1000
,  // measure 47
0001
0000
0000
0000
0100
0000
0000
0000
0010
0000
0000
0000
1000
0000
0000
0000
0000
0000
0100
0000
0000
0010
0000
0000
0100
0000
0000
0000
0000
0000
0000
0000
0000
0000
0000
0000
0000
0000
0000
0000
0000
0000
0010
0000
0000
1000
0000
0000
,  // measure 48
0001
0000
0000
0010
1001
0000
0100
0000
,  // measure 49
0002
0023
0230
2300
3002
0003
1001
0000
,  // measure 50
0010
0000
0000
0000
1000
0000
0010
0100
0001
0000
0000
0000
0001
0000
0100
0010
,  // measure 51
1000
0000
0000
0000
0001
0000
1000
0100
0001
0000
0000
0000
1000
0000
0001
0010
,  // measure 52
1000
0000
0000
0000
0001
0000
1000
0010
0100
0000
0000
0000
0001
0000
0010
0000
,  // measure 53
0200
0000
0000
0000
0310
0000
0000
0000
0001
1000
0000
1000
0001
0000
0001
1000
,  // measure 54
0010
0000
0000
0000
0001
0000
1000
0010
0100
0000
0001
0000
0010
0000
0100
0001
,  // measure 55
0010
0000
0000
0000
1000
0000
0001
1000
0010
0000
0100
0000
0001
0000
0010
0000
,  // measure 56
1100
0000
0000
0000
0010
0000
0100
0010
0100
0000
0001
0000
0010
0000
0100
0000
,  // measure 57
1000
0100
0010
0001
1001
0000
0110
0000
,  // measure 58
0001
0000
0000
0000
0100
0000
0010
1000
0001
0000
0010
0000
0100
0000
0001
0010
,  // measure 59
1000
0000
0000
0000
1000
0000
0100
0010
0001
0000
1000
0000
0010
0000
0100
0000
,  // measure 60
0010
0000
0000
0000
1000
0000
0001
1000
0010
0000
0001
0000
0100
0000
0000
0000
,  // measure 61
0001
0010
1000
0100
0010
0001
0110
0000
,  // measure 62
1001
0000
0010
0000
1000
0000
0001
0100
0010
0000
1000
0000
0001
0000
0010
1000
,  // measure 63
0001
0000
0100
0000
0001
0000
0010
0100
0010
0000
0000
1000
0001
0000
0010
0000
,  // measure 64
1000
0100
0010
0001
0100
1000
0010
0100
,  // measure 65
0101
1100
0101
1001
,  // measure 66
1001
0000
0100
0000
0001
0000
1000
0010
0100
0000
0001
0000
1000
0000
0100
0001
,  // measure 67
1000
0000
0010
0000
1000
0000
0100
0010
0100
0000
0000
0001
1000
0000
0100
0000
,  // measure 68
0001
0010
0100
1000
0010
0001
0100
1000
,  // measure 69
1010
0010
0011
0001
1001
0001
0101
0100
,  // measure 70
2200
0000
0000
0000
,  // measure 71
3300
0000
0000
0000
;
