#TITLE:星を辿れば;
#SUBTITLE:;
#ARTIST:大原ゆい子;
#TITLETRANSLIT:Hoshi wo tadoreba;
#SUBTITLETRANSLIT:;
#ARTISTTRANSLIT:Yuiko Ohara;
#GENRE:Anime/Game;
#CREDIT:;
#BANNER:;
#BACKGROUND:;
#LYRICSPATH:;
#CDTITLE:;
#MUSIC:Hoshi wo tadoreba.ogg;
#OFFSET:1.495100;
#SAMPLESTART:46.100365;
#SAMPLELENGTH:15.000000;
#LASTBEATHINT:0.997225;
#SELECTABLE:YES;
#BPMS:0.000000=131.022995
;
#STOPS:
;
#BGCHANGES:3.500=Hoshi wo tadoreba.avi=1.000=0=0=0=StretchNoLoop====,
99999=-nosongbg-=1.000=0=0=0 // don't automatically add -songbackground-
;
#KEYSOUNDS:;
#ATTACKS:;

//---------------dance-single - ----------------
#NOTES:
     dance-single:
     :
     Hard:
     10:
     0.477041,0.460885,0.366101,0.144222,0.005547,255.000000,33.000000,13.000000,0.000000,0.000000,0.000000,0.477041,0.460885,0.366101,0.144222,0.005547,255.000000,33.000000,13.000000,0.000000,0.000000,0.000000:
0000
0000
0000
0000
,
0000
0000
0000
0000
,
0000
0000
0000
0000
,
0000
0000
0000
0000
,
0000
0000
0000
0000
,
1001
0000
0001
0010
0000
0100
0010
0000
,
1000
0000
0001
1000
0000
1000
0010
0100
,
0001
1000
0010
0100
0000
0110
0000
0001
,
0200
0310
2000
3001
,
0010
1000
0001
0100
1000
0000
1100
0000
,
1000
0010
0100
0001
0010
0000
0011
0000
,
0100
0001
1000
0010
0100
0000
0110
0000
,
1000
0100
0001
0100
1000
0010
0001
0000
,
1001
0000
0010
1000
0001
0000
0110
0000
,
1000
0001
0010
0100
1000
0000
0110
0000
,
1000
0001
0100
0000
0001
1000
0010
0000
,
1000
0100
0001
1000
0010
0000
1001
0000
,
0020
0000
0130
0001
1000
0000
0100
0000
,
0020
0000
1030
0001
0100
0000
1000
0000
,
0020
0000
0130
1000
0001
0000
0101
0000
,
0010
1000
0001
0100
0010
0000
1100
0000
,
1000
0100
0001
0010
0000
1001
0000
0010
,
1000
0001
0100
0110
0000
1001
0001
1000
,
0010
0000
0100
0001
0010
0100
1000
0020
,
0000
0000
0000
0230
0000
0000
0000
0000
,
1300
0001
1000
0010
0100
0000
1001
0000
,
0010
1000
0100
0001
0000
1100
0000
0010
,
1000
0001
0010
1000
0000
0011
0000
1000
,
0001
0100
0010
1000
0001
1000
0001
0100
,
1000
0010
0100
0000
0101
0000
1100
0000
,
0010
1000
0001
0100
0010
0000
0110
0000
,
0001
1000
0010
0100
0001
0000
1001
0000
,
1000
0000
0001
0100
0000
1100
0000
0202
,
0000
0000
0303
0000
0001
0100
1000
0000
,
0010
1000
0001
0100
0000
0001
1000
0010
,
0100
0001
0010
1000
0000
0001
0010
1000
,
0100
0010
0100
0001
0100
1000
0010
0100
,
0002
0000
0103
0010
2000
0000
3010
0000
,
0001
0010
1000
0100
0010
0000
1001
0000
,
0010
1000
0100
0001
0010
0000
0110
0000
,
0001
0000
0100
0000
0010
0000
0000
0000
1000
0000
0000
0010
0000
0000
0001
0000
,
2002
0000
0000
3003
,
0001
0100
1000
0010
1000
0001
1001
0000
,
0010
1000
0100
0010
0001
0010
0011
0000
,
0001
0010
0100
1000
0010
0100
0110
0000
,
0001
1000
0100
0001
0100
1000
1100
0000
,
1000
0100
0010
0001
0100
0010
1000
0001
,
0010
0000
1000
0001
0010
0000
1001
0000
,
0100
0010
1000
0001
0000
1100
0000
0101
;

//---------------dance-single - ----------------
#NOTES:
     dance-single:
     :
     Medium:
     7:
     0.345498,0.325331,0.199692,0.122034,0.000000,189.000000,18.000000,11.000000,0.000000,0.000000,0.000000,0.345498,0.325331,0.199692,0.122034,0.000000,189.000000,18.000000,11.000000,0.000000,0.000000,0.000000:
0000
0000
0000
0000
,
0000
0000
0000
0000
,
0000
0000
0000
0000
,
0000
0000
0000
0000
,
0000
0000
0000
0000
,
1000
0000
0000
0100
0000
0000
1000
0000
,
0100
0000
0000
0010
0000
0000
0100
0000
,
0010
0000
0000
0001
0000
0000
0010
0000
,
0001
1000
2002
3003
,
0001
0100
1000
0010
,
1000
0010
0100
0000
0001
0000
1001
0000
,
0010
1000
0001
0100
,
0001
0100
0010
0000
1000
0000
1001
0000
,
0100
0010
1000
0000
0002
0000
0000
0003
,
1000
0010
0100
0000
0002
0000
0000
0000
,
0103
0010
1000
0000
0001
0000
0100
0000
,
0120
0000
0100
0130
,
0001
0100
0010
0000
1000
0000
1001
0000
,
1000
0010
0100
0000
0001
0000
1001
0000
,
0001
0100
0010
0000
1000
0010
1000
0000
,
0001
0010
1000
0000
0010
0001
0010
0000
,
0100
0001
1000
0000
1001
0000
0010
0000
,
1000
0001
0100
0000
0010
0000
0110
0000
,
0001
0100
1000
0000
0010
0000
1000
0000
,
0002
0000
2000
0000
,
3003
0000
0010
0110
,
1000
0100
0001
0000
1000
0000
1001
0000
,
0001
0000
0100
0000
0010
1000
0001
0000
,
0010
0000
0100
0000
0001
0010
1000
0000
,
0001
0100
0010
1001
,
0010
0000
1000
0001
0100
0000
0010
0000
,
0001
0000
0100
0000
0010
1000
0001
0000
,
0200
0000
0000
0000
0310
0000
1000
0001
,
0020
0000
0000
0000
0130
0000
0001
1000
,
0100
0000
1000
0000
0001
0100
0010
0000
,
1000
1001
0010
0100
,
0001
0000
0100
0000
0010
1000
0010
0000
,
1000
1001
0010
0100
,
0001
0000
1000
0010
0100
0000
0001
0000
,
1000
0000
0010
0000
0001
0100
0010
0000
,
1000
0001
0010
0100
,
0220
0000
0000
0330
,
0001
0100
1000
0000
0010
0000
1001
0000
,
0100
0010
0001
1000
,
0010
1000
0001
0000
0100
0000
0110
0000
,
1000
0001
0100
0010
,
1000
0100
0001
0000
0010
0000
1001
0000
,
0001
0100
0010
1000
,
0001
0000
0100
0010
0000
1000
0000
1001
;

//---------------dance-single - ----------------
#NOTES:
     dance-single:
     :
     Easy:
     5:
     0.234558,0.271802,0.044376,0.232974,0.000000,123.000000,4.000000,21.000000,0.000000,0.000000,0.000000,0.234558,0.271802,0.044376,0.232974,0.000000,123.000000,4.000000,21.000000,0.000000,0.000000,0.000000:
0000
0000
0000
0000
,
0000
0000
0000
0000
,
0000
0000
0000
0000
,
0000
0000
0000
0000
,
0000
0000
0000
0000
,
0020
0000
1030
0000
,
0020
0000
0031
0000
,
0200
0000
1300
0000
,
0200
0000
0301
0000
,
1000
0010
0100
0000
,
0001
0100
0010
0000
,
1000
0100
0001
0000
,
0001
0010
1000
0000
,
0010
0100
0001
0000
,
0100
0010
1000
0000
,
0101
0100
1000
0000
,
1100
0100
0001
0000
,
2000
0000
3010
0001
,
0020
0000
0031
0100
,
0002
0000
0103
1000
,
0200
0000
0310
0000
,
1000
0001
0000
0100
,
0000
0001
0000
1000
,
0010
0100
0001
0010
,
0200
0000
0020
0000
,
0000
0000
0330
0000
,
1000
0100
0000
0100
,
0010
0001
0000
0100
,
0010
1000
0000
0001
,
0010
0100
0000
1000
,
0001
0000
0100
0010
,
1000
0000
0001
0100
,
0020
0000
2030
0000
,
3002
0000
0103
0010
,
1000
0010
0001
0000
,
0100
0001
1000
0000
,
0010
0001
1000
0010
,
0200
0000
0000
0300
,
0010
2000
0000
3001
,
0010
0200
0000
0310
,
0100
0002
0000
0013
,
0200
0000
0020
0330
,
0001
1000
0010
0000
,
0100
0001
1000
0000
,
0010
0001
0010
1000
,
0010
0100
2002
3003
,
0010
0100
0001
0000
,
0100
0010
1000
0000
,
0010
0100
0001
1000
,
1001
0000
0000
0000
;

//---------------dance-single - ----------------
#NOTES:
     dance-single:
     :
     Beginner:
     1:
     0.110940,0.108721,0.044376,0.022188,0.000000,64.000000,4.000000,2.000000,0.000000,0.000000,0.000000,0.110940,0.108721,0.044376,0.022188,0.000000,64.000000,4.000000,2.000000,0.000000,0.000000,0.000000:
// measure 0
0000
0000
0000
0000
,  // measure 1
0000
0000
0000
0000
,  // measure 2
0000
0000
0000
0000
,  // measure 3
0000
0000
0000
0000
,  // measure 4
0000
0000
0000
0000
,  // measure 5
0100
0000
1000
0000
,  // measure 6
0200
0000
0300
0000
,  // measure 7
0100
0000
0001
0000
,  // measure 8
0200
0000
0300
0000
,  // measure 9
1000
0000
0010
0000
,  // measure 10
1000
0000
0010
0000
,  // measure 11
0001
0000
0010
0000
,  // measure 12
0001
0000
0010
0000
,  // measure 13
0100
0000
0010
0000
,  // measure 14
0100
0000
0010
0000
,  // measure 15
1001
0000
0000
0000
,  // measure 16
0100
0000
0000
0000
,  // measure 17
0001
0000
0010
0000
,  // measure 18
0001
0000
0010
0000
,  // measure 19
0100
0000
0010
0000
,  // measure 20
0100
0000
0010
0000
,  // measure 21
1000
0000
0010
0000
,  // measure 22
1000
0000
0010
0000
,  // measure 23
1001
0000
0000
0000
,  // measure 24
0010
0000
0000
0000
,  // measure 25
0000
0000
0000
0000
,  // measure 26
1000
0000
0000
0000
,  // measure 27
0100
0000
0000
0000
,  // measure 28
0010
0000
0000
0000
,  // measure 29
0001
0000
0000
0000
,  // measure 30
1000
0000
0000
0000
,  // measure 31
0010
0000
0000
0000
,  // measure 32
0100
0000
0000
0000
,  // measure 33
0001
0000
0000
0000
,  // measure 34
0001
0000
0000
0000
,  // measure 35
0010
0000
0000
0000
,  // measure 36
0100
0000
0000
0000
,  // measure 37
1000
0000
0000
0000
,  // measure 38
0001
0000
0000
0000
,  // measure 39
0100
0000
0000
0000
,  // measure 40
0010
0000
0000
0000
,  // measure 41
1000
0000
0000
0000
,  // measure 42
0100
0000
0100
0000
,  // measure 43
0010
0000
0010
0000
,  // measure 44
1000
0000
1000
0000
,  // measure 45
0001
0000
0001
0000
,  // measure 46
1000
0000
0100
0000
,  // measure 47
0010
0000
0001
0000
,  // measure 48
1001
0000
0000
0000
,  // measure 49
1001
0000
0000
0000
;
