#TITLE:History Maker;
#SUBTITLE:;
#ARTIST:DEAN FUJIOKA;
#TITLETRANSLIT:;
#SUBTITLETRANSLIT:;
#ARTISTTRANSLIT:;
#GENRE:Anime/Game;
#CREDIT:;
#BANNER:;
#BACKGROUND:;
#LYRICSPATH:;
#CDTITLE:;
#MUSIC:History Maker.ogg;
#OFFSET:3.600000;
#SAMPLESTART:78.830070;
#SAMPLELENGTH:15.000000;
#LASTBEATHINT:2.862624;
#SELECTABLE:YES;
#DISPLAYBPM:67.000000;
#BPMS:0.000000=66.979988
;
#STOPS:
;
#BGCHANGES:;
#KEYSOUNDS:;
#ATTACKS:;

//---------------dance-single - ----------------
#NOTES:
     dance-single:
     :
     Beginner:
     1:
     0.069837,0.055343,0.036895,0.000000,0.000000,49.000000,4.000000,0.000000,0.000000,0.000000,0.000000,0.069837,0.055343,0.036895,0.000000,0.000000,49.000000,4.000000,0.000000,0.000000,0.000000,0.000000:
0000
0000
0000
0000
,
0000
0000
0000
0000
,
0000
0000
0000
0000
,
1000
0000
0100
0000
,
0010
0000
0001
0000
,
1000
0000
0010
0000
,
0100
0000
0001
0000
,
0010
0000
0100
0000
,
0010
0000
0100
0000
,
1000
0000
0001
0000
,
1000
0000
0001
0000
,
0100
0000
0000
0000
,
0010
0000
0000
0000
,
0001
0000
0000
0000
,
1000
0000
0100
0000
,
1000
0000
0010
0000
,
0100
0000
0001
0000
,
1000
0000
0010
0000
,
0100
0000
0001
0000
,
1000
0000
0100
0000
,
0010
0000
0001
0000
,
1000
0000
0010
0000
,
0100
0000
0001
0000
,
1000
0000
0100
0000
,
0010
0000
0001
0000
,
1000
0000
0100
0000
,
0010
0000
0001
0000
,
1001
0000
0000
0000
,
1001
0000
0000
0000
,
1001
0000
0000
0000
,
1001
0000
0000
0000
;

//---------------dance-single - ----------------
#NOTES:
     dance-single:
     :
     Easy:
     2:
     0.152852,0.140663,0.073791,0.083014,0.000000,99.000000,8.000000,9.000000,0.000000,0.000000,0.000000,0.152852,0.140663,0.073791,0.083014,0.000000,99.000000,8.000000,9.000000,0.000000,0.000000,0.000000:
0000
0000
0000
0000
,
0000
0000
0000
0000
,
0000
0000
0000
0000
,
1000
0100
1000
0010
,
0001
0010
0001
0100
,
1000
0010
1000
0100
,
0001
0100
0001
0010
,
1000
0100
0020
0030
,
0001
1000
0200
0300
,
1000
0100
0020
0030
,
0001
0010
0200
0300
,
2000
0000
0100
3000
,
0002
0000
0100
0003
,
2000
0000
0010
3000
,
0002
0010
0010
0013
,
1000
0100
1000
0010
,
0110
0000
1001
0010
,
0101
0001
1000
0010
,
0110
0000
1001
0100
,
1000
0010
0100
0001
,
1000
0100
0010
0001
,
1000
0001
0100
0010
,
0001
0100
0010
1000
,
0100
1000
0001
0010
,
0100
1000
0001
0010
,
0100
0010
1000
0001
,
0100
0010
1000
0001
,
1100
1000
1000
1000
,
0101
0001
0001
0001
,
1001
1000
0100
0010
,
0002
1000
1003
0000
;

//---------------dance-single - ----------------
#NOTES:
     dance-single:
     :
     Medium:
     6:
     0.229278,0.200157,0.101462,0.009224,0.249043,162.000000,11.000000,1.000000,0.000000,0.000000,0.000000,0.229278,0.200157,0.101462,0.009224,0.249043,162.000000,11.000000,1.000000,0.000000,0.000000,0.000000:
0000
0000
0000
0000
,
0000
0000
0000
0000
,
0000
0000
0000
0000
,
1000
0100
0000
1000
0000
0000
0001
0000
0100
0001
0000
0000
,
1000
0000
0100
1000
0000
0000
0001
0000
0100
0001
0000
0000
,
1010
0000
0010
1000
0000
0000
0010
0000
0001
0010
0000
0000
,
1000
0000
0010
1000
0000
0000
0001
0000
0010
0001
0000
0000
,
1000
0000
0100
1000
0000
0000
0010
0000
0100
0010
0000
0000
,
0001
0000
0010
0001
0000
0000
0010
0000
0100
0010
0000
0000
,
1000
0000
0100
0010
0000
0000
0001
0000
0010
0100
0000
0000
,
1000
0000
0100
0010
0000
0000
0001
0000
0010
0100
0000
0000
,
1100
1000
0100
1100
,
0010
0100
0001
0100
,
0010
1000
0010
0011
,
0001
0000
0000
0100
0000
0000
0010
0100
0010
1000
0000
0000
,
0001
0100
1100
0101
,
1001
0000
0000
0010
0000
0000
0001
0010
0100
1000
0000
0000
,
1001
0100
1000
0010
,
0110
0000
0000
0001
0000
0000
1000
0100
0010
0001
0000
0000
,
0101
0000
1000
0100
0000
0000
0010
0000
0100
0010
0000
0000
,
0001
0000
0100
0001
0000
0000
0001
0010
0100
1000
0000
0000
,
0100
0000
1000
0100
0000
0000
0010
0000
0100
0010
0000
0000
,
0001
0000
0010
0001
0000
0000
1000
0100
0010
0001
0000
0000
,
1000
0000
0000
0100
0000
0000
0001
0000
0000
0010
0000
0001
,
1000
0000
0000
0100
0000
0000
1000
0100
0010
0001
1000
0100
,
0010
0000
0000
0010
0000
0000
0100
0000
0000
0010
0000
1000
,
0100
0000
0000
0001
0000
0000
0001
0100
0010
1000
0001
0100
,
0010
0010
0010
0010
,
0110
0100
0100
0100
,
0001
1000
0001
0000
1000
0001
0000
1000
0001
0000
0001
0010
,
0100
1000
0001
0010
0100
1000
0200
0000
0000
0000
0000
0000
,
0300
0000
0000
0000
;

//---------------dance-single - ----------------
#NOTES:
     dance-single:
     :
     Hard:
     9:
     0.372906,0.328829,0.083014,0.046119,0.719458,269.000000,9.000000,5.000000,0.000000,0.000000,0.000000,0.372906,0.328829,0.083014,0.046119,0.719458,269.000000,9.000000,5.000000,0.000000,0.000000,0.000000:
// measure 0
0000
0000
0000
0000
,  // measure 1
0000
0000
0000
0000
,  // measure 2
0000
0000
0000
0000
,  // measure 3
1000
0100
0010
0001
0000
0100
0001
0010
1000
0100
0000
1000
,  // measure 4
0010
0000
0001
0010
0000
1000
0010
0000
0001
0010
0000
1000
,  // measure 5
0001
0010
0100
1000
0000
1000
0100
0010
0100
0001
0000
0010
,  // measure 6
1000
0000
1000
0100
0000
0001
0100
0000
1000
0100
0000
0001
,  // measure 7
0100
1000
0100
0001
0010
1000
0010
0001
0100
0010
1000
0100
,  // measure 8
1100
0000
0001
0100
0000
0001
0100
1000
0100
0001
0000
0010
,  // measure 9
1000
0100
0010
0001
0010
0100
1000
0010
1000
0100
0010
0100
,  // measure 10
0001
0000
0001
0010
0000
0010
1000
0000
0010
1000
0000
0100
,  // measure 11
0020
0000
0000
0130
0001
1000
0020
0000
0000
1030
0001
0100
,  // measure 12
0200
0000
0000
0310
1000
0001
0200
0000
0000
0301
1000
0010
,  // measure 13
0010
0000
1000
0100
0000
0100
0001
0000
0001
0010
0000
0010
,  // measure 14
1000
0100
1000
0100
0001
0100
0001
0010
1000
0100
0010
1000
,  // measure 15
1001
0000
1000
0100
0000
0100
0010
0000
0000
1001
0000
0001
,  // measure 16
0100
0000
0100
0010
0000
1000
0100
0010
0100
0001
0010
1000
,  // measure 17
1001
0000
1000
0100
0000
0100
0010
0000
0001
0100
0000
0010
,  // measure 18
1000
0000
1000
0100
0000
0010
0100
0001
0010
0100
1000
0100
,  // measure 19
1100
0000
0100
0001
0010
0100
1000
0000
1000
0010
0001
0100
,  // measure 20
0010
0000
0001
0010
0000
0010
1000
0100
0010
0100
0001
0010
,  // measure 21
1000
0000
1000
0010
0100
0001
0011
0000
0001
0100
0010
1000
,  // measure 22
1100
0000
1000
0010
0100
0001
0010
0010
0100
0100
0001
1000
,  // measure 23
1001
0000
0010
1000
0100
0001
0010
0000
0001
0100
0010
1000
,  // measure 24
0100
0000
0010
1000
0100
0010
0100
0001
0010
0100
1000
0100
,  // measure 25
1100
0100
0010
0100
0001
0010
0010
0000
0100
0010
1000
0100
,  // measure 26
0100
0000
1000
0010
1000
0100
0001
0010
0100
1000
0010
0100
,  // measure 27
0001
0010
1000
0100
,  // measure 28
1000
0000
1000
0100
0000
0100
0010
0000
0010
0001
0000
0001
,  // measure 29
0010
0100
1000
0100
0010
0001
0010
0100
0001
0010
0100
1000
,  // measure 30
1000
0100
0010
0001
0010
0100
1000
0100
0010
0001
0010
0100
2000
0000
0000
0000
0000
0000
0000
0000
0000
0000
0000
0000
,  // measure 31
3000
0000
0000
0000
;
