#TITLE:*ハロー、プラネット。(I.M.PLSE-EDIT);
#SUBTITLE:;
#ARTIST:ささくれ.UK feat. 初音ミク;
#TITLETRANSLIT:Hello, Planet (I.M.PLSE-EDIT);
#SUBTITLETRANSLIT:;
#ARTISTTRANSLIT:sasakure.UK feat. Hatsune Miku;
#GENRE:Anime/Game;
#CREDIT:;
#BANNER:;
#BACKGROUND:;
#LYRICSPATH:;
#CDTITLE:;
#MUSIC:Hello Planet (I.M.PLSE EDIT).ogg;
#OFFSET:1.199999;
#SAMPLESTART:86.779892;
#SAMPLELENGTH:15.000000;
#LASTBEATHINT:0.419476;
#SELECTABLE:YES;
#BPMS:0.000000=150.000000
;
#STOPS:
;
#BGCHANGES:1.333=Hello Planet (I.M.PLSE EDIT).avi=1.000=0=0=0=StretchNoLoop====,
99999=-nosongbg-=1.000=0=0=0 // don't automatically add -songbackground-
;
#KEYSOUNDS:;
#ATTACKS:;

//---------------dance-single - ----------------
#NOTES:
     dance-single:
     :
     Hard:
     14:
     0.688104,0.692032,0.275881,0.104387,0.283337,595.000000,37.000000,14.000000,0.000000,0.000000,0.000000,0.688104,0.692032,0.275881,0.104387,0.283337,595.000000,37.000000,14.000000,0.000000,0.000000,0.000000:
0000
0000
0000
0000
,
0000
0000
0000
0000
,
0000
0000
0000
0000
,
2000
0000
0000
0000
0000
0000
3100
1000
0100
0000
0000
0000
0000
0000
0001
0100
,
0001
0000
0000
0001
1000
0001
1000
0000
0000
1001
0000
0000
,
0010
0100
0010
1000
0000
0010
1000
0001
,
0000
0001
0010
0100
1000
0010
0100
0001
,
0200
0000
0000
0000
0000
0300
0010
0100
0010
0000
0000
0000
0000
0000
0001
1000
,
0001
0000
0000
0000
0000
0000
0001
0100
0001
0000
0000
0000
0000
0000
1000
0100
,
1000
0010
1000
0010
0100
0001
0010
0100
,
0000
0010
1000
0100
0010
0001
0010
0100
,
0020
0000
0000
0000
0100
0000
0030
0000
0000
0000
0001
1000
0001
0000
0010
0100
,
0010
0000
0000
0001
0010
0100
1000
0000
0010
0000
0000
0000
1000
0100
0010
0001
,
0010
0100
0010
0100
1000
0010
0100
0001
,
0000
0001
0010
1000
0100
0010
0100
0001
,
0200
0000
0000
0000
0000
0300
0010
0100
0010
0000
0000
0000
0001
0010
0100
1000
,
0010
0000
0000
0000
1001
0000
0000
0000
0010
0100
0010
0100
0010
0000
0000
0000
,
0001
1000
0100
0010
0100
0001
0010
0100
,
0000
1000
0010
0100
0001
0010
0100
1000
,
0010
0000
1000
0000
0100
0000
0001
1000
0001
0000
0010
0000
1000
0000
0100
0000
,
1100
0101
1001
0110
,
0001
0000
0010
0000
0100
0000
1000
0000
0100
1000
0100
1000
0100
0000
0010
0000
,
0100
0000
0010
0000
0001
0000
0010
0000
0100
0010
0100
0010
0100
0000
0001
0000
,
0010
0000
1000
0000
0100
0000
0010
0000
0001
0010
0001
0010
0001
0000
0010
0000
,
0100
0010
1000
0001
1100
0000
0101
0000
,
1001
0001
0010
0100
1000
0010
1000
0100
,
0010
0001
0010
0100
1000
0010
1000
0100
,
0001
0001
0100
0100
0010
0010
1000
1000
,
0002
0000
0000
0000
0000
0000
0103
0010
0100
0000
0000
0010
0000
0000
0010
0000
,
0100
0001
0010
0100
1000
0010
1000
0100
,
0001
0010
0100
1000
0010
0100
0001
0010
,
1000
0000
0100
1000
0100
0000
0001
0100
0001
0000
1000
0001
1000
0000
0001
0100
,
0010
0100
0001
1000
0010
0100
0010
0100
0001
0000
0000
0001
0000
0000
0001
0000
,
0010
1000
0100
0010
0100
0001
0010
0100
,
1000
0010
1000
0100
0001
0001
0100
0010
,
1000
0001
0100
0010
2000
0010
0010
3010
,
0000
1000
0010
0100
0002
0100
0100
0103
,
0010
1000
0100
0010
1000
0001
0100
0010
,
1000
0000
1000
0000
0001
0000
0001
0000
0100
0000
0010
0000
1000
0000
0001
0100
,
0010
0000
0000
0100
0000
0000
1001
0000
0010
0000
0000
1000
0000
0000
1100
0000
,
0001
0000
0000
0101
0000
0000
1001
0000
0010
0000
0010
0000
0100
0000
0001
0000
,
1000
0010
1000
0100
0010
0100
0001
0010
,
0100
1000
0010
1000
0100
0010
0001
0100
,
0001
0100
0001
0000
1000
0100
1000
0000
0001
0100
0001
0100
0010
1000
0100
0010
,
0100
0000
0000
0000
0001
0000
0000
0100
0010
0000
1000
0000
0100
0000
0010
0000
,
1100
0000
0101
0000
0001
1000
0010
0100
,
0011
0000
1010
0000
0010
1000
0001
0010
,
1001
0000
0110
0000
0001
0010
1000
0100
,
1100
0000
0101
0000
0001
0010
1000
0100
,
0020
0000
0130
0200
0000
0301
0002
0000
,
1003
2000
0000
3010
0010
0001
0100
0010
,
1000
0000
0010
0000
0100
0000
0001
1000
0001
0000
0010
0000
1000
0000
0100
0000
,
0010
0000
0001
0000
0010
0000
1000
0001
1000
0000
0000
0110
0000
0000
0001
0000
,
0101
0000
0010
1000
1100
0000
0100
0001
,
0011
0000
0001
1000
1010
0000
0001
1000
,
0010
1000
0100
0010
0100
0001
0010
0100
,
1000
0000
0010
0000
1000
0000
0100
0000
0001
0000
1000
0001
1000
0000
0010
0100
,
0010
0001
0010
0100
1000
0010
1000
0100
,
0010
0000
0001
0000
0010
0000
0100
0000
1000
0000
0100
1000
0100
0010
0100
1000
,
0010
1000
0010
0100
0001
0010
1000
0100
,
0010
0000
0001
0000
1000
0000
0001
1000
0001
0000
0010
0100
0010
0000
0001
0000
,
0010
1000
0100
0010
0001
0010
1000
0100
,
0010
0000
1000
0000
0100
0000
0010
0000
0001
0000
0010
0001
0010
0100
0010
0001
,
0100
1000
0001
0010
1000
0100
0010
0100
,
0001
0000
0010
0000
1000
0000
0001
1000
0001
0000
0010
0100
0010
0000
0001
0000
,
0010
0100
1000
0010
1000
0100
0001
0010
,
0100
0000
1000
0000
0010
0000
1000
0000
0100
0000
0010
0100
0001
0010
0100
1000
,
0010
1000
0010
0100
0001
0010
0100
1000
,
0010
0000
1000
0001
1000
0000
0010
0100
0010
0000
1000
0001
0010
0000
0100
0000
,
0010
0000
1000
0000
0010
0000
1000
0010
1000
0000
0001
0000
0100
0000
0001
1000
,
0001
0000
0010
0000
1000
0000
0100
0010
0100
0001
1000
0010
1000
0100
0010
0001
,
0100
0001
0010
0100
0000
1000
1100
0100
,
0000
0100
0101
0001
0000
0001
1001
1000
,
0000
0101
1100
0000
0000
0000
0000
0110
,
0000
0000
0000
1001
0000
0000
0010
0000
,
0100
0001
1000
0100
0000
1000
1010
0010
,
0000
0010
0011
0001
0000
0010
0100
1000
,
0000
0010
0100
0000
0001
0010
0100
2000
,
0000
0000
0000
0000
,
0000
0000
0000
0000
,
3001
0010
0100
1000
,
0100
0010
0001
1001
,
0220
0000
0000
0000
,
0000
0000
0000
0000
,
0000
0000
0000
0330
0000
0000
0000
0000
;

//---------------dance-single - ----------------
#NOTES:
     dance-single:
     :
     Medium:
     10:
     0.463352,0.440384,0.156581,0.208774,0.014912,386.000000,21.000000,28.000000,0.000000,0.000000,0.000000,0.463352,0.440384,0.156581,0.208774,0.014912,386.000000,21.000000,28.000000,0.000000,0.000000,0.000000:
0000
0000
0000
0000
,
0000
0000
0000
0000
,
0000
0000
0000
0000
,
0002
0000
0000
0103
0100
0000
0000
2000
,
0010
0010
3010
0000
,
0001
0100
0010
1000
0000
1000
0100
0010
,
0000
0100
0010
0001
0000
0001
0010
0100
,
2000
0000
0100
0000
,
0100
0000
3100
0000
,
1000
0100
0010
0001
0000
0100
0010
0001
,
0000
0100
0010
1000
0000
0100
0001
0010
,
0200
0010
0000
0310
,
1001
0000
0010
1000
0100
0000
0010
0100
,
0001
0010
1001
0010
,
1000
0000
0100
0000
0001
0010
0100
1000
,
0020
0000
0100
0000
,
0130
1001
0000
0010
,
1000
0001
0100
0000
0001
0000
1001
0000
,
0010
1000
0100
0000
0001
0000
1100
0000
,
1000
0000
0010
1000
0100
0000
0010
0000
,
0011
0101
1100
1001
,
0001
0000
0010
0000
1000
0100
1000
0000
,
0010
0000
1000
0000
0100
0001
0010
0000
,
1000
0000
0010
0000
0001
0010
0001
0000
,
0100
0000
0010
0000
1000
0100
0001
0000
,
0200
0310
2000
3001
,
0200
0310
0020
1030
,
0002
0203
0320
1030
,
0002
0000
0103
0100
,
0001
0010
1000
0000
1000
0100
0010
0000
,
0001
0100
1000
0010
,
1000
0010
1000
0000
0001
1000
0001
0000
,
0100
0000
0001
0000
0100
0000
0000
0000
0010
0000
0000
0010
0000
0000
0001
0000
,
0100
0000
1001
0000
0010
1000
0100
0000
,
0001
0000
1000
0000
0010
1000
0001
0000
,
0020
1000
0001
1030
,
0200
0001
1000
0301
,
0010
1000
0001
0000
0001
1000
0010
0000
,
1000
0100
0001
0000
0001
0010
0100
1000
,
0010
0000
0000
0100
0000
0000
0010
0000
1000
0000
0000
0100
0000
0000
1000
0000
,
0001
0000
0000
0010
0000
0000
0001
0000
1000
0000
0001
0000
1000
0000
0001
0000
,
0100
0000
0100
0000
1000
0100
0010
0000
,
0001
0000
0001
0000
0100
0010
1000
0000
,
0010
0100
0001
0010
0100
1000
0010
0100
,
0002
0100
0100
0103
,
0020
1000
0001
1030
,
0200
0001
1000
0301
,
0010
1000
0011
1100
,
1001
0000
0010
0000
1000
0100
0010
0001
,
0200
0000
0000
0310
0000
0001
2000
0000
,
0000
3001
0000
0010
1000
0001
0100
0000
,
0011
0101
1100
0001
,
0010
0000
1000
0100
1000
0000
0010
0000
,
1100
1001
0101
0001
,
1000
0000
0010
0000
0001
0010
0100
1000
,
0010
0100
0010
0100
0000
1000
0001
1000
,
0000
1000
0100
1000
0000
0001
0100
0001
,
0000
1000
0001
1000
0000
0001
0010
0100
,
0000
0010
0100
1000
0000
1000
0100
0010
,
0000
0100
0010
0001
0000
0001
0100
0001
,
0000
1000
0001
1000
0000
1000
0100
1000
,
0000
0010
1000
0010
0000
0001
0010
0001
,
0000
0100
0010
1000
0000
0010
0100
0001
,
0000
0001
0010
0100
0000
0010
0100
0010
,
0000
1000
0001
1000
0000
0010
0100
0010
,
0000
0001
0010
0001
0000
1000
0010
1000
,
0000
0001
1000
0010
0000
1000
0001
0100
,
0000
0001
0100
1000
0000
1000
0100
1000
,
0000
0001
0100
0001
0000
1000
0001
1000
,
0000
0010
0100
0010
0000
0001
0010
0100
,
0000
1000
0100
0010
0001
0010
0100
1000
,
0020
0000
0000
0130
0000
0001
1000
0020
,
0000
0000
0000
0130
0000
1000
0100
0002
,
0000
0100
0200
0000
0003
0000
0000
0301
,
0000
0000
0000
1000
0000
0000
0110
0000
,
0001
0010
1000
0100
0000
0010
0100
0001
,
0000
0001
0100
1000
0000
1000
0100
0010
,
0000
0001
0200
0000
0000
0000
0000
0020
,
0000
0000
0000
0000
,
0000
0000
0330
0000
,
0001
1000
0010
0100
,
1000
0001
0100
0010
,
2002
0000
0000
0000
,
0000
0000
0000
0000
,
0000
0000
0000
3003
0000
0000
0000
0000
;

//---------------dance-single - ----------------
#NOTES:
     dance-single:
     :
     Easy:
     7:
     0.335530,0.336276,0.089475,0.164037,0.000000,281.000000,12.000000,22.000000,0.000000,0.000000,0.000000,0.335530,0.336276,0.089475,0.164037,0.000000,281.000000,12.000000,22.000000,0.000000,0.000000,0.000000:
0000
0000
0000
0000
,
0000
0000
0000
0000
,
0000
0000
0000
0000
,
2000
0100
0100
3100
,
0002
0100
0200
0303
,
0001
0000
0010
0000
1000
0010
1000
0000
,
0001
1000
0010
0100
,
0002
0000
0100
0000
,
0010
0000
0100
0000
,
1003
0000
0010
0000
0100
0001
0100
0000
,
0001
0100
0010
1000
,
0200
0000
1000
0000
,
0010
0000
1000
0000
,
0301
0000
0010
0000
1000
0100
0010
0000
,
0001
1000
0010
0100
,
0002
0000
0100
0000
,
0010
0000
0100
0000
,
0013
0000
1000
0000
0010
0100
0010
0000
,
0001
1000
0010
0100
,
0001
0000
1000
0001
1000
0010
0100
0000
,
0002
0000
0100
0103
,
0010
1000
0100
0010
,
0001
0100
0010
1000
,
0100
0010
0001
0100
,
0020
0000
0100
0130
,
1000
0010
0100
0001
,
0100
0010
1000
0100
,
0001
0010
1000
0100
,
0002
0000
0010
0013
,
1000
0010
0100
0001
,
0000
1000
0001
0010
,
0001
0100
0001
0000
1000
0100
1000
0000
,
0010
0100
0010
0000
1001
0000
1001
0000
,
0010
1000
0001
0100
,
0010
0010
0100
0100
,
0002
0000
0000
0000
1000
0003
0000
0000
,
0200
0000
0000
0000
0010
0300
0000
0000
,
0001
0010
1000
0100
,
0001
0000
0010
0000
1000
0000
0100
0100
,
0100
0010
0100
0010
,
1000
0000
0010
0000
0100
0100
0100
0000
,
0010
1000
0001
0100
,
0010
1000
0100
0010
,
0001
0010
0001
0000
1000
0100
1000
0000
,
0002
0000
0100
0103
,
1000
0000
0010
0000
1000
0000
0001
0001
,
0001
0010
0100
0001
,
0100
0000
0010
0000
1000
0000
0100
1000
,
1000
0100
0010
0001
,
0200
0000
0000
0010
0000
0000
1000
0000
,
0000
0010
0000
0000
0001
0000
0301
0000
,
0020
0000
0000
1030
,
0001
1000
0001
0100
,
0020
0000
0130
0000
,
0200
0000
0310
0000
,
1000
0100
0010
0001
,
1000
0010
0100
0001
,
0100
0010
1000
0001
,
0010
0100
1000
1001
,
1000
0100
0010
0001
,
1000
0010
0100
0001
,
0100
0010
1000
0001
,
0010
0100
1000
1001
,
0001
0010
0100
1000
,
0100
0010
0001
0100
,
0010
1000
0001
0010
,
0100
1000
1001
0110
,
0001
1000
0010
0100
,
0001
0100
1000
0010
,
0100
0001
0010
1000
,
0100
0000
0001
0000
0001
0010
0100
0000
,
0200
0000
0310
0000
,
0002
0000
1003
0000
,
0110
0000
0000
0000
,
1001
0000
0110
0000
,
0001
1000
0020
0000
,
1030
0001
0200
0000
,
0310
1001
0000
0000
,
0220
0000
0000
0000
,
0330
0000
0000
0000
,
1000
0100
0010
0000
,
0100
0010
0001
0000
,
1001
0000
0000
0000
;

//---------------dance-single - ----------------
#NOTES:
     dance-single:
     :
     Beginner:
     4:
     0.145929,0.152853,0.052194,0.029825,0.000000,126.000000,7.000000,4.000000,0.000000,0.000000,0.000000,0.145929,0.152853,0.052194,0.029825,0.000000,126.000000,7.000000,4.000000,0.000000,0.000000,0.000000:
// measure 0
0000
0000
0000
0000
,  // measure 1
0000
0000
0000
0000
,  // measure 2
0000
0000
0000
0000
,  // measure 3
2000
0000
3100
0000
,  // measure 4
0002
0000
0013
0000
,  // measure 5
1000
0000
0100
0000
,  // measure 6
1000
0000
0100
0000
,  // measure 7
0001
0000
0100
0000
,  // measure 8
0001
0000
0100
0000
,  // measure 9
1000
0000
0010
0000
,  // measure 10
1000
0000
0010
0000
,  // measure 11
0001
0000
0010
0000
,  // measure 12
0001
0000
0010
0000
,  // measure 13
1000
0000
0100
0000
,  // measure 14
0010
0000
0001
0000
,  // measure 15
1000
0000
0100
0000
,  // measure 16
0010
0000
0001
0000
,  // measure 17
0001
0000
0010
0000
,  // measure 18
0100
0000
1000
0000
,  // measure 19
0001
0000
0010
0000
,  // measure 20
0100
0000
1000
0000
,  // measure 21
0001
0000
0000
0000
,  // measure 22
1000
0000
0000
0000
,  // measure 23
0001
0000
0000
0000
,  // measure 24
1000
0000
0000
0000
,  // measure 25
0001
0000
0000
0000
,  // measure 26
1000
0000
0000
0000
,  // measure 27
0110
0000
0000
0000
,  // measure 28
1001
0000
0000
0000
,  // measure 29
1000
0000
0100
0000
,  // measure 30
1000
0000
0100
0000
,  // measure 31
0001
0000
0100
0000
,  // measure 32
0001
0000
0100
0000
,  // measure 33
1000
0000
0010
0000
,  // measure 34
1000
0000
0010
0000
,  // measure 35
0001
0000
0010
0000
,  // measure 36
0001
0000
0010
0000
,  // measure 37
1000
0000
0100
0000
,  // measure 38
0010
0000
0001
0000
,  // measure 39
1000
0000
0100
0000
,  // measure 40
0010
0000
0001
0000
,  // measure 41
0001
0000
0010
0000
,  // measure 42
0100
0000
1000
0000
,  // measure 43
0001
0000
0010
0000
,  // measure 44
0100
0000
1000
0000
,  // measure 45
0100
0000
0000
0000
,  // measure 46
0010
0000
0000
0000
,  // measure 47
0100
0000
0000
0000
,  // measure 48
0010
0000
0000
0000
,  // measure 49
1000
0000
0100
0000
,  // measure 50
0010
0000
0001
0000
,  // measure 51
1000
0000
0000
0000
,  // measure 52
0001
0000
0000
0000
,  // measure 53
1001
0000
0000
0000
,  // measure 54
0110
0000
0000
0000
,  // measure 55
1000
0000
0100
0000
,  // measure 56
0010
0000
0100
0000
,  // measure 57
1000
1000
0000
0000
,  // measure 58
0100
0000
1000
0000
,  // measure 59
0010
0000
0001
0000
,  // measure 60
0010
0000
0100
0000
,  // measure 61
0001
0001
0000
0000
,  // measure 62
0100
0100
0000
0000
,  // measure 63
0001
0000
0010
0000
,  // measure 64
0100
0000
0010
0000
,  // measure 65
0001
0001
0000
0000
,  // measure 66
0010
0010
0000
0000
,  // measure 67
0100
0000
1000
0000
,  // measure 68
0100
0000
0001
0000
,  // measure 69
0100
0100
0000
0000
,  // measure 70
0010
0010
0000
0000
,  // measure 71
1001
0000
0000
0000
,  // measure 72
0000
0000
0000
0000
,  // measure 73
0000
0000
0000
0000
,  // measure 74
0000
0000
0000
0000
,  // measure 75
1001
0000
0000
0000
,  // measure 76
0000
0000
0000
0000
,  // measure 77
0000
0000
0000
0000
,  // measure 78
0220
0000
0000
0000
,  // measure 79
0330
0000
0000
0000
,  // measure 80
1000
0000
0000
0000
,  // measure 81
0001
0000
0000
0000
,  // measure 82
0010
0000
0000
0000
;
