#TITLE:ハローディストピア;
#SUBTITLE:;
#ARTIST:まふまふ feat. 鏡音リン・レン;
#TITLETRANSLIT:Hello Dystopia;
#SUBTITLETRANSLIT:;
#ARTISTTRANSLIT:Mafumafu feat. Kagamine Rin/Len;
#GENRE:Pop;
#CREDIT:;
#BANNER:;
#BACKGROUND:;
#LYRICSPATH:;
#CDTITLE:;
#MUSIC:Hello Dystopia.ogg;
#OFFSET:-0.085000;
#SAMPLESTART:42.885983;
#SAMPLELENGTH:15.000000;
#SELECTABLE:YES;
#BPMS:0.000000=200.000000
,216.000000=152.000000
,312.000000=200.000000
;
#STOPS:
;
#BGCHANGES:;
#KEYSOUNDS:;
#ATTACKS:;

//---------------dance-single - ----------------
#NOTES:
     dance-single:
     :
     Beginner:
     4:
     0.186639,0.308992,0.076038,0.041475,0.000000,189.000000,178.000000,11.000000,6.000000,0.000000,0.000000,0.186639,0.308992,0.076038,0.041475,0.000000,189.000000,178.000000,11.000000,6.000000,0.000000,0.000000:
// measure 0
0000
0000
0000
0000
,  // measure 1
0000
0000
0000
0000
,  // measure 2
0000
0000
0000
0000
,  // measure 3
0000
0000
0000
0000
,  // measure 4
0000
0000
0000
0000
,  // measure 5
0000
0000
0000
0000
,  // measure 6
1000
0000
1000
0000
,  // measure 7
0001
0000
0001
0000
,  // measure 8
1000
0000
1000
0000
,  // measure 9
0010
0000
0100
0000
,  // measure 10
0110
0000
0000
0000
,  // measure 11
1000
0000
0100
0000
,  // measure 12
0001
0000
0000
0000
,  // measure 13
0001
0000
0010
0000
,  // measure 14
1000
0000
0000
0000
,  // measure 15
1000
0000
0010
0000
,  // measure 16
0100
0000
0000
0000
,  // measure 17
0001
0000
0100
0000
,  // measure 18
0010
0000
0000
0000
,  // measure 19
1000
0000
0100
0000
,  // measure 20
0001
0000
0000
0000
,  // measure 21
0001
0000
0010
0000
,  // measure 22
1000
0000
0000
0000
,  // measure 23
0100
0000
1000
0000
,  // measure 24
0010
0000
0000
0000
,  // measure 25
0010
0000
0001
0000
,  // measure 26
0100
0000
0100
0000
,  // measure 27
0010
0000
0010
0000
,  // measure 28
0100
0000
0100
0000
,  // measure 29
0010
0000
0010
0000
,  // measure 30
1000
0000
1000
0000
,  // measure 31
0001
0000
0001
0000
,  // measure 32
1000
0000
1000
0000
,  // measure 33
0001
0000
0001
0000
,  // measure 34
0100
0100
0100
0000
,  // measure 35
0010
0010
0010
0000
,  // measure 36
1000
0000
0100
0000
,  // measure 37
1000
0000
0100
0000
,  // measure 38
0001
0000
0010
0000
,  // measure 39
0001
0000
0010
0000
,  // measure 40
1000
0000
0100
0000
,  // measure 41
0010
0000
0001
0000
,  // measure 42
0100
0000
0010
0000
,  // measure 43
0220
0000
0330
0000
,  // measure 44
0001
0000
0100
0000
,  // measure 45
0010
0000
1000
0000
,  // measure 46
0001
0000
0010
0000
,  // measure 47
0100
0000
1000
0000
,  // measure 48
0001
0000
0000
0000
,  // measure 49
1000
0000
0000
0000
,  // measure 50
0220
0000
0000
0000
,  // measure 51
0000
0000
0000
0000
,  // measure 52
0330
0000
0000
0000
,  // measure 53
0000
0000
0000
0000
,  // measure 54
1000
0000
1000
0000
,  // measure 55
0010
0000
0010
0000
,  // measure 56
0100
0000
0100
0000
,  // measure 57
0001
0000
0001
0000
,  // measure 58
1000
0000
1000
0000
,  // measure 59
0001
0000
0001
0000
,  // measure 60
0100
0000
0100
0000
,  // measure 61
0010
0000
0010
0000
,  // measure 62
1000
0000
0100
0000
,  // measure 63
1000
0000
0000
0000
,  // measure 64
0001
0000
0010
0000
,  // measure 65
0001
0000
0000
0000
,  // measure 66
0100
0000
0010
0000
,  // measure 67
0100
0000
0000
0000
,  // measure 68
0001
0000
1000
0000
,  // measure 69
0001
0000
0000
0000
,  // measure 70
1000
0000
0100
0000
,  // measure 71
0010
0000
0000
0000
,  // measure 72
0001
0000
0010
0000
,  // measure 73
0100
0000
0000
0000
,  // measure 74
1000
0000
0001
0000
,  // measure 75
0100
0000
0000
0000
,  // measure 76
0001
0000
1000
0000
,  // measure 77
0010
0000
0100
0000
,  // measure 78
0110
0000
0000
0000
,  // measure 79
1001
0000
0000
0000
,  // measure 80
0110
0000
0000
0000
,  // measure 81
1001
0000
0000
0000
,  // measure 82
0110
0000
0000
0000
,  // measure 83
1001
0000
0000
0000
,  // measure 84
0110
0000
0000
0000
,  // measure 85
0000
0000
0000
0000
,  // measure 86
1000
0000
0000
0000
,  // measure 87
0100
0000
0000
0000
,  // measure 88
1000
0000
0100
0000
,  // measure 89
0010
0000
0000
0000
,  // measure 90
0001
0000
0010
0000
,  // measure 91
0100
0000
0000
0000
,  // measure 92
0001
0000
1000
0000
,  // measure 93
0100
0000
0000
0000
,  // measure 94
1000
0000
0010
0000
,  // measure 95
0100
0000
0001
0000
,  // measure 96
1000
0000
0100
0000
,  // measure 97
0010
0000
0001
0000
,  // measure 98
1000
0000
0000
0000
,  // measure 99
0001
0000
0000
0000
,  // measure 100
0220
0000
0000
0000
,  // measure 101
0000
0000
0000
0330
,  // measure 102
0001
0000
0001
0000
,  // measure 103
1000
0000
1000
0000
,  // measure 104
0010
0010
0010
0000
,  // measure 105
0100
0100
0100
0000
,  // measure 106
1000
0000
1000
0000
,  // measure 107
0001
0000
0001
0000
,  // measure 108
0100
0100
0100
0000
,  // measure 109
0010
0010
0010
0000
,  // measure 110
0001
0001
0001
0001
,  // measure 111
1000
1000
1000
1000
;

//---------------dance-single - ----------------
#NOTES:
     dance-single:
     :
     Easy:
     7:
     0.467092,0.540736,0.470055,0.317978,0.000000,473.000000,405.000000,68.000000,46.000000,0.000000,0.000000,0.467092,0.540736,0.470055,0.317978,0.000000,473.000000,405.000000,68.000000,46.000000,0.000000,0.000000:
// measure 0
0000
0000
0000
0000
,  // measure 1
0000
0000
0000
0000
,  // measure 2
0000
0000
0000
0000
,  // measure 3
0000
0000
0000
0000
,  // measure 4
0000
0000
0000
0000
,  // measure 5
0000
0000
0000
0000
,  // measure 6
0001
0100
0010
1000
,  // measure 7
0100
0010
0001
0100
,  // measure 8
1000
0010
0100
0001
,  // measure 9
0010
0100
1000
0001
,  // measure 10
0200
0000
0010
0000
0010
0000
0010
0300
,  // measure 11
0001
1000
0110
0000
,  // measure 12
1020
0100
0100
0130
,  // measure 13
0001
0100
0110
0000
,  // measure 14
2000
0001
0001
3001
,  // measure 15
0010
0100
1001
0000
,  // measure 16
0020
0100
0100
0130
,  // measure 17
1000
0010
1001
0000
,  // measure 18
1000
0100
0010
0001
,  // measure 19
0100
0100
0220
0330
,  // measure 20
0001
0100
0010
1000
,  // measure 21
0010
0010
0220
0330
,  // measure 22
1000
0100
0001
0100
,  // measure 23
1000
0010
2002
3003
,  // measure 24
0001
0010
1000
0010
,  // measure 25
0001
0000
0100
0000
2002
0000
0000
3003
,  // measure 26
0100
1000
0100
1000
,  // measure 27
0100
0001
0100
0001
,  // measure 28
0010
0001
0010
0001
,  // measure 29
0010
1000
0010
1000
,  // measure 30
0100
0001
0010
1000
,  // measure 31
0100
0001
0010
1000
,  // measure 32
0100
0100
0010
0010
,  // measure 33
0001
1000
2002
3003
,  // measure 34
0002
0013
2000
3100
,  // measure 35
0020
0230
0320
0230
,  // measure 36
1300
1100
0100
0101
,  // measure 37
0001
1000
0010
0100
,  // measure 38
0001
0011
0010
0110
,  // measure 39
1000
0100
2002
3003
,  // measure 40
0001
0100
2000
3000
,  // measure 41
0100
0010
0002
0003
,  // measure 42
1000
0010
0100
0002
,  // measure 43
1000
1000
1000
1003
,  // measure 44
0010
0110
1000
1100
,  // measure 45
1000
0010
0100
0001
,  // measure 46
0110
0000
0000
0001
1000
0000
0000
1000
,  // measure 47
0001
0010
0100
1000
,  // measure 48
2100
0000
3200
0000
,  // measure 49
0320
0032
0203
0320
,  // measure 50
2000
0000
0000
0000
,  // measure 51
0000
0000
0000
3030
,  // measure 52
0000
0010
0110
0000
,  // measure 53
0100
0110
0000
0000
,  // measure 54
1001
0000
1000
0000
1000
0100
0010
0000
,  // measure 55
0001
0000
0100
0000
0001
0010
0100
0000
,  // measure 56
1000
0000
1001
0000
0001
0100
1000
0000
,  // measure 57
0010
0000
0110
0000
1000
0010
0001
0000
,  // measure 58
0100
1100
1000
0010
,  // measure 59
0001
0011
0001
0100
,  // measure 60
1000
1001
0010
0110
,  // measure 61
0001
0100
0010
0000
1000
0010
0100
0000
,  // measure 62
0001
0101
1000
1100
,  // measure 63
1000
0010
1000
0000
0001
0010
0001
0000
,  // measure 64
1000
1010
0001
0011
,  // measure 65
0001
0010
0001
0000
1000
0010
1000
0000
,  // measure 66
0001
0100
1000
0000
0010
0000
1010
0000
,  // measure 67
1000
0010
0001
0000
0010
0000
0011
0000
,  // measure 68
0001
0100
1000
0000
0010
0000
0110
0000
,  // measure 69
1000
0001
0100
0010
0100
0000
0000
0000
,  // measure 70
1001
1001
0010
0010
,  // measure 71
0100
0010
1000
0001
,  // measure 72
1001
1001
0100
0100
,  // measure 73
1000
0001
0010
0100
,  // measure 74
1001
1001
0010
0010
,  // measure 75
1000
0001
0100
0010
,  // measure 76
1010
1001
0101
0110
,  // measure 77
0001
0100
0010
1000
,  // measure 78
1001
0001
0001
0001
,  // measure 79
1001
1000
1000
1000
,  // measure 80
1010
0010
0010
0010
,  // measure 81
1010
1000
1000
1000
,  // measure 82
1001
0001
0001
0001
,  // measure 83
1001
1000
1000
1000
,  // measure 84
0101
0001
0001
0001
,  // measure 85
0101
0100
0100
0100
,  // measure 86
0020
0000
0130
0000
,  // measure 87
0200
0000
0310
0000
,  // measure 88
0100
0001
0100
1000
,  // measure 89
0010
0100
0220
0330
,  // measure 90
1000
0010
0002
0003
,  // measure 91
0010
0100
2000
3000
,  // measure 92
0001
0100
0010
2000
,  // measure 93
0001
0001
0001
3001
,  // measure 94
0100
0110
0001
0011
,  // measure 95
0001
0100
0010
1000
,  // measure 96
0110
0000
0000
1000
0001
0000
0000
0001
,  // measure 97
1000
0100
0010
0001
,  // measure 98
0012
0000
0023
0000
,  // measure 99
0230
2300
3020
0230
,  // measure 100
0002
0000
0000
0000
,  // measure 101
0000
0000
0000
0303
,  // measure 102
0001
0100
0010
0000
1000
0000
0001
0000
,  // measure 103
1000
0010
0100
0000
0001
0000
1001
0000
,  // measure 104
1000
0010
0100
0000
0001
0000
1000
0000
,  // measure 105
0001
0100
0010
0000
1000
0000
1001
0000
,  // measure 106
0100
1000
0001
0000
0010
0000
1001
0000
,  // measure 107
0100
0001
1000
0000
0001
0000
0110
0000
,  // measure 108
1000
0001
0010
0000
0100
0000
1001
0000
,  // measure 109
0001
1000
0100
0000
1000
0000
0110
0000
,  // measure 110
0001
1000
0001
1000
,  // measure 111
1001
1001
0110
1001
;

//---------------dance-single - ----------------
#NOTES:
     dance-single:
     :
     Medium:
     10:
     0.591518,0.695232,0.587568,0.269590,0.000000,599.000000,514.000000,85.000000,39.000000,0.000000,0.000000,0.591518,0.695232,0.587568,0.269590,0.000000,599.000000,514.000000,85.000000,39.000000,0.000000,0.000000:
// measure 0
0000
0000
0000
0000
,  // measure 1
0000
0000
0000
0000
,  // measure 2
0000
0000
0000
0000
,  // measure 3
0000
0000
0000
0000
,  // measure 4
0000
0000
0000
0000
,  // measure 5
0000
0000
0000
0000
,  // measure 6
1000
0000
0100
0000
0010
0100
0010
0100
,  // measure 7
0001
0000
0001
0000
0100
0010
0100
0010
,  // measure 8
1000
0000
0001
0000
0100
0010
0100
0010
,  // measure 9
0001
0000
0010
0000
1000
0010
1000
0010
,  // measure 10
0001
0100
1000
0010
,  // measure 11
1000
0001
1000
0000
2002
0000
3003
0000
,  // measure 12
0001
0100
0010
1000
,  // measure 13
0001
1000
0001
0000
2001
0000
3000
0000
,  // measure 14
0010
0100
0001
1000
,  // measure 15
0010
0100
0010
0000
0220
0000
0330
0000
,  // measure 16
0001
0100
0010
1000
,  // measure 17
0001
1000
0001
0000
2002
0000
3003
0000
,  // measure 18
0001
0000
0100
0000
1000
0100
1000
0000
,  // measure 19
0010
0100
0010
0000
0220
0000
0330
0000
,  // measure 20
0001
0000
0100
0000
0001
0010
0001
0000
,  // measure 21
0100
0010
0100
0000
0220
0000
0330
0000
,  // measure 22
0001
0000
0100
0000
0010
1000
0001
0000
,  // measure 23
0100
0010
1000
0000
0220
0000
0330
0000
,  // measure 24
0001
0000
0100
0000
0001
1000
0010
0000
,  // measure 25
0001
1000
0010
0000
0202
0000
0303
0000
,  // measure 26
0001
0100
1000
0010
,  // measure 27
0100
0010
0100
0000
0001
1000
0001
0000
,  // measure 28
0010
1000
0100
0001
,  // measure 29
0010
0100
0010
0000
0001
1000
0001
0000
,  // measure 30
1000
0100
0010
0001
,  // measure 31
0100
0001
0100
0000
1000
0100
1000
0000
,  // measure 32
0010
1000
0001
0100
,  // measure 33
1100
0101
1100
0101
,  // measure 34
0010
0100
0010
0000
0001
1000
0001
0000
,  // measure 35
1000
0100
0010
0001
0010
0000
0110
0000
,  // measure 36
0101
0110
0110
1010
,  // measure 37
0001
1000
0010
0000
0010
1000
0001
0000
,  // measure 38
0110
1001
0110
1001
,  // measure 39
0010
0100
0001
0000
1000
0010
0100
0000
,  // measure 40
1100
0101
1001
0110
,  // measure 41
0001
0100
0010
0000
1000
0010
0100
0000
,  // measure 42
0001
0100
1000
0010
,  // measure 43
0200
0010
0010
0310
,  // measure 44
0001
0011
0010
0110
,  // measure 45
1000
0010
0100
0001
0100
0000
0110
0000
,  // measure 46
0001
0000
0000
0001
0100
0000
0000
0100
,  // measure 47
1000
0000
0010
0000
1000
0010
0100
0001
,  // measure 48
0200
0000
0320
0000
,  // measure 49
2030
3002
0023
2030
,  // measure 50
3200
0000
0010
0000
,  // measure 51
0010
0000
0310
0000
,  // measure 52
0101
0100
1100
0000
,  // measure 53
1100
0110
0000
0000
,  // measure 54
0011
0000
0100
0000
0010
1000
0001
0100
,  // measure 55
0100
0000
1100
0000
0010
0100
0001
1000
,  // measure 56
1000
0000
1001
0000
1000
0010
0001
0100
,  // measure 57
0010
0010
0100
0000
0001
0001
1000
0000
,  // measure 58
0010
0000
1001
0000
1000
0010
0100
0001
,  // measure 59
0001
0000
0101
0000
0001
0100
0010
1000
,  // measure 60
1000
0000
1100
0000
1000
0010
0100
0001
,  // measure 61
1000
1000
1001
0000
0001
0001
1001
0000
,  // measure 62
0010
1000
0001
0000
0100
0010
1000
0000
,  // measure 63
0001
0100
0010
0000
1000
0001
0100
0000
,  // measure 64
0001
1000
0100
0000
0001
1000
0010
0000
,  // measure 65
1000
0010
0001
0000
1000
0001
0010
0000
,  // measure 66
1000
0010
0100
0001
1000
0000
1001
0000
,  // measure 67
0001
0100
0010
1000
0001
0000
1001
0000
,  // measure 68
1000
0100
0001
0000
0001
0010
1000
0000
,  // measure 69
1000
0010
0100
0001
0010
0100
1000
0100
,  // measure 70
0110
0000
0101
0000
0010
0100
0001
1000
,  // measure 71
1010
0000
1001
0000
0010
1000
0001
0100
,  // measure 72
0110
0000
1001
0000
0010
1000
0001
0010
,  // measure 73
0011
0000
1010
0000
0001
1000
0010
0100
,  // measure 74
0101
0000
1100
0000
0010
1000
0001
0010
,  // measure 75
1010
0000
1001
0000
0010
0100
0001
1000
,  // measure 76
1100
0000
0101
0000
0010
1000
0001
0100
,  // measure 77
0110
0101
1100
1001
,  // measure 78
0120
0100
0100
0130
,  // measure 79
0210
0010
0010
0310
,  // measure 80
2001
0001
0001
3001
,  // measure 81
1002
0000
1000
0000
1000
0000
1000
0003
,  // measure 82
0210
0010
0010
0310
,  // measure 83
0110
1001
0110
1001
,  // measure 84
0010
0100
0010
0100
,  // measure 85
0001
1000
0001
1000
0002
0000
0000
0000
,  // measure 86
2003
0000
3010
0000
,  // measure 87
0002
0000
0013
0000
,  // measure 88
0001
0100
0010
0000
1000
0010
0100
0000
,  // measure 89
0001
0010
1000
0100
0001
0000
1001
0000
,  // measure 90
0011
1010
1001
0110
,  // measure 91
1000
0010
0100
0000
0001
0100
0010
0000
,  // measure 92
1000
0010
0001
0100
,  // measure 93
0020
0100
0100
0130
,  // measure 94
1000
1100
0100
0110
,  // measure 95
0001
0100
0010
1000
0010
0000
0110
0000
,  // measure 96
1000
0000
0000
1000
0010
0000
0000
0010
,  // measure 97
0001
0000
0100
0000
0001
0100
0010
1000
,  // measure 98
0020
0000
0230
0000
,  // measure 99
0302
2003
3200
0302
,  // measure 100
0023
0000
0100
0000
,  // measure 101
0100
0000
0130
0000
,  // measure 102
0010
1000
0010
0000
0001
0100
0001
0000
,  // measure 103
1000
0100
1000
0000
0001
0010
0001
0000
,  // measure 104
0001
0100
1000
0000
0001
0010
1000
0000
,  // measure 105
1000
0100
0001
0000
1000
0010
0001
0000
,  // measure 106
0010
1000
0001
1000
0010
1000
0001
0000
,  // measure 107
0001
0100
0001
1000
0001
0100
0001
0000
,  // measure 108
1000
0001
0100
0000
0001
1000
0100
0000
,  // measure 109
0010
1000
0001
0000
0001
1000
0010
0000
,  // measure 110
1010
1001
0101
0110
,  // measure 111
1010
1001
0101
0110
;

//---------------dance-single - ----------------
#NOTES:
     dance-single:
     :
     Hard:
     14:
     0.741620,0.772480,0.926284,0.394016,0.000000,751.000000,617.000000,134.000000,57.000000,0.000000,0.000000,0.741620,0.772480,0.926284,0.394016,0.000000,751.000000,617.000000,134.000000,57.000000,0.000000,0.000000:
// measure 0
0000
0000
0000
0000
,  // measure 1
0000
0000
0000
0000
,  // measure 2
0000
0000
0000
0000
,  // measure 3
0000
0000
0000
0000
,  // measure 4
0000
0000
0000
0000
,  // measure 5
0000
0000
0000
0000
,  // measure 6
1000
0100
0010
0001
0100
0010
0100
0001
,  // measure 7
1000
0010
0100
0001
0010
0100
1000
0010
,  // measure 8
0100
0001
0100
0010
1000
0100
0010
0001
,  // measure 9
0100
0100
0010
0010
1000
1000
0001
0001
,  // measure 10
0011
1001
1010
1001
,  // measure 11
1000
0010
0100
0001
0210
0000
0301
0000
,  // measure 12
1100
1001
0101
1001
,  // measure 13
0001
0100
0010
1000
0120
0000
1030
0000
,  // measure 14
1001
1100
0011
1010
,  // measure 15
0010
0100
0001
1000
2010
0000
3001
0000
,  // measure 16
1001
0011
1100
0101
,  // measure 17
0100
0010
1000
0001
0102
0000
1003
0000
,  // measure 18
0100
1000
0100
0000
0001
0100
0001
0000
,  // measure 19
0001
0100
0010
1000
1001
0000
0110
0000
,  // measure 20
0010
0001
0010
0000
1000
0010
1000
0000
,  // measure 21
1000
0010
0100
0001
1001
0000
0110
0000
,  // measure 22
0010
1000
0100
0000
0100
0001
0010
0000
,  // measure 23
0001
1000
0010
0100
0011
0000
0101
0000
,  // measure 24
1010
0101
0011
1100
,  // measure 25
1100
0100
0010
0001
0110
0000
0101
0000
,  // measure 26
0010
0100
1000
0010
1000
0100
0001
0010
,  // measure 27
0100
1000
0010
1000
0200
0000
0310
0000
,  // measure 28
0001
0100
0010
0100
1000
0001
0010
1000
,  // measure 29
0100
0001
0010
0100
1002
0000
0013
0000
,  // measure 30
0100
0010
0001
0100
0001
0010
1000
0100
,  // measure 31
0010
0001
0100
0001
0020
0000
0230
0000
,  // measure 32
0302
2003
3200
0320
,  // measure 33
0032
0203
0320
2030
,  // measure 34
3010
0101
0010
1100
,  // measure 35
0001
1000
0010
0100
0001
0000
0101
0000
,  // measure 36
1100
0100
0101
0100
,  // measure 37
0010
0100
1000
0010
1000
0000
1001
0000
,  // measure 38
0010
1010
0001
0011
,  // measure 39
0001
0100
0010
1000
1001
0000
1000
0010
,  // measure 40
0101
0000
0001
0000
0010
0000
0001
0100
,  // measure 41
1010
0000
1000
0000
0100
0000
0010
1000
,  // measure 42
0010
0100
0001
0010
0100
1000
0010
0100
,  // measure 43
0002
0000
0103
0000
0100
1000
0100
0001
,  // measure 44
0101
1100
0101
1100
,  // measure 45
0001
1000
0010
0100
0001
0000
0010
0000
,  // measure 46
1010
0000
1000
0010
0001
0000
0001
0010
,  // measure 47
1000
0010
0100
0001
1000
0000
0011
0000
,  // measure 48
2100
0000
3020
0000
,  // measure 49
0230
0302
0023
2030
,  // measure 50
3001
0000
0011
0000
1000
0100
0000
1001
,  // measure 51
0000
0110
0000
0001
1000
0000
0110
0000
,  // measure 52
0001
0100
1100
1000
,  // measure 53
0100
0101
0000
0000
,  // measure 54
0110
0000
1001
0010
1000
0100
0001
0010
,  // measure 55
0101
0000
0110
1000
0010
0100
0001
0100
,  // measure 56
1010
0000
1001
0010
0100
1000
0010
0100
,  // measure 57
0001
0010
0101
0000
1000
0100
1010
0000
,  // measure 58
1000
0010
1000
0001
0010
0100
1000
1000
,  // measure 59
0010
1000
0100
0010
1000
0010
0001
0001
,  // measure 60
0100
0010
1000
0100
0010
0001
0010
0010
,  // measure 61
0100
0100
0110
0000
0001
0001
1001
0010
,  // measure 62
2100
0000
3010
1002
0000
0013
0100
0001
,  // measure 63
1000
0010
0100
0002
0000
0103
0010
1000
,  // measure 64
0021
0000
0130
1002
0000
0103
0010
1000
,  // measure 65
0100
0010
0001
0102
0000
0013
0100
1000
,  // measure 66
2100
0001
3001
1010
0000
0100
0010
0001
,  // measure 67
0012
1000
1003
0102
0000
0013
0100
0010
,  // measure 68
2100
0000
3010
1002
0000
0013
1000
0100
,  // measure 69
0120
0100
0031
1001
0000
0010
1000
0100
,  // measure 70
1200
0000
0301
0201
0000
0301
1000
0010
,  // measure 71
1010
0001
0100
0110
0000
0001
0010
1000
,  // measure 72
1020
0000
0031
0021
0000
1030
0100
0010
,  // measure 73
1001
0010
0100
2001
0000
3010
0001
0010
,  // measure 74
0021
0000
1030
1020
0000
1030
0001
0100
,  // measure 75
0101
1000
0010
0110
0000
1000
0100
0001
,  // measure 76
0201
0000
1300
1200
0000
0301
0010
0100
,  // measure 77
1001
0100
0010
1002
0000
0103
1000
0100
,  // measure 78
2010
0010
0010
3010
,  // measure 79
1001
0101
0110
1010
,  // measure 80
0012
0010
0010
0013
,  // measure 81
0110
1010
0101
1001
,  // measure 82
0120
0100
0100
0130
,  // measure 83
1010
1001
0101
0110
,  // measure 84
0010
0100
0010
0100
0010
0100
0010
0100
,  // measure 85
0001
0010
0100
1000
0010
1000
0100
0001
,  // measure 86
0020
0100
0100
0130
,  // measure 87
0000
0001
0100
0010
1000
0000
1001
0000
,  // measure 88
1010
0110
0101
0110
,  // measure 89
0001
1000
0010
1000
0100
0000
0001
0100
,  // measure 90
1010
0000
1000
0000
0100
0000
1000
0010
,  // measure 91
0101
0000
0001
0000
0010
0000
0100
0001
,  // measure 92
0100
0010
1000
0100
0010
0001
0100
0010
,  // measure 93
2000
0000
3010
0000
0010
0001
0010
1000
,  // measure 94
1010
0011
1010
0011
,  // measure 95
1000
0001
0100
0010
1000
0000
0100
0000
,  // measure 96
0101
0000
0001
0100
1000
0000
1000
0100
,  // measure 97
0001
0100
0010
1000
0001
0000
1100
0000
,  // measure 98
0012
0000
0203
0000
,  // measure 99
0320
2030
3200
0302
,  // measure 100
2003
0000
0001
0000
,  // measure 101
0001
0000
3001
0000
,  // measure 102
0001
0100
0010
1000
0100
0010
0001
0010
,  // measure 103
0100
1000
0010
1000
0100
0010
0100
0001
,  // measure 104
0010
0100
1000
0010
1000
0100
0010
0100
,  // measure 105
0001
0001
0100
0100
0010
0010
1000
1000
,  // measure 106
0001
0100
0010
1000
0001
1000
0010
1000
,  // measure 107
0100
0010
0001
0010
0100
1000
0010
1000
,  // measure 108
0001
0010
1000
0100
0010
0001
0100
1000
,  // measure 109
0010
0010
1000
1000
0001
0001
0100
0100
,  // measure 110
0110
1010
1001
0101
,  // measure 111
0110
0011
1001
1100
;
