#TITLE:ホーンテッド★メイドランチ;
#SUBTITLE:;
#ARTIST:日向美ビタースイーツ♪;
#TITLETRANSLIT:Haunted maid lunch;
#SUBTITLETRANSLIT:;
#ARTISTTRANSLIT:Hinatabi Bittersweets♪;
#GENRE:GITADORA;
#CREDIT:;
#BANNER:;
#BACKGROUND:;
#LYRICSPATH:;
#CDTITLE:;
#MUSIC:Haunted maid lunch.ogg;
#OFFSET:0.670000;
#SAMPLESTART:62.549114;
#SAMPLELENGTH:15.000000;
#SELECTABLE:YES;
#DISPLAYBPM:94.000000:188.000000;
#BPMS:0.000000=188.000000
,262.000000=94.000000
,280.000000=188.000000
;
#STOPS:
;
#BGCHANGES:;
#KEYSOUNDS:;
#ATTACKS:;

//---------------dance-single - ----------------
#NOTES:
     dance-single:
     :
     Beginner:
     2:
     0.128756,0.181746,0.034011,0.008503,0.000000,106.000000,102.000000,4.000000,1.000000,0.000000,0.000000,0.128756,0.181746,0.034011,0.008503,0.000000,106.000000,102.000000,4.000000,1.000000,0.000000,0.000000:
0000
0000
0000
0000
,
0000
0000
0000
0000
,
0000
0000
0000
0000
,
0000
0000
0000
0000
,
0000
0000
0000
0000
,
1000
0000
0000
0000
,
0001
0000
0000
0000
,
0010
0000
0000
0000
,
0110
0000
0000
0000
,
2000
0000
3100
0000
,
0000
0000
0100
0000
,
0000
0000
0010
0000
,
0000
0000
0001
0000
,
0000
0000
0100
0000
,
0000
0000
1000
0000
,
0000
0000
0010
0000
,
0000
0000
0100
0000
,
0000
0000
1001
0000
,
0000
0000
0010
0000
,
0000
0000
0010
0000
,
0000
0000
0010
0000
,
0000
0000
0100
0000
,
0000
0000
0100
0000
,
0000
0000
0100
0000
,
0000
0000
1000
0000
,
0100
0000
0010
0000
,
0000
0000
0010
0000
,
0000
0000
0001
0000
,
0000
0000
0001
0000
,
0000
0000
1000
0000
,
0000
0000
1000
0000
,
0000
0000
0010
0000
,
0000
0000
0100
0000
,
0100
0000
1001
0000
,
0000
0000
0100
0000
,
0000
0000
0100
0000
,
0000
0000
0100
0000
,
0000
0000
0010
0000
,
0000
0000
0010
0000
,
0000
0000
0010
0000
,
0000
0000
0001
0000
,
0010
0000
0100
0000
,
0000
0000
0100
0000
,
0000
0000
1000
0000
,
0000
0000
1000
0000
,
0000
0000
0001
0000
,
0000
0000
0001
0000
,
0000
0000
0100
0000
,
0000
0000
0010
0000
,
0010
0000
1000
0000
,
1000
0000
0100
0000
,
0000
0000
0001
0000
,
0001
0000
0010
0000
,
0000
0000
1000
0000
,
1000
0000
0010
0000
,
0000
0000
0001
0000
,
0001
0000
0100
0000
,
0000
0000
1000
0000
,
0000
0000
0100
0000
,
0000
0000
0010
0000
,
0000
0000
0001
0000
,
0000
0000
1000
0000
,
0000
0000
0010
0000
,
0000
0000
0100
0000
,
0000
0000
0001
0000
,
0000
0000
0010
0000
,
0100
0000
0010
0000
,
0100
0000
0001
0000
,
0100
0000
0010
0000
,
1000
0000
0000
0000
,
1000
0000
1000
0000
,
0100
0000
0000
0000
,
0001
0000
0001
0000
,
0100
0000
0000
0000
,
1000
0000
1000
0000
,
0010
0000
0000
0000
,
0001
0000
0001
0000
,
0010
0000
0000
0000
,
1000
0000
0100
0000
,
1000
0000
0000
0000
,
0001
0000
0010
0000
,
0001
0000
0000
0000
,
1000
0000
0010
0000
,
1000
0000
0000
0000
,
0001
0000
0100
0000
,
0001
0000
1001
0000
;

//---------------dance-single - ----------------
#NOTES:
     dance-single:
     :
     Easy:
     7:
     0.334037,0.545239,0.382624,0.153050,0.000000,275.000000,230.000000,45.000000,18.000000,0.000000,0.000000,0.334037,0.545239,0.382624,0.153050,0.000000,275.000000,230.000000,45.000000,18.000000,0.000000,0.000000:
0000
0000
0000
0000
,
0000
0000
0000
0000
,
0000
0000
0000
0000
,
0000
0000
0000
0000
,
0000
0000
0000
0000
,
1000
0000
0100
0000
,
0001
0000
0100
0000
,
1000
1000
0010
0010
,
0100
0001
0010
0100
,
0200
0000
0310
0001
,
0100
0010
1000
0000
,
1000
0000
1000
0010
,
0100
0001
0010
0000
,
0010
0000
0100
0001
,
0010
1000
0100
0000
,
0100
0000
1000
0100
,
0010
0100
0001
0000
,
0001
0000
0100
1000
,
0010
0000
0100
0001
,
0010
0000
1000
0100
,
0001
0000
1000
0010
,
0001
0000
0001
0100
,
0010
0000
1000
0010
,
0100
0000
1000
0100
,
0001
0000
0001
0100
,
1000
0100
1100
0000
,
0101
0000
2200
0000
,
3300
0000
1010
0000
,
0011
0000
2010
0010
,
3010
0000
0101
0000
,
1100
0000
0102
0000
,
0103
0000
1100
0000
,
0101
0000
0011
1010
,
0001
0000
0010
0001
,
0100
0000
0010
1000
,
0100
0000
0001
0010
,
1000
0000
0001
0100
,
1000
0000
1000
0010
,
0100
0000
0001
0100
,
0010
0000
0001
0010
,
1000
0000
1000
0010
,
0001
0010
0011
0000
,
1010
0000
0022
0000
,
0033
0000
0101
0000
,
1100
0000
0102
0100
,
0103
0000
1010
0000
,
0011
0000
2010
0000
,
3010
0000
0011
0000
,
1010
0000
1100
0101
,
1000
0000
1000
0000
,
0100
0000
1000
0100
,
0010
0001
0011
0000
,
0001
0000
0001
0010
,
0100
1000
1100
0000
,
1000
0000
1000
0010
,
0100
0001
0100
1000
,
0100
0000
0001
0000
0010
0100
0000
0010
,
0100
0000
0201
0000
,
0001
0000
1000
0000
,
1000
0000
0010
0000
,
0010
0000
0010
0000
,
0301
0000
0010
0001
,
0010
0100
1000
0100
,
1000
0100
0010
0000
,
0101
0000
0010
0000
,
1100
0000
1001
0010
,
0100
0010
1001
0100
,
0010
0100
2100
0000
,
3020
0000
0032
0000
,
0203
0000
0310
0110
,
1002
0000
0000
0000
,
0203
0000
0000
0000
,
0320
0000
0000
0000
,
2030
0000
0000
0000
,
3001
0001
0100
0100
,
1000
1000
0010
0010
,
0101
0101
1100
1100
,
1010
0001
0011
0000
,
0101
0010
1000
0100
,
0010
0010
0100
0100
,
1000
0010
0100
0001
,
1000
1000
0001
0001
,
0010
1000
0100
0001
,
0010
0100
1000
0100
,
0101
0000
1100
0000
,
1000
0001
0000
1000
0001
0000
0000
0000
;

//---------------dance-single - ----------------
#NOTES:
     dance-single:
     :
     Medium:
     10:
     0.472510,0.763334,0.314602,0.246580,0.034011,389.000000,352.000000,37.000000,29.000000,0.000000,0.000000,0.472510,0.763334,0.314602,0.246580,0.034011,389.000000,352.000000,37.000000,29.000000,0.000000,0.000000:
0000
0000
0000
0000
,
0000
0000
0000
0000
,
0000
0000
0000
0000
,
0000
0000
0000
0000
,
0000
0000
0000
0000
,
2100
0000
3100
0001
,
0020
0000
0031
0010
,
0100
0001
0100
0010
,
1000
0100
0001
0010
,
2100
0000
0000
0000
3100
0000
0010
0100
,
0001
0010
0100
0000
1000
0000
0100
0000
,
0100
0000
0001
0000
0010
0000
1000
0100
,
0010
0100
0001
0000
0010
0000
0100
0000
,
0001
0000
0100
0000
0001
0000
1000
0001
,
0010
1000
0100
0000
0001
0000
0100
0000
,
1000
0000
0010
0000
1000
0000
1000
0100
,
0010
0000
0000
0001
0010
0000
0000
0100
,
1000
0000
1001
0000
0000
0100
1000
0000
,
1000
0010
0100
0001
0100
0000
0011
0000
,
0001
0000
0010
0000
1000
0000
0001
0010
,
0100
1000
0010
0000
1000
0000
0100
0000
,
1001
0000
0000
0000
0010
0000
1000
0010
,
0100
0001
0010
0000
0001
0000
0100
0000
,
1000
0000
0010
1000
,
0001
0010
0210
0010
,
0010
0300
2100
0010
,
0100
3010
0021
1000
,
0001
1030
0012
0100
,
0010
0103
1200
0001
,
1000
0000
0301
0000
0001
0010
0100
1000
,
0010
0000
1000
0000
1000
0100
0010
0100
,
0001
0000
0010
0000
0100
0001
0010
0100
,
1000
0000
0001
0000
0010
1000
0100
0001
,
0010
0000
0100
0000
0000
0010
0001
0000
,
0001
0100
0010
1000
0010
0000
1100
0000
,
1000
0000
0100
0000
0001
0000
1000
0100
,
0010
0001
0100
0000
0001
0000
0010
0000
,
1001
0000
0000
0000
0100
0000
0001
0100
,
0010
1000
0100
0000
1000
0000
0010
0000
,
0001
0000
0100
0001
,
1000
0100
0120
0100
,
0100
0030
0012
0100
,
0010
0103
1200
0001
,
1000
0301
2100
0010
,
0100
3010
0021
1000
,
0001
0000
1030
0000
1000
0100
0010
0001
,
0100
0000
0001
0000
0001
0010
0100
0010
,
1000
0000
0100
0000
0010
1000
0100
0010
,
0001
0000
1000
0000
0100
0001
0010
1000
,
0100
0000
0010
0000
1000
0100
0010
0100
,
0001
0010
0011
0000
,
0101
0000
0000
0000
0001
0100
0010
1000
,
0100
1000
1100
0000
,
1001
0000
0000
0000
0010
1000
0100
0010
,
0100
0001
0011
0000
,
1001
0000
0000
0000
0010
1000
0100
0000
,
0010
0100
0001
0000
0001
0010
0100
1000
,
0100
1100
0200
0000
,
1000
0000
0010
0000
,
1300
0010
0002
0000
,
0100
0000
0010
0000
,
0103
0010
1000
0010
,
0100
0001
0010
0100
,
1000
0010
2000
0000
,
3002
0000
0023
0000
,
0130
0000
0000
0000
1000
0000
0000
0000
1000
0000
0100
0000
0010
0001
0000
0001
,
0010
0000
0100
0000
1000
0100
0000
0100
1000
0000
0100
0000
0010
0001
0000
0001
,
0010
0000
0100
0000
1000
0100
0000
0100
2000
0000
0000
0000
0000
0000
0000
0000
,
3200
0000
0000
0000
0000
0000
0000
0300
0020
0000
0000
0000
0000
0000
0000
0000
,
0032
0000
0000
0000
0000
0000
1003
1001
,
0002
0000
0000
0000
,
0203
0000
0000
0000
0000
0000
0000
0310
,
2000
0000
0000
0000
,
3002
0000
0203
0000
,
0320
0000
1030
0001
,
0020
0000
1030
0001
,
0010
1000
0100
0010
0100
0001
0010
0100
,
1000
0000
1100
0000
,
0010
1000
0010
0100
0001
0000
0010
0000
,
0011
0101
1001
1010
,
1000
0010
0100
0001
0010
0000
1000
0000
,
1100
1010
1001
0101
,
0001
0010
0100
1000
0010
0000
1000
0000
,
0101
0000
1001
0000
1010
0000
0001
1000
,
0010
0000
0010
1000
0001
0000
0001
0100
,
1000
0010
0000
1000
0100
0000
0000
0000
;

//---------------dance-single - ----------------
#NOTES:
     dance-single:
     :
     Hard:
     13:
     0.615842,0.945081,0.425138,0.170055,0.034011,507.000000,457.000000,50.000000,20.000000,0.000000,0.000000,0.615842,0.945081,0.425138,0.170055,0.034011,507.000000,457.000000,50.000000,20.000000,0.000000,0.000000:
0000
0000
0000
0000
,
0000
0000
0000
0000
,
0000
0000
0000
0000
,
0000
0000
0000
0000
,
0000
0000
0000
0000
,
1000
0100
0010
0100
0001
0010
0100
0000
,
0010
0100
0001
0010
0100
1000
0010
0000
,
1000
0100
0010
0000
0100
0010
0001
0000
,
0001
0010
0100
0000
0010
0100
1000
0000
,
0200
0000
0310
0001
,
0010
1000
0100
0010
0100
0000
0001
0000
,
0010
0100
0001
0010
0100
0000
0010
0000
,
0100
0001
0010
0100
1000
0010
1000
0100
,
0010
0100
0001
0010
0100
0000
1000
0000
,
0010
1000
0100
0010
0100
0000
0001
0000
,
0010
0100
0001
0010
0100
0000
1000
0000
,
0010
1000
0100
0000
0010
0100
0001
0010
,
0100
1000
0100
1000
0000
0100
1000
0010
,
0100
0001
0010
0100
0001
0000
0101
0000
,
1000
0000
1100
0000
1000
0010
1000
0100
,
0001
0100
0010
0000
0011
0000
1001
0000
,
1010
0000
1001
0000
0010
1000
0100
0010
,
0100
0001
0010
0000
1100
0000
0101
0010
,
0100
0000
0010
0000
1000
0001
0010
1000
,
0100
0010
0100
0001
0010
0100
1000
0010
,
1000
1100
0200
1000
,
0010
1300
0002
0100
,
0010
0103
2000
0010
,
0100
0000
3010
0000
0001
0010
0100
1000
,
1100
0100
0102
0100
,
0010
0103
2000
0010
,
0100
3010
0002
0100
,
0010
0000
0103
0000
0001
0010
0100
1000
,
0010
0100
0001
1000
0000
0010
0001
0100
,
0010
1000
0100
0010
1000
0000
1010
0000
,
0001
0000
0011
0000
0001
0100
0001
0010
,
1000
0010
0100
0000
1100
0000
1001
0000
,
0101
0000
1001
0000
0100
0001
0010
0100
,
0010
1000
0100
0000
0011
0000
1010
0100
,
0010
0000
0100
0000
0001
1000
0100
0001
,
0010
0100
0010
1000
0100
0010
0001
0100
,
0001
0011
0020
0001
,
0100
0031
2000
0010
,
0100
3010
0002
0100
,
0010
0000
0103
0000
1000
0100
0010
0001
,
0011
0010
2010
0010
,
0100
3010
0002
0100
,
0010
0103
2000
0010
,
0100
0000
3010
0000
1000
0100
0010
0001
,
0100
0010
1000
0001
1000
0010
0100
0001
,
0010
0100
1000
0010
1000
0000
1100
0000
,
1001
0000
0101
0000
0010
0100
0001
0010
,
0100
1000
0010
1000
0011
0000
1001
0000
,
1010
0000
1001
0000
0010
1000
0100
0010
,
0100
0001
0010
0100
1000
0000
1100
0000
,
1100
0000
0010
0100
0001
0000
0010
0100
,
1000
0000
0010
1000
0100
0010
0000
0010
,
0100
0001
0020
0100
,
0001
0030
0100
0000
0001
1000
0010
1000
,
0100
0001
0010
0000
2000
0000
0100
0000
,
0010
0000
3100
0000
0001
0010
1000
0010
,
0100
0001
0010
0000
0200
0000
0001
0000
,
1000
0000
0301
0000
0010
1000
0100
0010
,
0100
0001
0010
0000
0001
0010
0100
1000
,
0010
1000
0100
0010
0100
0001
0010
0100
,
1000
0000
0000
0000
1100
0000
0000
0000
1000
0000
0110
0000
0001
0010
0000
0010
,
0100
0000
1001
0000
0010
1000
0000
1000
0001
0000
0110
0000
1000
0100
0000
0100
,
0010
0000
1001
0000
0100
0010
0000
0010
1010
0000
0010
0000
0001
0000
0000
0000
,
0011
0010
1000
0000
1100
0100
0001
0000
,
0101
0100
1000
0000
0120
0000
0100
0000
,
0230
0000
0001
0000
,
2000
0000
0000
3300
,
0002
0000
0100
0000
,
0010
0000
0000
0100
0103
0000
0000
0000
,
1000
0000
0010
0000
1000
0000
0010
0100
,
0001
0000
0010
0000
0100
0000
0001
0010
,
0100
1000
0010
1000
0100
0010
0100
0001
,
0010
0000
0100
0001
0100
0000
0000
0000
,
0001
0100
1000
0010
1000
0100
0010
0100
,
0001
1001
0110
1001
,
0010
1000
0100
0010
0100
0001
0010
0100
,
0011
1001
1010
0100
,
0010
0100
0001
0010
0100
1000
0010
1000
,
1100
0000
0101
0000
0010
0000
0100
0001
,
0010
0000
0010
1000
0100
0010
0100
0001
,
0010
0100
0000
1000
1100
0000
0000
0000
;

//---------------dance-single - ----------------
#NOTES:
     dance-single:
     :
     Challenge:
     16:
     0.821123,1.140006,0.544176,0.518668,0.391127,676.000000,612.000000,64.000000,61.000000,0.000000,0.000000,0.821123,1.140006,0.544176,0.518668,0.391127,676.000000,612.000000,64.000000,61.000000,0.000000,0.000000:
// measure 0
0000
0000
0000
0000
,  // measure 1
0000
0000
0000
0000
,  // measure 2
0000
0000
0000
0000
,  // measure 3
0000
0000
0000
0000
,  // measure 4
0000
0000
0000
0000
,  // measure 5
0010
1000
0010
0100
0001
0010
0100
1000
,  // measure 6
0010
1000
0100
0010
0100
0001
0010
0100
,  // measure 7
1000
0010
1000
0100
0010
0100
0001
0100
,  // measure 8
0001
0100
0001
0100
0010
1000
0010
1000
0010
0001
0100
1000
0001
0010
1000
0100
,  // measure 9
0001
0000
0000
0000
0000
0000
0000
0000
1001
0000
0001
0100
0000
0100
0010
0000
,  // measure 10
1000
0010
0000
0010
0100
0000
0001
0010
1000
0000
0100
1000
0000
1000
0010
0000
,  // measure 11
0010
0001
0000
0001
0100
0000
1000
0010
0100
0000
0010
0100
0000
0100
1000
0000
,  // measure 12
1000
0010
0000
0010
0001
0000
1000
0100
0001
0000
1000
0000
0001
0000
0010
0000
,  // measure 13
0100
0000
0010
0000
1000
0000
0001
0000
1001
0000
1000
0010
0000
0010
0100
0000
,  // measure 14
0001
0100
0000
0100
0010
0000
1000
0100
0001
0000
0010
0001
0000
0001
0100
0000
,  // measure 15
0100
1000
0000
1000
0010
0000
0001
0100
0010
0000
0100
0010
0000
0010
0001
0000
,  // measure 16
0001
0100
0000
0100
1000
0000
0001
0010
1000
0000
0000
0000
1001
0000
0000
0000
,  // measure 17
0100
0010
0100
0010
0000
0001
0100
1000
,  // measure 18
0010
1000
0100
0010
0100
0001
0010
1000
,  // measure 19
0101
1100
0101
1100
0000
0010
1000
0100
,  // measure 20
0010
0100
0001
0010
0100
1000
0010
0100
,  // measure 21
1100
0101
1100
0101
0000
0010
0100
1000
,  // measure 22
0010
1000
0001
0100
0010
1000
0001
0010
,  // measure 23
0011
1010
1100
0101
0000
0010
0100
0001
,  // measure 24
1000
0010
0100
0001
1000
0010
1000
0001
,  // measure 25
1000
0000
0010
0000
0100
0010
0100
0010
0200
0000
0001
0000
0000
0000
0001
0000
,  // measure 26
0301
0010
0000
0010
2000
0010
0000
0010
,  // measure 27
3010
0001
0000
0001
0200
1000
0000
1000
,  // measure 28
1300
0010
0000
0001
0010
0100
1000
0010
,  // measure 29
1000
0001
1001
0000
0020
0100
0000
0100
,  // measure 30
0100
0031
0000
0001
0200
0010
0000
0010
,  // measure 31
0010
1300
0000
0010
2000
0010
0000
0010
,  // measure 32
3010
0001
0000
0001
0100
0010
1000
0100
,  // measure 33
0010
0100
1001
0000
0000
1000
0010
0001
,  // measure 34
0100
0001
0010
0100
0010
1000
0100
0001
,  // measure 35
1010
0011
1010
0011
0000
0100
0001
0010
,  // measure 36
0100
0010
1000
0100
0010
0001
0100
0010
,  // measure 37
0011
1010
0011
1010
0000
0100
0010
0001
,  // measure 38
0100
0001
1000
0010
0100
0001
1000
0100
,  // measure 39
1100
0101
0011
1010
0000
0100
0010
1000
,  // measure 40
0001
0100
0010
1000
0001
0100
0001
1000
,  // measure 41
0001
0000
0100
0000
0010
0100
0010
0100
0020
0000
1000
0000
0000
0000
1000
0000
,  // measure 42
1030
0100
0000
0100
0002
0100
0000
0100
,  // measure 43
0103
1000
0000
1000
0020
0001
0000
0001
,  // measure 44
0031
0100
0000
1000
0100
0010
0001
0100
,  // measure 45
0001
1000
1001
0000
0200
0010
0000
0010
,  // measure 46
0010
1300
0000
1000
0020
0100
0000
0100
,  // measure 47
0100
0031
0000
0100
0002
0100
0000
0100
,  // measure 48
0103
1000
0000
1000
0010
0100
0001
0010
,  // measure 49
0100
0010
1001
0000
0010
0100
0010
1000
,  // measure 50
0100
0010
0100
0001
0101
0000
1100
0000
,  // measure 51
0101
0000
1100
0000
0001
0100
0010
1000
,  // measure 52
0010
0000
0100
0000
0010
0000
1000
0000
0020
0001
0030
0000
0002
1000
0003
0000
,  // measure 53
2000
0100
3000
0000
0200
0010
0300
0000
0010
0000
1000
0000
0001
0000
0100
0000
,  // measure 54
0010
1000
0010
0100
1100
0000
0101
0000
,  // measure 55
1001
0000
0011
0010
0002
0000
0013
0020
,  // measure 56
2000
0030
3010
0020
0230
0002
0300
0100
,  // measure 57
0103
0000
1001
0000
0001
1000
0010
1000
,  // measure 58
0100
0010
0100
0001
0010
0100
1000
0010
,  // measure 59
1001
0000
0110
0000
0001
0010
0100
1000
,  // measure 60
0010
1000
0100
0010
0100
0001
0010
0100
,  // measure 61
0011
0000
1010
0000
0001
1000
0010
1000
,  // measure 62
0100
0010
0100
0001
0010
0100
1000
0010
,  // measure 63
1100
0000
0101
0000
0001
0100
0010
1000
,  // measure 64
0100
0010
0100
0001
0010
0100
1000
0010
,  // measure 65
1000
0000
0001
0000
0101
0000
0000
0000
0001
0100
0010
1000
0100
0010
0000
0001
,  // measure 66
0100
0010
0100
1000
0010
1000
0000
1000
0100
0010
0100
0001
0010
0100
0000
0010
,  // measure 67
0100
0001
0010
0100
1000
0010
1000
0010
0202
0000
0000
0000
0303
0000
0000
0000
,  // measure 68
0220
0330
2020
3030
,  // measure 69
0220
0000
0330
0000
0110
1100
0110
0011
,  // measure 70
0220
0330
2200
3300
,  // measure 71
0202
0000
0000
0303
,  // measure 72
2002
3003
0220
0330
,  // measure 73
2200
0000
3000
0001
0002
0000
0303
0000
,  // measure 74
0010
0000
0100
0010
0100
0000
0010
0100
0010
0000
1000
0001
1000
0000
0001
1000
,  // measure 75
0001
0000
0100
0010
1000
0000
0001
0010
0100
0000
1000
0100
0010
0000
0010
0001
,  // measure 76
0100
1000
0100
1000
0010
0100
0010
0100
0001
0010
0001
0010
0100
0010
1000
0001
,  // measure 77
0100
0010
0001
0010
0100
1000
0010
0200
0020
0000
0000
0000
0330
0000
0000
0000
,  // measure 78
0100
0010
0100
0001
0010
0100
0010
1000
,  // measure 79
1010
0000
0010
0001
0010
0000
0100
1000
0100
0000
0100
0001
0100
0000
0000
0000
,  // measure 80
1000
0010
0100
0001
0100
0010
0100
0001
,  // measure 81
0200
2000
3300
0000
2000
0002
3003
0000
0002
0020
0033
0000
0020
0200
0330
0000
,  // measure 82
0100
0001
1000
0010
0100
0001
0100
0010
,  // measure 83
0011
0000
1000
0010
0001
0000
0001
0100
1000
0000
0010
0100
1000
0000
0100
0000
,  // measure 84
2000
0000
3100
0200
0002
0300
0103
0200
,  // measure 85
0320
2000
0030
0010
3010
0000
2002
0000
,  // measure 86
0000
0000
3003
0000
;
