#TITLE:初音ミクの消失 (Hommarju Remix);
#SUBTITLE:;
#ARTIST:cosMo@暴走P feat. 初音ミク;
#TITLETRANSLIT:Hatsune Miku no Shoushitsu (Hommarju Remix);
#SUBTITLETRANSLIT:;
#ARTISTTRANSLIT:cosMo@BousouP feat. Hatsune Miku;
#GENRE:Pop;
#CREDIT:;
#BANNER:;
#BACKGROUND:;
#LYRICSPATH:;
#CDTITLE:;
#MUSIC:Hatsune Miku no Shoushitsu (Hommarju Remix).ogg;
#OFFSET:0.800000;
#SAMPLESTART:64.179993;
#SAMPLELENGTH:15.000000;
#SELECTABLE:YES;
#BPMS:0.000000=240.000000
;
#STOPS:
;
#BGCHANGES:;
#KEYSOUNDS:;
#ATTACKS:;

//---------------dance-single - ----------------
#NOTES:
     dance-single:
     :
     Beginner:
     4:
     0.204478,0.283789,0.014172,0.099202,0.000000,202.000000,200.000000,2.000000,14.000000,0.000000,0.000000,0.204478,0.283789,0.014172,0.099202,0.000000,202.000000,200.000000,2.000000,14.000000,0.000000,0.000000:
0000
0000
0000
0000
,
0000
0000
0000
0000
,
0000
0000
0000
0000
,
0000
0000
0000
0000
,
0000
0000
0000
0000
,
0000
0000
0000
0000
,
0000
0000
0000
0000
,
0000
0000
0000
0000
,
0000
0000
0000
0000
,
1000
0000
0100
0000
,
1000
0000
0000
0000
,
0001
0000
0100
0000
,
0001
0000
0000
0000
,
1000
0000
0010
0000
,
1000
0000
0000
0000
,
0001
0000
0010
0000
,
0001
0000
0000
0000
,
0100
0000
0100
0000
,
1000
0000
0001
0000
,
0100
0000
0100
0000
,
0001
0000
1000
0000
,
0010
0000
1000
0000
,
0010
0000
1000
0000
,
0100
0000
0001
0000
,
0100
0000
0001
0000
,
1000
0000
0100
0000
,
0010
0000
0100
0000
,
1000
0000
0001
0000
,
1000
0000
0001
0000
,
0001
0000
0010
0000
,
0100
0000
0010
0000
,
0001
0000
1000
0000
,
0001
0000
1000
0000
,
0100
0000
1000
0000
,
0100
0000
0000
0000
,
0100
0000
0001
0000
,
0100
0000
0000
0000
,
0010
0000
1000
0000
,
0010
0000
0000
0000
,
0010
0000
0001
0000
,
0010
0000
0000
0000
,
0100
0000
1000
0000
,
0010
0000
0000
0000
,
0001
0000
0100
0000
,
0010
0000
0000
0000
,
1000
0000
0100
0000
,
0010
0000
0001
0000
,
0100
0000
0010
0000
,
1000
0000
0001
0000
,
0200
0000
0000
0000
,
0310
0000
0010
0000
,
1000
0000
0001
0000
,
1000
0000
0000
0000
,
0020
0000
0000
0000
,
1030
0000
1000
0000
,
0001
0000
0100
0000
,
0001
0000
0000
0000
,
0100
0000
1000
0000
,
0010
0000
0001
0000
,
0100
0000
1000
0000
,
0010
0000
0001
0000
,
0100
0000
0010
0000
,
0100
0000
0010
0000
,
2002
0000
0000
0000
,
3003
0000
0000
0000
,
0100
0000
0000
0000
,
0100
0000
0000
0000
,
0010
0000
0000
0000
,
0010
0000
0000
0000
,
1000
0000
1000
0000
,
0100
0000
0010
0000
,
0001
0000
0001
0000
,
0010
0000
0100
0000
,
1000
0000
0000
0000
,
0100
0000
0000
0000
,
0010
0000
0000
0000
,
0001
0000
0000
0000
,
1000
0000
1000
0000
,
0010
0000
0100
0000
,
0001
0000
0001
0000
,
0100
0000
0010
0000
,
1000
0000
0100
0000
,
0020
0000
0000
0000
,
0031
0000
0010
0000
,
0200
0000
0000
0000
,
1300
0000
0100
0000
,
1000
0000
0100
0000
,
0001
0000
0100
0000
,
0001
0000
0100
0000
,
1000
0000
0010
0000
,
0200
0000
0000
0300
,
0001
0000
0010
0000
,
0200
0000
0000
0000
,
0301
0000
0010
0000
,
0001
0000
0010
0000
,
1000
0000
0010
0000
,
1000
0000
0010
0000
,
0100
0000
0100
0000
,
0100
0000
0100
0000
,
0010
0000
0010
0000
,
0010
0000
0010
0000
,
1000
0000
0100
0000
,
1000
0000
0100
0000
,
0001
0000
0100
0000
,
0001
0000
0100
0000
,
0010
0000
0010
0000
,
0010
0000
0010
0000
,
0100
0000
0100
0000
,
0100
0000
0100
0000
,
0001
0000
0010
0000
,
0001
0000
0010
0000
,
1000
0000
0010
0000
,
0100
0000
0001
0000
,
2000
0000
0000
0000
,
3000
0000
0000
0000
,
0002
0000
0000
0000
,
0003
0000
0000
0000
,
2000
0000
0000
0000
,
3000
0000
0000
0000
,
0002
0000
0000
0000
,
0003
0000
0000
0000
,
0100
0000
0100
0000
,
0100
0000
0100
0000
,
1000
0000
1000
0000
,
1000
0000
1000
0000
,
0010
0000
0010
0000
,
0010
0000
0010
0000
,
0001
0000
0001
0000
,
0001
0000
0001
0000
,
2002
0000
0000
0000
,
0000
0000
0000
0000
,
0000
0000
0000
0000
,
0000
0000
0000
0000
,
0000
0000
3003
0000
;

//---------------dance-single - ----------------
#NOTES:
     dance-single:
     :
     Easy:
     8:
     0.434262,0.567578,0.070859,0.248005,0.000000,429.000000,419.000000,10.000000,35.000000,0.000000,0.000000,0.434262,0.567578,0.070859,0.248005,0.000000,429.000000,419.000000,10.000000,35.000000,0.000000,0.000000:
0000
0000
0000
0000
,
0000
0000
0000
0000
,
0000
0000
0000
0000
,
0000
0000
0000
0000
,
0000
0000
0000
0000
,
1000
0100
1000
0000
,
0001
0100
0001
0000
,
1000
0010
1000
0000
,
0001
0010
0001
0000
,
1000
0000
0100
0000
,
1000
0100
0010
0000
,
0001
0000
0010
0000
,
0001
0010
0100
0000
,
1000
0001
0100
0000
,
0001
1000
0010
0000
,
1000
0010
0100
0001
,
2000
0000
0002
3003
,
0001
0100
1000
0100
,
0001
0100
1000
0100
,
0001
0010
1000
0010
,
0001
0001
1000
1000
,
0010
0100
0020
0000
,
1030
0001
2000
0000
,
3001
0100
1000
0010
,
0100
0001
1000
0110
,
1000
0010
0100
0001
,
0100
0010
2000
0000
,
3001
0100
0010
1000
,
0010
0100
0002
0000
,
1003
0100
0010
0001
,
0100
0010
1000
0001
,
0020
0000
0230
0000
,
0301
1000
0001
1001
,
0100
0010
1000
0010
,
0100
0001
0100
0001
,
1000
0010
0100
0001
,
0100
0010
0100
0010
,
1000
0001
0200
0000
,
0301
1000
0020
0000
,
1030
0001
0200
0000
,
0301
1000
0020
0000
,
1030
0001
0100
0010
,
1000
0010
0100
0001
,
0100
1000
0100
0001
,
0010
1000
0010
0001
,
1000
0010
0200
0000
,
0301
1000
0020
0000
,
1030
0001
0200
0000
,
0301
0000
1000
0000
0020
0000
0000
0030
,
1000
0001
0100
0010
,
1000
0010
0020
0000
,
0130
0001
1000
0010
,
0001
0100
0200
0000
,
0301
1000
0010
0000
,
1000
0001
0200
0000
,
0301
1000
0010
0100
,
0010
1000
0001
0100
,
0020
0000
1000
0000
,
0100
0000
0031
0100
,
0002
0000
1000
0000
,
0100
0000
0013
0100
,
2000
0000
0010
0000
,
0100
0000
3001
0010
,
0200
0000
0000
0000
,
0020
0000
0330
0000
,
0001
0000
0000
0100
0000
0000
0000
0000
,
1000
0000
0000
0100
0000
0000
0000
0000
,
0001
0000
0000
0010
0000
0000
0000
0000
,
1000
0000
0010
0000
,
0100
0001
1000
0010
,
0100
0001
0100
0001
,
1000
0010
0100
0001
,
1000
0010
1000
0010
,
1000
0001
0101
0000
,
0001
0100
1100
0000
,
1000
0010
0011
0000
,
0001
0010
1000
0010
,
0100
0001
1000
0010
,
0100
0001
0100
0001
,
1000
0010
0100
0001
,
1000
0010
1000
0010
,
1000
0100
0001
0010
,
0100
1000
0002
0000
,
1003
0001
0100
0010
,
0001
0100
2000
0000
,
3001
0100
0001
1000
,
0010
0100
0200
0000
,
0310
1000
0001
0010
,
0100
0010
0020
0000
,
0130
0001
1000
0010
,
0100
0010
0001
0100
,
0010
1000
0001
0100
,
0010
1000
0001
0100
,
1000
0100
0001
0010
,
0100
1000
0010
0100
,
0001
0001
1000
1000
,
0010
0100
0220
0330
,
0001
0100
1000
0100
,
0001
0100
1000
0100
,
0001
0010
1000
0010
,
0001
0010
1000
0010
,
0001
1000
0010
0100
,
0001
0100
0010
1000
,
0001
1000
0001
1000
,
0010
0100
0010
0100
,
0001
0100
0001
1001
,
1000
0100
1000
1001
,
0010
0100
0010
1001
,
0100
0010
0100
1001
,
0100
1000
0100
0010
,
0001
0010
0100
0001
,
1000
0010
0100
0001
,
0010
0100
1000
0001
,
0020
0000
0100
0000
,
1000
0000
0100
0000
,
0032
0000
0100
0000
,
0010
0000
1000
0000
,
0203
0000
0010
0000
,
1000
0000
0001
0000
,
2300
0000
0010
0000
,
0100
0000
0001
0000
,
3010
0100
0010
0100
,
0001
1000
0001
1000
,
0001
0100
0010
1000
,
0001
0100
0010
1000
,
0001
1000
0001
1000
,
0010
0100
0010
0100
,
1000
0100
0010
0001
,
1000
0010
0100
0001
,
2000
0000
0000
0000
,
0000
0000
0000
0000
,
0000
0000
0000
0000
,
0000
0000
0000
0000
,
0000
0000
3001
0000
;

//---------------dance-single - ----------------
#NOTES:
     dance-single:
     :
     Medium:
     10:
     0.510182,0.804069,0.077945,0.191318,0.000000,504.000000,493.000000,11.000000,27.000000,0.000000,0.000000,0.510182,0.804069,0.077945,0.191318,0.000000,504.000000,493.000000,11.000000,27.000000,0.000000,0.000000:
0000
0000
0000
0000
,
0000
0000
0000
0000
,
0000
0000
0000
0000
,
0000
0000
0000
0000
,
0000
0000
0000
0000
,
1000
0100
0010
0100
,
0001
0010
0100
0010
,
1000
0001
0100
0010
,
1000
0001
0100
0010
,
1000
0100
0010
0001
,
0100
0001
1000
0010
,
0001
0010
0100
1000
,
0010
0100
0001
1000
,
0010
0100
1000
0010
,
0100
0001
0010
0100
,
0001
1000
0010
0100
,
0220
0000
0000
0330
,
0001
0100
0010
1000
,
0001
0000
0100
0000
0010
0000
1000
0010
,
1000
0001
0100
0010
,
1000
0001
0001
0100
,
0001
1000
0010
0100
,
0001
0000
1000
0000
0010
0000
0001
0100
,
0001
0100
0010
1000
,
0001
0001
1000
1000
,
0010
0100
0001
1000
,
0010
0000
0100
0000
0001
0000
1000
0001
,
1000
0010
0100
1000
,
0001
0001
1000
1000
,
0010
0100
0001
2000
,
0000
3001
0100
0010
,
2000
0000
3002
0000
,
0103
0010
0000
0100
0000
0010
0100
0000
,
0001
1000
0010
0100
,
0001
0001
0100
0100
,
0010
1000
0001
0100
,
0010
0010
1000
1000
,
0010
0100
0001
1000
,
0010
0010
0100
0100
,
0001
1000
0010
0100
,
0001
0000
1000
0000
0001
1000
0001
0000
,
0010
0100
1000
0001
,
0100
0100
0010
0010
,
1000
0001
0100
0010
,
1000
1000
0001
0001
,
0100
0010
1000
0010
,
0100
0001
0100
0010
,
2000
0000
3002
0000
,
0203
0000
0320
0000
,
1030
0001
0100
0010
,
1000
0001
0100
0101
,
0001
0100
0010
1000
,
0001
0100
1000
1010
,
1000
0010
0100
0001
,
1000
1000
0001
0001
,
0200
0010
0320
1000
,
2030
0001
3002
0100
,
0103
0010
1000
0010
,
0100
0001
0100
0001
,
1000
0100
0001
0010
,
1000
0001
0100
0010
,
1000
0001
0001
1000
,
0010
0100
0100
0010
,
0220
0000
0000
0000
,
0330
0000
0000
0000
,
0001
0000
0000
1000
0000
0000
0001
0000
,
0100
0000
0000
0010
0000
0000
0100
0000
,
1000
0000
0000
0100
0000
0000
0010
0000
,
0001
0010
0100
1000
,
0001
0100
0010
1001
,
0100
0010
1000
1001
,
0100
0010
1000
0010
,
0100
0001
0100
0010
,
1000
0000
0000
0100
1000
0000
0100
0000
,
0010
0000
0000
0100
0010
0000
0100
0000
,
0001
0000
0000
0010
0001
0000
0010
0000
,
1000
0010
0100
0001
,
0100
0100
0010
0010
,
1000
0001
0100
0010
,
1000
0001
0010
1000
,
0100
0001
0010
1000
,
0010
0100
0001
1000
,
0010
0000
0100
0000
0001
1000
0001
0000
,
0010
1000
0100
0001
,
1000
0000
0010
0000
0100
0010
0100
0000
,
0001
1000
0010
0100
,
0001
0000
1000
0000
0001
0100
0010
0000
,
0100
0001
1000
0010
,
0100
0000
0001
0000
1000
0010
0100
0000
,
0001
1000
0010
0100
,
0001
0000
0010
0000
1000
0001
0100
0000
,
1000
0010
0100
0001
,
1000
0000
0010
0000
0001
1000
0010
0000
,
0100
0001
0100
1000
,
0010
0100
0001
0010
,
1000
1000
0001
0001
,
0100
0010
0100
0010
,
1000
0100
0010
0001
,
1000
0010
0100
1001
,
0010
0100
0001
1000
,
0001
0010
0100
1001
,
0100
0010
1000
0001
,
0100
0010
0001
1000
,
0010
0100
0001
0100
,
0010
1000
0100
0001
,
1000
1000
0010
0010
,
0100
0100
0001
0001
,
0100
0100
0010
0010
,
0001
0001
1000
1000
,
0100
0001
0100
0010
,
1000
0001
0100
0010
,
1000
0001
1000
0001
1000
0001
1000
0001
,
0100
0010
0100
0010
0100
0010
0100
0010
,
0200
0000
0310
0000
,
0002
0000
1003
0000
,
0200
0000
1300
0000
,
0020
0000
0031
0000
,
2000
0000
3010
0000
,
0002
0000
0013
0000
,
2000
0000
3100
0000
,
0002
0000
0103
0000
,
1000
0100
0001
0000
0010
0000
1000
0000
,
0001
0010
1000
0000
0010
0000
0100
0000
,
0001
1000
0010
0000
0100
0000
0001
0000
,
1000
0001
0100
0000
0010
0000
1000
0000
,
0001
0100
0001
0000
1000
0100
1000
0000
,
0010
0100
0001
1000
,
0001
0010
0001
0000
1000
0010
1000
0000
,
0001
1000
0001
1000
0010
0100
0010
0000
,
2002
0000
0000
0000
,
0000
0000
0000
0000
,
3003
0000
0220
0000
,
0000
0000
0000
0000
,
0330
0000
1001
0000
;

//---------------dance-single - ----------------
#NOTES:
     dance-single:
     :
     Hard:
     14:
     0.645826,0.804069,0.290521,0.099202,0.000000,638.000000,597.000000,41.000000,14.000000,0.000000,0.000000,0.645826,0.804069,0.290521,0.099202,0.000000,638.000000,597.000000,41.000000,14.000000,0.000000,0.000000:
// measure 0
0000
0000
0000
0000
,  // measure 1
0000
0000
0000
0000
,  // measure 2
0000
0000
0000
0000
,  // measure 3
0000
0000
0000
0000
,  // measure 4
0000
0000
0000
0000
,  // measure 5
1000
0000
0010
0000
0100
0001
0100
0000
,  // measure 6
0010
0100
0001
1000
,  // measure 7
0010
0000
0100
0000
0001
0100
0001
0000
,  // measure 8
1000
0010
0100
0001
,  // measure 9
1000
0010
0110
0001
,  // measure 10
0100
0010
1000
0001
,  // measure 11
0100
0001
0110
0001
,  // measure 12
1000
0010
0100
0001
,  // measure 13
1000
1000
0010
0100
,  // measure 14
0001
0001
0100
0010
,  // measure 15
1000
0001
0100
0010
,  // measure 16
0220
0000
0330
0000
,  // measure 17
0001
0000
0100
0000
0010
0000
1000
0010
,  // measure 18
1000
0000
0001
0000
0100
0000
0010
1000
,  // measure 19
0001
0100
0010
1000
,  // measure 20
0101
1100
0101
1100
,  // measure 21
0001
0000
1000
0000
0010
0000
0001
0100
,  // measure 22
0001
0000
1000
0000
0010
0000
0001
1000
,  // measure 23
0010
0100
0001
1000
,  // measure 24
1010
0011
1010
0011
,  // measure 25
0010
0000
0100
0000
0001
0000
1000
0010
,  // measure 26
0100
0000
0001
0000
0100
0000
0001
0100
,  // measure 27
0010
1000
0010
0100
,  // measure 28
0002
1000
0100
0013
,  // measure 29
0100
0001
0100
2000
,  // measure 30
0000
3001
0100
0010
,  // measure 31
1001
0000
0100
0000
0100
0001
1000
0000
,  // measure 32
0010
1000
0000
0001
0000
0100
0010
0000
,  // measure 33
1000
0000
0001
0100
0000
0010
0000
1000
,  // measure 34
0000
0001
0000
0100
0010
1000
0001
0000
,  // measure 35
0100
0000
0010
1000
0000
0001
0000
0100
,  // measure 36
0000
0010
0000
1000
0010
0100
0001
0000
,  // measure 37
0100
0000
0010
1000
0000
0001
0000
0100
,  // measure 38
0000
0010
0000
0001
0010
0100
1000
0000
,  // measure 39
0010
0000
0100
0001
0000
1000
0000
0010
,  // measure 40
0000
0100
0000
0001
1000
0010
0100
0000
,  // measure 41
0001
1000
0100
0001
0000
0100
0000
1000
,  // measure 42
0000
0010
0000
0100
0001
0010
1000
0000
,  // measure 43
0010
1000
0001
0100
0000
0010
0000
1000
,  // measure 44
0000
0001
0000
0100
0001
1000
0010
0000
,  // measure 45
0100
0010
1000
0100
0000
0001
0000
0100
,  // measure 46
0000
0010
0000
1000
0001
0100
0010
0000
,  // measure 47
1000
0001
0100
0000
0010
0100
1000
0000
,  // measure 48
0001
0100
0010
0000
1000
0001
0100
0000
,  // measure 49
0010
1000
0100
0010
,  // measure 50
0001
0100
0010
1010
,  // measure 51
0100
0010
1000
0001
,  // measure 52
0100
0010
0001
0101
,  // measure 53
0001
0100
1000
0100
,  // measure 54
0101
0010
1000
0010
,  // measure 55
0011
0010
1000
0010
,  // measure 56
1010
1000
0001
0100
,  // measure 57
0010
0000
1000
0010
1000
0000
0001
0100
,  // measure 58
0001
1000
0010
0100
,  // measure 59
0001
0000
0010
0001
0010
0000
1000
0010
,  // measure 60
1000
0001
0100
0010
,  // measure 61
1001
0010
1000
0100
,  // measure 62
1100
0001
0100
0010
,  // measure 63
0220
0000
0330
0000
,  // measure 64
2002
0000
3003
0000
,  // measure 65
0001
0000
0000
0100
0000
0000
1100
0000
,  // measure 66
1000
0000
0000
0010
0000
0000
0011
0000
,  // measure 67
0001
0000
0000
0101
0000
0000
1000
0000
,  // measure 68
1100
0000
0000
1000
0000
0000
1001
0000
,  // measure 69
0010
0000
0100
0000
0010
1000
0001
0000
,  // measure 70
0100
0000
0010
0000
1000
0001
0100
0000
,  // measure 71
0010
0000
1000
0000
0001
0010
1000
0000
,  // measure 72
1000
0100
0001
0000
0001
0100
1000
0000
,  // measure 73
0010
0000
0000
1000
0010
0000
1001
0000
,  // measure 74
0010
0000
0000
0001
0010
0000
1001
0000
,  // measure 75
0100
0000
0000
1000
0010
0000
0110
0000
,  // measure 76
0001
0100
1000
1100
,  // measure 77
1000
0000
0010
0000
0100
0001
0100
0000
,  // measure 78
0010
0000
1000
0000
0100
1000
0100
0000
,  // measure 79
1000
0010
0100
0001
,  // measure 80
1000
0001
1000
0000
0010
0100
0010
0000
,  // measure 81
0001
0010
0100
1000
0010
0000
0100
0000
,  // measure 82
0001
1000
0010
0110
,  // measure 83
1000
0010
0100
0001
0010
0000
0100
0000
,  // measure 84
0001
1000
0010
0110
,  // measure 85
0001
0100
1000
0100
0001
0000
1000
0000
,  // measure 86
0010
0100
0001
1001
,  // measure 87
1000
0010
0001
0010
1000
0000
0010
0000
,  // measure 88
0100
0001
1000
1001
,  // measure 89
0001
0100
1000
0100
0001
0100
1000
0000
,  // measure 90
0001
1000
0010
0100
,  // measure 91
1000
0010
0001
0010
1000
0010
0001
0000
,  // measure 92
1000
0010
0100
1000
,  // measure 93
0001
0100
0010
1000
0001
0100
0010
0000
,  // measure 94
1000
0010
0100
0001
,  // measure 95
1000
0010
0100
0001
1000
0010
0100
0000
,  // measure 96
0001
1000
0010
1001
,  // measure 97
1000
0100
0001
0101
,  // measure 98
0100
1000
0010
1001
,  // measure 99
0010
1000
0010
0011
,  // measure 100
0001
0100
1000
1001
,  // measure 101
1000
0010
0100
0001
,  // measure 102
0100
0010
1000
0001
,  // measure 103
0100
0010
1000
0001
,  // measure 104
0100
0010
1000
0001
,  // measure 105
0100
0001
0100
0001
0100
0001
0100
0001
,  // measure 106
1000
0010
1000
0010
1000
0010
1000
0010
,  // measure 107
1000
0001
1000
0001
1000
0001
1000
0001
,  // measure 108
0100
0010
0100
0010
0100
0010
0100
0010
,  // measure 109
0001
0100
1000
0010
0001
1000
0010
0000
,  // measure 110
0100
0001
0010
1000
0100
1000
0010
0000
,  // measure 111
1000
0010
0100
0001
0010
0100
1000
0010
,  // measure 112
0100
0001
0010
1000
0010
0100
0001
1000
,  // measure 113
0200
0000
0310
0000
,  // measure 114
0002
0000
1003
0000
,  // measure 115
0200
0000
1300
0000
,  // measure 116
0020
0000
0031
0000
,  // measure 117
0100
0010
1000
0000
0001
0100
0010
0000
,  // measure 118
1000
0001
0100
0000
0010
0000
1001
0000
,  // measure 119
0010
0100
0001
0000
1000
0010
0100
0000
,  // measure 120
0001
1000
0010
0000
0100
0000
1001
0000
,  // measure 121
0100
1000
0010
0000
0001
0100
0010
0000
,  // measure 122
0001
0100
1000
0000
0100
0001
1000
0000
,  // measure 123
0010
1000
0100
0000
1000
0001
0010
0000
,  // measure 124
0010
1000
0100
0000
0001
0100
1000
0000
,  // measure 125
0001
0010
1000
0000
0010
1000
0001
0000
,  // measure 126
0001
0100
1000
0000
0001
1000
0100
0000
,  // measure 127
0010
0100
0001
1000
0010
0100
0001
0010
,  // measure 128
1000
0100
0010
0100
0001
0010
0100
1000
,  // measure 129
0002
0000
0000
0000
,  // measure 130
0000
0000
0000
0000
,  // measure 131
0000
0000
2003
0000
,  // measure 132
0000
0000
0000
0000
,  // measure 133
0000
0000
3010
0000
;
