#TITLE:初音ミクの激唱(2018Remake);
#SUBTITLE:;
#ARTIST:cosMo@暴走P feat.初音ミク;
#TITLETRANSLIT:;
#SUBTITLETRANSLIT:;
#ARTISTTRANSLIT:;
#GENRE:Vocaloid;
#CREDIT:;
#BANNER:;
#BACKGROUND:;
#LYRICSPATH:;
#CDTITLE:;
#MUSIC:Hatsune Miku no Gekishou(2018 Remake).ogg;
#OFFSET:0.892000;
#SAMPLESTART:101.395714;
#SAMPLELENGTH:15.000000;
#SELECTABLE:YES;
#BPMS:0.000000=200.000000
;
#STOPS:
;
#BGCHANGES:2.500=Hatsune Miku no Gekishou(2018 Remake).avi=1.000=0=0=0=StretchNoLoop====,
99999=-nosongbg-=1.000=0=0=0 // don't automatically add -songbackground-
;
#KEYSOUNDS:;
#ATTACKS:;

//---------------dance-single - ----------------
#NOTES:
     dance-single:
     :
     Beginner:
     4:
     0.151722,0.327467,0.034040,0.013616,0.000000,156.000000,151.000000,5.000000,2.000000,0.000000,0.000000,0.151722,0.327467,0.034040,0.013616,0.000000,156.000000,151.000000,5.000000,2.000000,0.000000,0.000000:
0000
0000
0000
0000
,
0000
0000
0000
0000
,
0000
0000
0000
0000
,
0000
0000
0000
0000
,
0000
0000
0000
0000
,
0000
0000
0000
0000
,
0000
0000
0000
0000
,
0000
0000
0000
0000
,
0000
0000
0000
0000
,
0000
0000
0000
0000
,
1001
0000
0000
0000
,
0100
0000
0000
0000
,
0010
0000
0000
0000
,
0100
0000
1000
0000
,
0100
0000
0000
0000
,
0010
0000
0000
0000
,
0001
0000
0000
0000
,
0010
0000
0100
0000
,
1001
0000
0000
0100
,
0000
0000
1001
0000
,
0000
0000
0000
0000
,
0010
0000
0000
0000
,
0100
0000
0010
0000
,
0100
0000
0000
0000
,
1000
0000
0100
0000
,
1000
0000
0000
0000
,
0001
0000
0010
0000
,
0001
0000
0000
0000
,
1000
0000
0010
0000
,
1000
0000
0000
0000
,
0001
0000
0100
0000
,
0001
0000
0000
0000
,
1000
0000
0100
0000
,
0010
0000
0000
0000
,
0001
0000
0010
0000
,
0100
0000
0000
0000
,
1000
0000
0100
0000
,
0001
0000
0000
0000
,
0001
0000
0010
0000
,
1000
0000
0000
0000
,
1000
0000
0000
0000
,
0001
0000
0000
0000
,
0001
0000
0000
0000
,
0100
0000
0000
0000
,
0100
0000
0000
0000
,
0010
0000
0000
0000
,
0001
0000
0000
0000
,
0010
0000
0000
0000
,
0100
0000
0000
0000
,
1000
0000
0000
0000
,
0100
0000
0000
0000
,
0010
0000
0000
0000
,
0100
0000
0010
0000
,
0110
0000
0000
0000
,
1000
0000
0000
0000
,
0001
0000
0000
0000
,
0100
0000
0000
0000
,
0010
0000
0000
0000
,
1000
0000
0000
0000
,
0100
0000
0000
0000
,
0010
0000
0000
0000
,
0001
0000
1000
0000
,
0001
0000
0000
0000
,
1000
0000
0001
0000
,
1000
0000
0000
0000
,
0010
0000
0100
0000
,
0010
0000
0000
0000
,
0100
0000
0010
0000
,
0100
0000
0000
0000
,
1000
0000
0000
0000
,
0100
0000
0000
0000
,
0010
0000
0000
0000
,
0001
0000
0000
0000
,
1000
0000
0000
0000
,
0010
0000
0000
0000
,
0100
0000
0000
0000
,
0001
0000
1000
0000
,
0000
0000
0001
0000
,
0000
0100
0000
0000
,
0000
0010
0000
0000
,
0000
1000
0000
0000
,
0000
0001
0000
0000
,
0000
1000
0000
0001
,
0000
1000
0000
0000
,
0000
0010
0000
0100
,
0000
0010
0000
0010
,
0000
0010
0000
0000
,
0000
0100
0000
0100
,
0000
0100
0000
0000
,
0000
0001
0000
0001
,
0000
0001
0000
0000
,
0000
1000
0000
1000
,
0000
1000
0000
0000
,
0000
0100
0000
1000
,
0000
0100
0000
0010
,
0000
0001
0000
0010
,
0000
0001
0000
0100
,
0000
0010
0000
0100
,
0000
0001
0000
0000
,
0000
0100
0000
0010
,
0000
1000
0000
0000
,
0000
0001
0000
0000
,
0000
1000
0000
0000
,
0000
0010
0000
0000
,
0000
0100
0000
0000
,
0000
1000
0000
0000
,
0000
0001
0000
0000
,
0000
0100
0000
0000
,
0000
0010
0000
0000
,
0000
1000
0000
1000
,
0000
1000
0000
1000
,
0000
0001
0000
0001
,
0000
0001
0000
0001
,
0000
0100
0000
0010
,
0000
0100
0000
0010
,
0000
1000
0000
0100
,
0000
0010
0000
0001
,
0000
1000
1000
1000
,
0000
0001
0001
0001
,
0000
2002
0000
0000
,
0000
3003
0000
0000
;

//---------------dance-single - ----------------
#NOTES:
     dance-single:
     :
     Easy:
     8:
     0.353046,0.491201,0.068080,0.319978,0.000000,363.000000,353.000000,10.000000,47.000000,0.000000,0.000000,0.353046,0.491201,0.068080,0.319978,0.000000,363.000000,353.000000,10.000000,47.000000,0.000000,0.000000:
0000
0000
0000
0000
,
0000
0000
0000
0000
,
0000
0000
0000
0000
,
0000
0000
0000
0000
,
0000
0000
0000
0000
,
0000
0000
0000
0000
,
0000
0000
0000
0000
,
0000
0000
0000
0000
,
0000
0000
0000
0000
,
0000
0000
0000
0000
,
2001
0000
0000
0000
,
3200
0000
0000
0000
,
0320
0000
0000
0000
,
0032
0000
1003
0001
,
0200
0000
0000
0000
,
0320
0000
0000
0000
,
2030
0000
0000
0000
,
3002
0000
1003
0000
,
1000
0000
0000
0100
0000
0000
0001
0000
,
0000
0010
0000
0000
0100
0000
0000
1000
,
0000
0000
0010
0000
0000
0001
0000
0000
,
2002
0000
3003
0000
,
0110
0000
0100
0000
,
0010
0000
0100
0000
,
1000
0100
0010
0000
,
0001
0000
1000
0000
,
0001
0010
0100
1000
,
0020
0000
0130
0001
,
2000
0000
0000
3000
0001
0000
0100
0000
,
0020
0000
2030
0000
,
3002
0000
0203
0010
,
0310
1000
0100
0000
,
0010
0001
0100
0000
,
0100
0001
1000
0000
,
0010
1000
0001
0100
,
0010
1000
0100
0000
,
0010
0001
0100
0000
,
0100
0001
1000
0010
,
0001
0010
0100
1000
,
0002
0000
0000
1003
,
0000
0000
0100
0010
,
0100
1000
0001
1000
,
0200
0000
0000
0320
,
0000
0000
2030
0000
,
0000
3001
0001
0100
,
0010
1000
0010
0100
,
0001
0100
0010
0100
,
0010
1001
0000
0100
,
1000
0010
0001
0001
,
0010
1000
1000
0100
,
0001
0001
0100
1000
,
2002
0000
0000
0000
,
3003
0000
0000
0000
,
2000
0000
0000
0000
,
3100
0000
0000
0010
,
0020
0000
0000
0000
,
0031
0000
0000
0001
,
0002
0000
0000
0000
,
1003
0000
0000
1000
,
2000
0000
0000
0000
,
3010
0000
0100
0100
,
0010
0001
0010
0000
,
0010
1000
0010
0000
,
0100
1000
0100
0000
,
0100
0001
0100
0000
,
0001
0010
0100
0100
,
1000
0100
0010
0010
,
0100
0001
1000
0010
,
0220
0000
0330
0000
,
0001
0100
0001
0100
,
0010
0010
0010
0010
,
1000
0010
1000
0010
,
0100
0100
0100
0100
,
0001
0010
0100
1000
,
0001
0100
0110
1000
,
0100
0010
0001
1000
,
0100
0110
0001
0100
,
0010
1000
0010
0010
,
0010
1000
0010
0100
,
0001
0100
0100
0100
,
0010
2002
3003
0100
,
1000
0020
0130
0002
,
0103
2000
3100
0020
,
0031
0200
0000
0000
,
0000
0320
0000
2030
,
0000
0000
3001
0000
0001
0000
0100
0001
,
0100
0000
1000
0000
1000
0000
0100
1000
,
0100
0000
0010
0000
0010
0000
0010
0001
,
0010
0000
0010
0000
0010
0000
0010
1000
,
0010
0000
0100
0000
0010
0000
1000
0001
,
1000
0000
0010
0000
0100
0000
0001
1000
,
0001
0000
0100
0000
0010
0000
1000
0001
,
1000
0000
0010
0000
0100
0000
0001
1000
,
0001
0100
1000
0010
,
0001
0000
0100
0000
0010
0000
0100
0010
,
0100
0001
0010
1000
,
0100
0000
0010
0000
0001
0000
1000
0001
,
1000
0100
1000
0010
,
0001
0000
0100
0000
0010
0000
1000
0001
,
1000
0010
0100
0001
,
0010
0000
0100
0000
1000
0000
0001
1000
,
0001
0200
0000
1300
,
0010
0001
0010
2000
,
0000
3020
0000
1030
,
0100
0001
0100
2000
,
0000
3010
0100
0002
,
0000
0103
0010
2000
,
0000
3010
0100
0001
,
0100
0020
0000
0230
,
0000
0301
0001
1000
,
1000
0010
0010
0100
,
0100
0001
0001
0100
,
0100
0010
0010
1000
,
1000
0000
0001
0000
0010
0000
0001
0010
,
0001
0000
1000
0000
0100
0000
1000
0100
,
1000
0000
0010
0000
0100
0000
0010
0100
,
0010
0000
1000
0000
0001
0000
1000
0001
,
1000
0100
1000
0010
,
0001
0000
0100
0010
0100
0000
0001
1000
,
0001
2002
0000
0000
,
0000
3003
0000
0000
;

//---------------dance-single - ----------------
#NOTES:
     dance-single:
     :
     Medium:
     13:
     0.578684,0.736801,0.279130,0.095313,0.068080,595.000000,554.000000,41.000000,14.000000,0.000000,0.000000,0.578684,0.736801,0.279130,0.095313,0.068080,595.000000,554.000000,41.000000,14.000000,0.000000,0.000000:
// measure 0
0000
0000
0000
0000
,  // measure 1
0000
0000
0000
0000
,  // measure 2
0000
0000
0000
0000
,  // measure 3
0000
0000
0000
0000
,  // measure 4
0000
0000
0000
0000
,  // measure 5
0000
0000
0000
0000
,  // measure 6
0000
0000
0000
0000
,  // measure 7
0000
0000
0000
0000
,  // measure 8
0000
0000
0000
0000
,  // measure 9
0000
0000
0000
0000
,  // measure 10
1000
0000
0100
0000
0010
0001
0010
0000
,  // measure 11
0001
0000
0010
0000
0100
1000
0100
0000
,  // measure 12
0100
0000
0010
0000
0100
0010
0100
0000
,  // measure 13
0001
0000
1000
0000
0001
1000
0001
0000
,  // measure 14
0100
0000
1000
0000
0010
0001
0010
0000
,  // measure 15
0010
0000
0001
0000
0100
1000
0100
0000
,  // measure 16
0010
0000
0100
0000
0001
1000
0001
0000
,  // measure 17
0100
0000
0010
0000
1000
0001
1000
0000
,  // measure 18
0100
1000
0100
1000
0100
0000
0010
0001
,  // measure 19
0010
0001
0010
0000
0100
0010
0100
0010
,  // measure 20
0100
0000
0001
1000
0001
1000
0001
1000
,  // measure 21
0020
0000
0100
0130
,  // measure 22
0001
0100
1001
0000
,  // measure 23
1000
0000
0100
0000
0110
0000
0000
0001
,  // measure 24
0000
0010
0100
0000
1001
0000
0000
0000
,  // measure 25
0001
0000
0010
0000
0110
0000
0000
1000
,  // measure 26
0000
0100
0010
0000
1010
0000
0000
0000
,  // measure 27
0001
0000
1000
0000
0010
0100
0010
0000
,  // measure 28
1000
0000
0001
0000
0100
0010
0100
0000
,  // measure 29
0001
0000
0001
0010
0100
0000
1000
0100
,  // measure 30
0010
0000
0001
0100
1000
0000
1001
0000
,  // measure 31
1000
0010
1000
0000
0001
1000
0001
0000
,  // measure 32
0001
0010
0001
0000
0100
0000
0110
0000
,  // measure 33
1000
0010
1000
0000
0001
0100
0001
0000
,  // measure 34
0100
0010
0100
0000
0001
0000
1001
0000
,  // measure 35
0100
0000
1000
0000
0010
0001
0010
0000
,  // measure 36
0010
0000
0001
0000
0100
1000
0100
0000
,  // measure 37
0010
0100
0010
0000
1000
0001
1000
0000
,  // measure 38
0100
1000
0100
0000
0010
0001
0010
0000
,  // measure 39
0200
0000
0000
0310
,  // measure 40
0001
0010
0100
1000
,  // measure 41
0010
0100
0001
1000
,  // measure 42
1001
0000
0100
0110
,  // measure 43
0000
0010
0110
0000
,  // measure 44
0000
0001
1000
1001
,  // measure 45
1000
0100
0010
0011
,  // measure 46
0001
0010
0100
1100
,  // measure 47
1000
1001
0001
0100
,  // measure 48
0110
0001
0010
0100
,  // measure 49
1000
0100
0110
0100
,  // measure 50
1000
1100
0100
0001
,  // measure 51
0022
0000
0000
0033
,  // measure 52
0110
0001
0110
1000
,  // measure 53
0110
0000
0000
0000
,  // measure 54
1001
0000
0000
0000
0000
0000
1000
0100
,  // measure 55
1100
0000
0000
0000
,  // measure 56
0011
0000
0000
0000
0000
0000
0010
0100
,  // measure 57
0110
0000
0000
0000
,  // measure 58
0011
0000
0000
0000
0000
0000
1000
0001
,  // measure 59
1001
0000
0000
0000
,  // measure 60
0110
0000
0000
0000
0001
0000
0001
0100
,  // measure 61
2000
0100
0100
3100
,  // measure 62
0020
0000
0100
0000
0100
0000
0031
0100
,  // measure 63
0020
0001
0001
0031
,  // measure 64
0002
0000
1000
0000
1000
0000
1003
0100
,  // measure 65
0010
0001
0010
0100
,  // measure 66
1000
0000
0010
0000
0001
0000
1000
0010
,  // measure 67
0100
0001
0100
0010
,  // measure 68
2001
0000
3001
0000
,  // measure 69
0001
0100
1000
0010
,  // measure 70
0001
0000
0000
1000
0000
0000
0100
0010
0100
0010
0000
0000
,  // measure 71
0001
0010
0100
1000
,  // measure 72
0010
0000
0000
0100
0000
0000
0001
1000
0001
1000
0000
0000
,  // measure 73
0001
1000
0100
0010
,  // measure 74
0001
0010
0001
0010
0001
0000
0010
0000
,  // measure 75
0100
0000
1000
0000
0001
0000
0100
1000
,  // measure 76
0100
1000
0100
0000
0010
0100
0010
0000
,  // measure 77
0001
1000
0001
0000
0100
1000
0100
0010
,  // measure 78
0001
0000
0010
0100
0010
0000
0001
1000
,  // measure 79
0001
0000
0010
0100
1000
0010
0100
0001
,  // measure 80
1000
0001
1000
0001
0000
0000
0000
0000
0000
0001
0000
0000
,  // measure 81
1000
1001
1000
1100
,  // measure 82
0100
0101
0001
0011
,  // measure 83
0010
0210
0000
0010
,  // measure 84
0000
1000
0000
0301
,  // measure 85
0000
0000
0001
0100
0001
0100
0010
0100
,  // measure 86
0010
0100
1000
0010
1000
0010
1000
0001
,  // measure 87
1000
0001
0100
0001
0100
0010
1000
0001
,  // measure 88
0100
0010
0001
0010
0100
1000
0100
0010
,  // measure 89
0001
0100
0010
1000
0010
0100
0001
0100
,  // measure 90
0010
1000
0001
0010
0100
1000
0010
1000
,  // measure 91
0100
0010
0001
0100
0010
0100
0001
1000
,  // measure 92
0010
1000
0100
0001
0010
0100
1000
0010
,  // measure 93
0100
0001
0010
0100
0010
1000
0001
0100
,  // measure 94
0010
1000
0100
0010
0001
0010
0100
1000
,  // measure 95
0010
1000
0100
0001
0010
0100
0010
1000
,  // measure 96
0100
0001
0010
0100
0010
0100
0001
1000
,  // measure 97
0001
1000
0001
0010
0100
1000
0100
0010
,  // measure 98
0100
0001
0010
0100
1000
0100
0010
0100
,  // measure 99
0001
0100
0010
1000
0100
0010
0100
0001
,  // measure 100
0010
0100
1000
0010
1000
0100
0010
0100
,  // measure 101
0001
0010
0200
0000
0000
0000
0310
0000
,  // measure 102
0001
0100
0010
0000
1000
0000
1010
0000
,  // measure 103
0000
2000
0000
3001
,  // measure 104
1000
0100
0010
0000
0001
0000
0011
0000
,  // measure 105
0000
0000
0001
0000
0101
0000
0100
1000
,  // measure 106
0010
0000
1000
0000
1010
0000
0001
0100
,  // measure 107
0010
0000
1000
0001
1000
0000
0100
0010
,  // measure 108
0100
0001
1000
1001
,  // measure 109
0000
0000
0000
1000
0000
1000
0001
0000
0000
0001
0000
0001
,  // measure 110
0010
0000
0000
0010
0000
0010
0100
0000
0000
0100
0000
0100
,  // measure 111
1000
0000
0000
1000
0000
1000
0001
0000
0000
0001
0000
0001
,  // measure 112
0100
0000
0000
0100
0000
0100
0010
0000
0000
0010
0000
0010
,  // measure 113
1000
0000
0000
0001
0000
0001
0010
0000
0010
0100
0000
0100
,  // measure 114
1000
0000
0000
1000
0000
1000
0100
0000
0100
0010
0000
0010
,  // measure 115
0001
0000
0010
0100
0010
0100
0001
1000
,  // measure 116
0001
1000
0001
0010
0100
1000
0001
0010
,  // measure 117
0100
1000
0001
0100
0010
1000
0001
0100
,  // measure 118
0010
1000
0010
1000
0100
0010
0001
0100
,  // measure 119
0010
1000
2002
0000
0000
0000
0000
0000
,  // measure 120
0000
3003
0000
0000
;

//---------------dance-single - ----------------
#NOTES:
     dance-single:
     :
     Hard:
     16:
     0.728461,1.023335,0.292746,0.204241,0.428907,749.000000,706.000000,43.000000,30.000000,0.000000,0.000000,0.728461,1.023335,0.292746,0.204241,0.428907,749.000000,706.000000,43.000000,30.000000,0.000000,0.000000:
// measure 0
0000
0000
0000
0000
,  // measure 1
0000
0000
0000
0000
,  // measure 2
0000
0000
0000
0000
,  // measure 3
0000
0000
0000
0000
,  // measure 4
0000
0000
0000
0000
,  // measure 5
0000
0000
0000
0000
,  // measure 6
0000
0000
0000
0000
,  // measure 7
0000
0000
0000
0000
,  // measure 8
0000
0000
0000
0000
,  // measure 9
1000
0100
0010
0001
1000
0010
0100
0001
,  // measure 10
0020
0100
0100
0031
,  // measure 11
0200
0010
0010
1300
,  // measure 12
0002
1000
1000
0103
,  // measure 13
2000
0001
0001
3010
,  // measure 14
1000
0000
0010
0000
0100
0010
0100
0000
,  // measure 15
0001
0000
0100
0000
0010
0100
0010
0000
,  // measure 16
0001
0000
0100
0000
1000
0001
1000
0000
,  // measure 17
0100
0010
0110
0000
0001
1000
1001
0000
,  // measure 18
0001
0010
0100
1100
0000
0000
1000
0100
,  // measure 19
0010
0011
0000
0000
0010
0100
0010
0001
,  // measure 20
1000
0001
1000
0100
0010
0001
0010
0100
,  // measure 21
2000
0001
0001
3001
,  // measure 22
0001
0000
0100
0000
0010
0000
1000
0002
2000
0000
0000
0000
3003
0000
0000
0000
,  // measure 23
1000
0000
0100
0000
0010
0000
0001
0010
,  // measure 24
0000
0001
0010
0001
0100
0000
0011
0000
,  // measure 25
0001
0000
0010
0000
0100
0000
1000
0100
,  // measure 26
0000
1000
0100
1000
0010
0000
1100
0000
,  // measure 27
0010
0000
0000
0000
0100
0000
0000
0000
0001
0000
0000
1000
0000
0000
0010
0000
,  // measure 28
0100
0001
1000
0010
,  // measure 29
0110
0000
0000
0000
0100
0000
0001
0100
0001
0000
0000
0000
0010
0000
1000
0010
,  // measure 30
1000
0000
0000
0000
1000
0000
0001
1000
0001
0000
0000
0000
0101
0000
0000
0000
,  // measure 31
0001
0000
0010
0000
0100
0000
1000
0100
,  // measure 32
0000
1000
0100
1000
0010
0000
1100
0000
,  // measure 33
1000
0000
0100
0000
0010
0000
0001
0010
,  // measure 34
0000
0001
0010
0001
0100
0000
0011
0000
,  // measure 35
0100
0000
0000
0000
0010
0000
0000
0000
1000
0000
0000
0001
0000
0000
0100
0000
,  // measure 36
0010
1000
0001
0100
,  // measure 37
0110
0000
0000
0000
0010
0000
1000
0010
1000
0000
0000
0000
0100
0000
0001
0100
,  // measure 38
0001
0000
0000
0000
0001
0000
1000
0001
1000
0000
0000
0000
1010
0000
0000
0000
,  // measure 39
0002
1000
0103
0020
,  // measure 40
0100
0031
2000
0001
,  // measure 41
3010
0000
0200
0000
0010
0000
1300
0001
,  // measure 42
0020
0100
1000
0031
,  // measure 43
0200
1000
0001
0310
,  // measure 44
0001
0010
0100
1000
0010
0100
0001
1000
,  // measure 45
1001
0100
1100
0001
,  // measure 46
0010
0011
0110
1100
,  // measure 47
1001
0000
0001
1000
0000
0000
0001
0000
0000
0011
0000
0001
,  // measure 48
0010
0100
1000
1100
,  // measure 49
1000
0010
0110
0001
,  // measure 50
0010
0011
0110
1100
,  // measure 51
0001
0100
0010
1000
0010
0100
0001
1000
,  // measure 52
0010
0000
0000
0000
0001
1000
0001
1000
0010
0100
0010
0100
0001
0000
0000
0000
,  // measure 53
0002
0000
0000
0000
,  // measure 54
1000
0000
0000
0000
0003
0000
0010
0100
,  // measure 55
2000
0000
0000
0000
,  // measure 56
0001
0000
0000
0000
0000
0000
3100
0010
,  // measure 57
0002
0000
0000
0000
,  // measure 58
0010
0000
0000
0000
0000
0000
0103
0001
,  // measure 59
2000
0000
0000
0000
,  // measure 60
0001
0000
0000
0000
0000
0000
0000
0000
0100
3000
0000
0000
0010
0000
0100
0000
,  // measure 61
0001
0100
0010
0100
0001
0100
0010
0000
,  // measure 62
1000
0010
0100
0010
1000
0010
0100
0000
,  // measure 63
0001
0100
1000
0100
0001
0100
1000
0000
,  // measure 64
1000
0010
0001
0010
1000
0010
0001
0000
,  // measure 65
0001
0100
0001
0100
0010
0100
0010
0100
,  // measure 66
1000
0010
1000
0010
1000
0001
1000
0001
,  // measure 67
0100
1000
0010
0100
0001
0010
0100
1000
,  // measure 68
1001
0100
0010
0100
2002
0000
3003
0000
,  // measure 69
0001
0000
0001
0100
0000
0100
0010
0000
0010
1000
0000
1000
,  // measure 70
0010
0000
0010
0001
0000
0001
0010
1000
0010
0001
0100
1000
,  // measure 71
0100
0000
0001
0100
0000
0100
0010
0000
0010
1000
0000
1000
,  // measure 72
0001
0000
0001
0100
0000
0100
0010
1000
0010
0100
0001
0100
,  // measure 73
0010
0100
1000
0010
,  // measure 74
0001
0100
0010
1000
1001
0000
1000
0000
,  // measure 75
1100
0000
0100
0000
0011
0000
0001
0010
,  // measure 76
0100
0000
0000
1000
0000
0000
0010
0000
0000
1000
0000
0000
0001
0000
0000
0000
0001
0000
0010
0000
0000
0000
0100
0000
,  // measure 77
0010
0000
1000
0010
0000
0100
0010
0000
0001
0010
1000
0001
,  // measure 78
0100
0010
1000
0001
0100
1000
0010
0100
0001
0010
0100
0010
,  // measure 79
1000
0001
0010
1000
0010
0100
0001
0010
0100
1000
0010
1000
,  // measure 80
0100
0000
0000
0000
0010
0000
0000
0000
0100
0000
0000
0000
0002
0000
0000
0000
0000
0000
0000
0000
0000
0000
0000
0000
0000
0000
0000
0000
0000
0000
0000
0000
0000
0000
0000
0000
1003
0000
0000
0000
0000
0000
0000
0000
0000
0100
0000
0000
,  // measure 81
0000
0010
0001
0000
0010
0000
0011
0000
,  // measure 82
0100
1100
1000
1001
,  // measure 83
0100
0220
0000
0000
,  // measure 84
0330
2002
3003
0220
,  // measure 85
0330
0000
0001
0100
0010
1000
0100
0010
,  // measure 86
0100
0010
0100
0000
0001
0000
0010
0000
0100
0000
1000
0000
0010
0000
0100
0000
,  // measure 87
0001
1000
0001
0000
1000
0000
0010
0000
1000
0000
0100
0000
0010
0000
0001
0000
,  // measure 88
0100
0001
0100
0000
0001
0000
0010
0000
0100
0000
1000
0000
0010
0000
0001
0000
,  // measure 89
1000
0010
1000
0000
0100
0000
0001
0000
0010
0000
1000
0000
0001
0000
0100
0010
,  // measure 90
0100
0000
1000
0000
0010
0000
1000
0000
0100
0000
0010
0000
0001
0000
0010
0100
,  // measure 91
0010
1000
0001
0010
0100
1000
0010
1000
,  // measure 92
0001
1000
0001
0000
0010
0000
1000
0000
0100
0010
0100
0000
0001
0000
1000
0000
,  // measure 93
0100
0010
0100
0000
0001
0000
0100
0000
0010
0000
1000
0000
0010
1000
0010
0000
,  // measure 94
1000
0100
0001
0000
0010
0000
0001
0000
1000
0000
0100
0000
1000
0100
1000
0000
,  // measure 95
0100
0001
0010
0000
0100
0000
1000
0000
0001
0000
0010
0000
0001
0010
0001
0000
,  // measure 96
0010
1000
0100
0000
0010
0000
0100
0000
1100
0000
0000
0000
0100
0000
0010
0000
,  // measure 97
0011
0000
0000
0000
1000
0000
0010
0000
0100
0000
0010
0000
1000
0100
0001
0000
,  // measure 98
0001
0010
1000
0000
0100
0000
1000
0000
0001
0000
1000
0000
0100
0001
0010
0000
,  // measure 99
0010
1000
0100
0000
0010
0000
0001
0000
1000
0000
0001
0000
0010
1000
0100
0000
,  // measure 100
0100
0001
0010
0000
0010
0000
1000
0000
0001
0000
0100
0000
0010
0000
0100
0000
,  // measure 101
1000
0010
0001
0010
2000
0000
0000
0000
0000
0000
0000
0000
3010
0000
0000
0000
,  // measure 102
1000
0001
0010
0000
0011
0000
0010
0000
,  // measure 103
0110
0002
0000
0103
,  // measure 104
0001
1000
0100
0000
1100
0000
0100
0000
,  // measure 105
0110
0000
0001
0010
0110
0000
1000
0100
,  // measure 106
0110
0000
0000
0000
0001
0000
1000
0001
1000
0000
0000
0000
0100
0000
0010
0100
,  // measure 107
0010
0000
0001
0010
0100
1000
0010
1000
,  // measure 108
0100
0001
0020
0000
0100
0000
0001
0000
,  // measure 109
0130
0000
0000
0100
0001
0100
0001
0000
0000
0010
1000
0010
,  // measure 110
1000
0000
0000
0001
1000
0001
1000
0000
0000
0010
0100
0010
,  // measure 111
0100
0000
0000
1000
0100
0010
0001
0000
0000
0001
0010
0100
,  // measure 112
1000
0000
0000
0001
0100
0010
1000
0000
0000
1000
0010
0100
,  // measure 113
0001
0000
0000
0010
0100
0010
0100
0010
0100
0001
1000
0001
,  // measure 114
1000
0001
1000
0001
0100
0010
1000
0010
1000
0001
0100
0010
,  // measure 115
1000
0000
0000
0000
0001
0000
0000
0000
0010
0000
0000
0000
0100
0000
0000
0000
0000
0000
0010
0000
0000
0000
0000
0000
1000
0000
0000
0000
0000
0000
0100
0000
0000
0000
0000
0000
0010
0000
0000
0100
0000
0000
0010
0000
0000
0000
0000
0000
,  // measure 116
0100
0001
0100
0000
0010
0000
0100
0000
0001
0000
0010
0000
0100
0010
0100
0000
,  // measure 117
0010
1000
0010
0000
0100
0000
0010
0000
1000
0000
0001
0000
0100
0000
0001
0000
,  // measure 118
0010
0000
1000
0000
0010
0000
0100
0000
0001
0100
0010
0100
0001
0000
0010
0000
,  // measure 119
1000
0010
0100
0010
2000
0000
0000
0000
0000
0000
0000
0000
0000
0000
0000
0000
,  // measure 120
0000
3000
0000
0000
;

//---------------dance-single - ----------------
#NOTES:
     dance-single:
     :
     Challenge:
     18:
     0.835445,1.350802,0.251898,0.279130,1.007591,859.000000,822.000000,37.000000,41.000000,0.000000,0.000000,0.835445,1.350802,0.251898,0.279130,1.007591,859.000000,822.000000,37.000000,41.000000,0.000000,0.000000:
// measure 0
0000
0000
0000
0000
,  // measure 1
0000
0000
0000
0000
,  // measure 2
0000
0000
0000
0000
,  // measure 3
0000
0000
0000
0000
,  // measure 4
0000
0000
0000
0000
,  // measure 5
0000
0000
0000
0000
,  // measure 6
0000
0000
0000
0000
,  // measure 7
0000
0000
0000
0000
,  // measure 8
0000
0000
0000
0000
,  // measure 9
1000
0001
1000
0001
1000
0000
0001
0000
0100
0000
0010
0000
1000
0000
0001
0000
,  // measure 10
0200
0000
0010
0000
,  // measure 11
0302
0000
0010
0000
,  // measure 12
0203
0000
0010
0000
,  // measure 13
2300
0000
0010
3010
,  // measure 14
0020
0000
0100
0000
,  // measure 15
0032
0000
0100
0000
,  // measure 16
2003
0000
0100
0000
,  // measure 17
3020
0000
0130
0110
,  // measure 18
0001
0100
0010
1010
0100
1000
1000
0010
,  // measure 19
0100
0101
0100
0010
0011
0010
0100
0110
,  // measure 20
0010
1000
1010
1000
0100
0101
0001
1000
,  // measure 21
1001
0000
0000
0000
0000
0000
0000
0000
0001
1000
0001
1000
0010
0100
0010
0100
,  // measure 22
0001
1000
0010
1000
2002
0000
3003
0000
,  // measure 23
1200
0000
0000
0000
0010
0000
0000
0301
,  // measure 24
0000
0010
0100
1000
1001
0000
0010
0000
,  // measure 25
0021
0000
0000
0000
0100
0000
0000
1030
,  // measure 26
0000
0100
0010
0001
1001
0000
0100
0000
,  // measure 27
1100
0000
0000
0000
0100
0000
0000
0000
0001
0000
0000
0010
0000
0000
0100
0000
,  // measure 28
1000
1000
0101
0100
,  // measure 29
1100
0000
0000
0000
0001
0000
1000
0001
1000
0000
0000
0000
0010
0000
0100
0010
,  // measure 30
0100
0000
0000
0000
1000
0000
0001
1000
0100
0000
0000
0000
0101
0000
0000
0000
,  // measure 31
0010
0000
0100
0001
1000
0000
0010
0000
0100
0000
0010
0100
0010
0000
1000
0000
,  // measure 32
0001
0000
0010
0000
0100
0000
1000
0000
0001
0100
0010
0100
0001
0000
0100
0000
,  // measure 33
0100
0000
0010
1000
0001
0000
0100
0000
0010
0000
0100
0010
0100
0000
0001
0000
,  // measure 34
1000
0000
0100
0000
0010
0000
0001
0000
1000
0010
0100
0010
1000
0000
0010
0000
,  // measure 35
1000
0000
0001
0000
0010
0000
1000
0000
0010
0100
0010
0100
0001
0000
1000
0000
,  // measure 36
0001
0000
1000
0000
0100
0000
0001
0000
0100
0010
0100
0010
1000
0000
0001
0000
,  // measure 37
1000
0000
0001
0000
0100
0000
1000
0010
0001
0000
0100
0000
0010
0000
0100
0001
,  // measure 38
1000
0000
0010
0000
0100
0000
0010
1000
0001
0000
0100
0000
0010
0000
1000
0000
,  // measure 39
0002
0000
0000
1000
,  // measure 40
0000
0100
0100
0010
,  // measure 41
0010
0000
0000
0100
0000
0000
0100
0000
0000
1000
0000
1000
,  // measure 42
2003
0000
0000
0010
,  // measure 43
0000
0000
0100
0000
,  // measure 44
0000
0001
0001
0000
0001
0001
3001
0000
,  // measure 45
0010
0101
0110
1000
,  // measure 46
0011
1001
0001
1100
,  // measure 47
1001
0000
0100
0010
0000
0000
1000
0000
0000
1000
0000
0010
,  // measure 48
0100
0000
0000
0001
0000
0000
0100
0000
0001
1000
0000
0000
,  // measure 49
1000
0000
0010
0100
0000
0000
0001
0000
0100
0010
0000
0000
,  // measure 50
0010
0000
1000
0001
0000
0000
0010
0000
0001
1000
0000
0000
,  // measure 51
0001
0010
0100
1000
0010
0100
0001
1000
,  // measure 52
0010
1000
0010
1000
0100
0001
0100
0001
0010
0100
0010
0100
1000
0001
1000
0001
,  // measure 53
0020
0000
0000
0000
,  // measure 54
1000
0000
0000
0000
0000
0000
0100
0100
,  // measure 55
0230
0000
0000
0000
,  // measure 56
0001
0000
0000
0000
0000
0000
0010
0010
,  // measure 57
0320
0000
0000
0000
,  // measure 58
1000
0000
0000
0000
0000
0000
0001
0001
,  // measure 59
0032
0000
0000
0000
,  // measure 60
0010
0000
0000
0000
0100
0000
1000
1003
,  // measure 61
2000
0000
0000
0000
,  // measure 62
0100
0000
0000
0000
0000
0000
0010
0010
,  // measure 63
3020
0000
0000
0000
,  // measure 64
0100
0000
0000
0000
0000
0000
0001
0001
,  // measure 65
0032
0000
0000
0000
,  // measure 66
1000
0000
0000
0000
0000
0000
1000
1000
,  // measure 67
2003
0000
0010
0000
,  // measure 68
0200
0000
3300
0000
,  // measure 69
0010
1000
0100
1000
0010
0100
0010
0100
0001
1000
0010
0001
,  // measure 70
0100
1000
0010
1000
0001
1000
0010
0100
0001
1000
0010
0100
,  // measure 71
0001
0100
0010
1000
0001
1000
0100
0010
0100
0001
0100
0010
,  // measure 72
1000
0010
1000
0010
0100
0001
0100
0010
0001
0100
1000
0010
,  // measure 73
0001
0010
1000
0100
0010
1000
0001
0100
,  // measure 74
0010
0100
1000
0010
0110
0000
0001
0100
,  // measure 75
0010
1000
0100
0010
1000
0001
0100
0010
,  // measure 76
1000
0000
0000
0100
0000
0000
0001
0000
0000
0100
0000
0000
0010
0000
1000
0000
0001
0000
0100
0000
0010
0000
1000
0000
,  // measure 77
0001
1000
0010
0100
0010
1000
0010
1000
0001
0100
0010
0100
,  // measure 78
0001
1000
0010
0100
0010
1000
0010
0100
0001
0100
0001
0010
,  // measure 79
0100
1000
0010
1000
0010
0100
0001
1000
0010
0100
0001
1000
,  // measure 80
0010
0000
0000
0000
0100
0000
0000
0000
0010
0000
0000
0000
2000
0000
0000
0000
0000
0000
0000
0000
0000
0000
0000
0000
0000
0000
0000
0000
0000
0000
0000
0000
0000
0000
0000
0000
3001
0000
0000
0000
0000
0000
0000
0000
0000
0100
0000
0000
,  // measure 81
0000
0010
1001
0000
0001
0000
0011
0000
,  // measure 82
0010
0110
0100
1100
,  // measure 83
1000
2002
0000
0000
,  // measure 84
3003
0220
0330
2002
,  // measure 85
3003
0000
0000
0000
0010
0100
0010
0100
0010
0100
0010
0100
0010
0100
0010
0100
,  // measure 86
0010
0100
0010
0100
0001
1000
0001
1000
0001
1000
0001
1000
0001
1000
0001
1000
,  // measure 87
0001
1000
0001
1000
0010
1000
0010
1000
0010
1000
0010
1000
0010
1000
0010
1000
,  // measure 88
0010
1000
0010
1000
0001
0100
0001
0100
0001
0100
0001
0100
0001
0100
0001
0100
,  // measure 89
0001
0100
0001
0100
0010
0100
0010
0100
0010
0100
0010
0100
0010
0100
0010
0100
,  // measure 90
0010
0100
0010
0100
0010
1000
0010
1000
0010
1000
0010
1000
0010
1000
0010
1000
,  // measure 91
0010
1000
0010
1000
0100
0001
0100
0001
0100
0001
0100
0001
0100
0001
0100
0001
,  // measure 92
0100
0001
0100
0001
1000
0001
1000
0001
1000
0001
1000
0001
1000
0001
1000
0001
,  // measure 93
1000
0001
1000
0001
0100
0010
0100
0010
0100
0010
0100
0010
1000
0001
1000
0001
,  // measure 94
1000
0001
1000
0001
0010
1000
0010
1000
0010
1000
0010
1000
0100
0001
0100
0001
,  // measure 95
0100
0001
0100
0001
0010
1000
0010
1000
0010
1000
0010
1000
0100
1000
0100
1000
,  // measure 96
0100
1000
0100
1000
0010
0001
0010
0001
0010
0001
0010
0001
0100
0001
0100
0001
,  // measure 97
0100
0001
0100
0001
1000
0001
1000
0001
1000
0001
1000
0001
0100
0010
0100
0010
,  // measure 98
0100
0010
0100
0010
0001
0100
0001
0100
0001
0100
0001
0100
1000
0010
1000
0010
,  // measure 99
1000
0010
1000
0010
1000
0100
0001
0100
1000
0100
0001
0100
1000
0010
0001
0010
,  // measure 100
1000
0010
0001
0010
1000
0100
0010
0001
1000
0010
0100
0001
1000
0100
0010
0001
,  // measure 101
1000
0010
0100
0001
2000
0000
0000
0000
0000
0000
0000
0000
0000
0000
0000
0000
,  // measure 102
3001
0100
0020
0000
0000
0000
0230
0000
,  // measure 103
0000
0302
0000
1003
,  // measure 104
0001
0000
0100
0000
0020
0000
0000
0000
0000
0000
0000
0030
0200
0000
0000
0000
,  // measure 105
0000
0302
0000
1003
,  // measure 106
0100
0010
0001
0010
,  // measure 107
0100
2000
0000
0000
,  // measure 108
0000
3002
0000
0203
,  // measure 109
0000
0000
0000
0301
0010
0001
0100
0000
0000
1000
0010
1000
,  // measure 110
0100
0000
0000
0001
0100
0010
1010
0000
0000
1000
0010
0100
,  // measure 111
0011
0000
0000
0001
1000
0010
0110
0000
0000
0110
1000
0001
,  // measure 112
0010
0000
0000
0001
0100
0001
0011
0000
0000
1100
0100
0010
,  // measure 113
1000
0000
0000
0010
1000
0010
0100
0001
1000
0010
0100
0010
,  // measure 114
1000
0001
0100
0010
1000
0010
1000
0100
0010
0100
0001
0100
,  // measure 115
0010
0000
0000
0000
1000
0000
0000
0000
0010
0000
0000
0000
1000
0000
0000
0010
0000
0000
1000
0000
0000
0010
0000
0000
1000
0000
0000
0010
0000
0000
1000
0000
0000
0010
0000
0000
0001
0000
0000
0100
0000
0000
0001
0000
0000
0100
0000
0000
,  // measure 116
0001
0100
0001
0100
1000
0001
1000
0001
1000
0001
1000
0001
0100
0010
0100
0010
,  // measure 117
0100
0010
0100
0010
1000
0010
0100
0010
1000
0100
0010
0001
0010
0100
0010
0001
,  // measure 118
0100
0010
1000
0100
0010
0001
0010
0100
1000
0100
0001
0010
0100
0010
1000
0001
,  // measure 119
0010
0100
0001
1000
0200
0000
0000
0000
0000
0000
0000
0000
0000
0000
0000
0000
,  // measure 120
0000
0300
0000
0000
;
