#TITLE:Harmonia;
#SUBTITLE:;
#ARTIST:ATSUMI UEDA;
#TITLETRANSLIT:;
#SUBTITLETRANSLIT:;
#ARTISTTRANSLIT:;
#GENRE:pop'n music;
#CREDIT:;
#BANNER:;
#BACKGROUND:;
#LYRICSPATH:;
#CDTITLE:;
#MUSIC:Harmonia.ogg;
#OFFSET:0.160000;
#SAMPLESTART:47.280018;
#SAMPLELENGTH:15.000000;
#SELECTABLE:YES;
#DISPLAYBPM:177.000000;
#BPMS:0.000000=177.000000
;
#STOPS:
;
#BGCHANGES:;
#KEYSOUNDS:;
#ATTACKS:;

//---------------dance-single - ----------------
#NOTES:
     dance-single:
     :
     Beginner:
     2:
     0.102639,0.104257,0.020825,0.000000,0.000000,67.000000,2.000000,0.000000,0.000000,0.000000,0.000000,0.102639,0.104257,0.020825,0.000000,0.000000,67.000000,2.000000,0.000000,0.000000,0.000000,0.000000:
0000
0000
0000
0000
,
0000
0000
0000
0000
,
0000
0000
0000
0000
,
1000
0000
0000
0000
,
0001
0000
0000
0000
,
1000
0000
0000
0000
,
0010
0000
0000
0000
,
0001
0000
0000
0000
,
1000
0000
0000
0000
,
0001
0000
0000
0000
,
0100
0000
0000
0000
,
1000
0000
0000
0000
,
0010
0000
0000
0000
,
0001
0000
0000
0000
,
0010
0000
0000
0000
,
1000
0000
0000
0000
,
0010
0000
0000
0000
,
0001
0000
0000
0000
,
0100
0000
0000
0000
,
0001
0000
0000
0000
,
0010
0000
0000
0000
,
1000
0000
0000
0000
,
0100
0000
0000
0000
,
1000
0000
0000
0000
,
0010
0000
0000
0000
,
0001
0000
1000
0000
,
0001
0000
0000
0000
,
0010
0000
0000
0000
,
0100
0000
0000
0000
,
0010
0000
0000
0000
,
0100
0000
0000
0000
,
1000
0000
0000
0000
,
0001
0000
0000
0000
,
1000
0000
0000
0000
,
0100
0000
0000
0000
,
0001
0000
0000
0000
,
1000
0000
0000
0000
,
0001
0000
0000
0000
,
1000
0000
0000
0000
,
0010
0000
0000
0000
,
0100
0000
0000
0000
,
0010
0000
0000
0000
,
0100
0000
0000
0000
,
1000
0000
0000
0000
,
0001
0000
0000
0000
,
1000
0000
0000
0000
,
0100
0000
0000
0000
,
1000
0000
0000
0000
,
0001
0000
0000
0000
,
1000
0000
0000
0000
,
0010
0000
0000
0000
,
0001
0000
0000
0000
,
1000
0000
0000
0000
,
1000
0000
0000
0000
,
0001
0000
0000
0000
,
0001
0000
0000
0000
,
0010
0000
0000
0000
,
0100
0000
0000
0000
,
0010
0000
0000
0000
,
0100
0000
0000
0000
,
1000
0000
0000
0000
,
1001
0000
0000
0000
,
0001
0000
0000
0000
,
1001
0000
0000
0000
,
0010
0000
0000
0100
,
0000
0000
0010
0000
,
0100
0000
0000
0010
;

//---------------dance-single - ----------------
#NOTES:
     dance-single:
     :
     Easy:
     4:
     0.208253,0.245543,0.197840,0.000000,0.000000,121.000000,19.000000,0.000000,0.000000,0.000000,0.000000,0.208253,0.245543,0.197840,0.000000,0.000000,121.000000,19.000000,0.000000,0.000000,0.000000,0.000000:
0000
0000
0000
0000
,
0000
0000
0000
0000
,
0000
0000
0000
0000
,
1000
0000
0001
0000
,
0010
0000
0100
0000
,
1000
0000
0001
0000
,
1100
0000
0000
0000
,
0010
0000
1000
0000
,
0001
0000
0100
0000
,
0010
0000
1000
0000
,
0011
0000
0000
0000
,
1001
0000
0010
0000
,
1001
0000
0010
0000
,
1001
0000
0100
0000
,
1001
0000
0100
0000
,
1000
0000
0000
0010
0000
0000
0001
0000
,
0000
0010
0000
0000
0000
0000
0000
0000
,
1000
0000
0000
0000
,
0001
0000
0000
0000
,
0100
0000
0000
0000
,
0010
0000
1000
0000
,
0001
0000
0000
0000
,
1000
0000
0000
0000
,
0100
0000
0000
0000
,
0001
0000
0010
0000
,
1000
0000
0000
0000
0000
0010
0000
0000
,
0000
0000
0000
0000
,
1001
0000
0000
0000
,
0010
0000
0100
0000
,
0001
0000
0000
0000
,
0001
0000
0100
0000
,
0010
0000
1000
0000
,
1100
0000
0000
0000
,
1000
0000
0010
0000
,
0011
0000
0000
0000
,
0001
0100
1000
0000
,
0010
0000
0010
0000
,
1000
0100
0001
0000
,
0010
0000
0010
0000
,
1000
0001
0100
0000
,
0001
0000
0001
0000
,
1100
0000
0000
0000
,
1001
0000
0000
0000
,
0011
0000
1000
0000
,
0010
0000
0100
0001
,
1000
0000
0010
0000
,
1000
0000
0100
0001
,
1000
0000
0010
0000
,
0001
0000
1000
0010
,
1100
0000
1001
0000
,
0001
0000
0100
0000
,
0011
0000
0000
0000
,
1000
0000
1000
0000
,
0010
0000
0100
0000
,
0001
0000
0001
0000
,
0100
0000
0010
0000
,
0001
0000
1000
0000
,
0100
0000
1000
0000
,
0001
0000
0010
0000
,
0100
0000
0000
0000
,
1100
0000
1000
0000
,
0011
0000
1000
0000
,
1100
0000
0001
0000
,
0011
0000
0001
0000
,
1000
0000
0000
0100
0000
0000
0001
0000
,
0000
0100
0000
0000
0010
0000
0010
0000
,
1000
0000
0000
0100
0000
0000
0001
0000
,
0000
0100
0000
1000
0000
0000
0000
0000
;

//---------------dance-single - ----------------
#NOTES:
     dance-single:
     :
     Medium:
     8:
     0.416506,0.420932,0.229078,0.020825,0.000000,256.000000,22.000000,2.000000,0.000000,0.000000,0.000000,0.416506,0.420932,0.229078,0.020825,0.000000,256.000000,22.000000,2.000000,0.000000,0.000000,0.000000:
0000
0000
0000
0000
,
0000
0000
0000
0000
,
0000
0000
0000
0000
,
1000
0010
0100
0001
,
0010
0000
0100
0000
1000
0001
1000
0000
,
0010
1000
0100
0010
,
1000
0001
0010
0100
,
0001
0001
0100
0010
,
1000
0000
1000
0000
0010
0100
0010
0000
,
1000
0001
0010
1000
,
1001
0000
1000
0100
,
0010
0000
0000
0000
1000
0000
0000
0010
,
0000
0000
0001
0000
,
0100
0000
0000
0000
0001
0000
0000
0100
,
0000
0000
1000
0000
0000
0010
0000
0000
,
0100
0000
0000
0001
0000
0000
0100
0000
,
0000
1100
0000
0000
1001
0000
0000
0000
,
0010
1000
0100
0010
,
0100
0001
0010
0000
,
0001
0100
0010
1000
,
0100
0010
1000
0000
,
0001
0000
1000
0000
0100
1000
0100
0000
,
0010
1000
0100
0001
,
0010
0000
1000
0000
0001
0010
0001
0000
,
1000
0010
0100
0000
,
0001
0010
0100
0000
0001
0100
0010
0000
,
1000
0100
0010
0000
1000
0001
0100
0000
,
0001
0011
1000
0000
,
1000
1100
1000
0001
,
0010
1000
1001
0000
,
0010
0100
1001
0010
,
0100
0001
0001
1000
,
0100
0100
0010
1000
,
0100
0010
1000
0010
,
0001
0100
0010
0110
,
0001
0010
0100
0000
0001
1000
0010
0000
,
1000
1001
0010
0100
,
0001
1000
0100
0000
0001
0010
1000
0000
,
0001
1000
0100
1100
,
0010
1000
0100
0000
0001
0100
0010
0000
,
0001
0010
1000
0101
,
0010
1000
0100
0000
0010
1000
0001
0000
,
0010
0100
0001
1100
,
0010
1000
0100
0000
0010
1000
0100
0000
,
0001
0100
0010
0000
0001
0100
0010
0000
,
0010
1000
0001
0000
1000
0001
0100
0000
,
0010
1000
0001
0000
0010
0100
1000
0000
,
0001
1100
1000
0010
,
1000
0011
0001
1000
,
0001
0010
1000
0000
1000
0100
0001
0000
,
0001
1000
0010
1000
,
0001
0000
1100
1000
,
1001
0010
1000
0100
,
0010
0100
0001
0010
,
1000
0001
0010
1000
,
0001
0001
1000
1000
,
0010
1000
0100
0010
,
0100
0001
0010
0100
,
0002
0000
0103
0010
,
2000
0000
3100
0010
,
1000
0000
0000
0000
0010
0000
0000
1000
,
0000
0010
1000
0000
,
0001
0000
0000
0000
0100
0000
0000
0001
,
0000
0100
0001
0000
,
1000
0000
0000
1100
0000
0000
1000
0000
,
0000
1001
0000
0000
0001
0000
0010
0000
,
0011
0000
0000
1000
0000
0000
1010
0000
,
0000
1001
0000
0110
0000
0000
0000
0000
;

//---------------dance-single - ----------------
#NOTES:
     dance-single:
     :
     Hard:
     11:
     0.550383,0.561242,0.187428,0.000000,0.020825,352.000000,18.000000,0.000000,0.000000,0.000000,0.000000,0.550383,0.561242,0.187428,0.000000,0.020825,352.000000,18.000000,0.000000,0.000000,0.000000,0.000000:
0000
0000
0000
0000
,
0000
0000
0000
0000
,
0000
0000
0000
0000
,
1000
0100
0001
0000
1000
0000
0010
0000
,
1000
0001
0010
0000
1000
0000
0010
0000
,
0001
0100
1000
0000
0010
0000
1000
0000
,
0001
0010
0100
0000
0001
1000
0100
0000
,
0010
1000
0100
0000
0001
0000
0100
0000
,
0001
0100
0010
0000
1000
0000
0100
0000
,
0001
1000
0100
0000
0001
1000
0010
0000
,
1000
0100
0001
0010
,
1000
0000
0000
0000
0000
0000
0000
0000
1000
0000
0000
0010
0000
0000
0100
0000
,
0001
0010
1000
0000
,
0001
0000
0000
0000
0000
0000
0000
0000
0100
0000
0000
0001
0000
0000
0010
0000
,
1000
0001
0100
1000
,
1100
0000
0010
1000
0000
0100
0010
0000
,
0001
0010
0100
1000
0000
0000
0000
0000
,
0001
1000
0010
0000
1000
0000
1001
0000
,
0010
1000
0100
0000
0001
0000
1001
0000
,
0010
1000
0100
0001
0010
1000
0001
0000
,
0010
1000
0100
0001
0010
0100
1000
0000
,
0001
1000
0100
0000
1000
0000
1001
0000
,
0010
0100
0001
0000
1000
0000
1001
0000
,
0010
1000
0100
0000
0010
0100
0001
0000
,
0001
0010
0100
1000
0001
0010
0000
0100
,
0000
0000
0100
0001
0000
1000
0000
0000
,
1000
0100
0010
0100
0000
0001
0010
0100
,
0010
1000
0100
0000
0010
0100
0001
0010
,
0000
0001
1000
0000
0010
1000
0100
0000
,
0010
1000
0001
0000
0001
0010
0100
1000
,
0000
0010
1000
0000
1000
0100
0010
0000
,
0001
0100
1000
0100
0000
0001
0100
0000
,
1000
0100
0001
0100
0000
1000
0010
0000
,
1001
0000
0000
0010
0000
0000
1001
0000
,
0000
0100
0000
0000
1000
0000
1000
0000
,
0010
1000
0100
0000
0010
0100
0001
0000
,
0001
0100
0001
0000
0010
0000
1100
0000
,
0001
1000
0010
0000
1000
0001
0010
0000
,
0100
1000
0001
0000
0010
0000
0011
0000
,
1000
0001
0100
0000
0001
0100
0010
0000
,
0010
1000
0100
0000
0010
0000
1001
0000
,
1000
0000
0000
1100
0000
0010
0000
1001
,
0000
0000
0000
0000
0001
1000
0001
0000
,
0010
1000
0100
0010
0100
0001
0010
0000
,
0001
0010
0100
1000
0010
1000
0100
0000
,
1000
0000
1100
0000
1000
0001
0100
0000
,
0010
0000
0001
0010
0001
0010
0100
0000
,
1000
0000
0010
1000
0100
0001
0010
0000
,
0001
0000
0010
0000
1000
0100
0001
0000
,
0010
0000
0011
0000
0001
0010
0100
0000
,
0001
0000
0010
0000
1000
0100
1000
0100
,
0010
0100
0010
0100
,
0001
0000
0010
0000
1000
0000
1100
1000
,
0100
0010
0100
0000
0001
0000
0010
0000
,
1000
0000
0100
0000
0010
0000
0011
0001
,
0010
0100
1000
0000
0010
1000
0100
0000
,
0010
0100
0010
0100
0001
1000
0001
1000
,
0001
0010
0100
1000
0001
0010
0100
1000
,
0001
1000
0001
1000
0010
0100
0010
0100
,
1000
0100
0010
0001
1000
0100
0010
0001
,
1000
0000
0000
0000
0100
0000
0000
0000
1000
0000
0000
0010
0000
0000
0100
0000
,
0001
0010
1100
0001
,
1000
0000
0000
0000
0010
0000
0000
0000
0001
0000
0000
0010
0000
0000
0100
0000
,
1000
0001
0011
1000
,
0001
0010
0100
1000
0001
0010
0100
1000
,
0010
1000
0100
0010
0000
0001
0000
0010
,
1000
0010
0010
0100
0001
0001
0010
1000
,
1000
0010
0100
0100
0000
0000
0000
0000
;

//---------------dance-single - ----------------
#NOTES:
     dance-single:
     :
     Challenge:
     14:
     0.702110,0.631397,0.249904,0.020825,0.109333,446.000000,24.000000,2.000000,0.000000,0.000000,0.000000,0.702110,0.631397,0.249904,0.020825,0.109333,446.000000,24.000000,2.000000,0.000000,0.000000,0.000000:
// measure 0
0000
0000
0000
0000
,  // measure 1
0000
0000
0000
0000
,  // measure 2
0000
0000
0000
0000
,  // measure 3
1000
0100
0010
0100
0001
0010
0100
1000
,  // measure 4
0010
1000
0100
0010
0100
0001
0011
0000
,  // measure 5
0001
0010
0100
1000
0010
0100
0001
0010
,  // measure 6
0100
1000
0001
0010
0100
1000
1100
0000
,  // measure 7
1000
0100
0010
1000
0001
0010
1000
0100
,  // measure 8
0001
0000
0010
0000
0100
0000
1000
0000
0001
0000
0100
0000
0010
0100
0010
0000
,  // measure 9
0001
0000
0000
0110
0000
1100
0000
0100
,  // measure 10
0000
0010
0100
0000
0001
0010
0100
0000
,  // measure 11
0010
0000
1000
0000
0100
0000
0010
0000
0100
0000
0000
0010
0100
0000
0001
0000
,  // measure 12
0010
1000
0100
0000
0001
1000
0100
0000
,  // measure 13
0010
0000
0100
0000
0001
0000
0010
0000
0100
0000
0000
1000
0001
0000
1000
0000
,  // measure 14
0010
0100
0001
0000
1000
0010
0100
0000
,  // measure 15
0010
1000
0100
0010
0100
0001
0010
0100
,  // measure 16
1000
0010
0100
0220
0000
0000
0330
0000
,  // measure 17
0001
0000
1000
0000
1100
1000
0100
0010
,  // measure 18
0000
0010
1000
0100
0000
0010
0100
0001
,  // measure 19
0010
0100
1000
0000
0010
0000
1000
0000
,  // measure 20
1000
0100
0010
0100
0000
0011
0000
0000
,  // measure 21
0001
0010
0100
1000
0010
0000
1000
1100
,  // measure 22
0000
1000
0100
0010
0000
0010
0100
0001
,  // measure 23
0010
0100
1000
0010
1000
0100
0010
0100
,  // measure 24
0001
0010
0100
1000
0010
1000
0000
1100
,  // measure 25
0000
1000
0100
0010
0000
0011
0000
0001
,  // measure 26
0010
0100
1000
0001
0010
0100
1000
0100
,  // measure 27
0010
0000
1100
0000
0010
1000
0100
0000
,  // measure 28
0010
0000
0011
0000
0001
0100
0010
0000
,  // measure 29
0001
0010
0100
0000
0100
1000
0100
0000
,  // measure 30
0010
0100
1000
0100
0010
0000
0001
0000
,  // measure 31
0010
0000
0100
1000
0000
1000
0100
0000
,  // measure 32
0010
1000
0100
0010
0000
0001
0010
0000
,  // measure 33
0100
0000
0010
0100
0010
0000
0100
0000
0001
1000
0001
0000
1000
0000
0010
0100
,  // measure 34
0010
0000
0100
0000
0001
1000
0001
0000
0010
0000
0000
0000
1100
0000
0000
0000
,  // measure 35
0010
1000
0100
0000
0010
0100
0001
0000
,  // measure 36
0001
0010
0100
1000
0010
1000
0100
0000
,  // measure 37
0010
1000
0100
0000
0010
0100
0001
0000
,  // measure 38
0001
0010
0100
0000
1000
0001
1100
0000
,  // measure 39
0001
0010
1000
0000
0010
1000
0100
0000
,  // measure 40
0010
0000
1000
0000
0100
0000
0010
0000
0100
0000
0001
0000
0100
0010
0100
0000
,  // measure 41
0001
0000
0010
1000
0000
1100
0000
1000
,  // measure 42
0000
0001
0010
0000
1000
0100
0010
0000
,  // measure 43
0001
0010
0100
1000
0010
1000
0100
0010
,  // measure 44
0001
0010
0100
1000
0010
1000
0010
1000
,  // measure 45
0100
0001
0010
0100
1000
0010
0100
0001
,  // measure 46
0010
1000
0100
0010
0001
0100
0001
0100
,  // measure 47
0010
0001
0100
1000
0010
1000
0100
0010
,  // measure 48
0100
0000
0001
0000
0010
0000
1000
0000
0100
0000
0010
0000
1000
0010
0100
0000
,  // measure 49
0001
0010
0000
1001
0000
0011
0000
1100
,  // measure 50
0000
0010
1000
0100
0000
0010
0100
0001
,  // measure 51
0010
0000
0100
0000
1000
0000
0000
0000
1100
0000
0000
1000
0000
0000
0100
0000
,  // measure 52
0010
0100
0001
0010
0100
1000
0010
1000
,  // measure 53
0100
0010
0001
0010
0100
1000
0010
1000
,  // measure 54
0100
0001
0010
0100
0001
0010
0100
1000
,  // measure 55
0010
1000
0100
0010
0100
0001
0010
1000
,  // measure 56
0100
0000
0010
0100
0010
0000
0001
0000
1000
0000
0010
0000
0100
0000
0010
0000
,  // measure 57
0001
0000
1000
0001
1000
0000
0010
0000
1000
0000
0100
0000
0010
0000
0100
0000
,  // measure 58
0001
0000
0010
0100
0010
0000
0001
0000
0000
0000
0010
0000
0000
0000
1100
0000
,  // measure 59
0000
0010
1000
0000
0010
1000
0100
0000
,  // measure 60
0010
0000
1000
0000
0100
0000
0010
0000
0100
0000
0010
0100
0000
0010
0100
0000
,  // measure 61
0001
0010
1000
0100
0010
1000
0001
0000
,  // measure 62
0010
0000
1000
0000
0100
0000
0010
0000
0001
0000
1000
0001
0000
1000
0001
0000
,  // measure 63
0010
1000
0100
0010
0001
0010
1000
0000
,  // measure 64
0010
0000
1000
1100
0000
0100
0110
0000
,  // measure 65
0010
0011
0000
0001
0000
1001
0000
0001
,  // measure 66
0010
0000
0100
0010
0100
0000
0001
0000
1000
0001
1000
0000
0010
0000
0100
0010
,  // measure 67
0100
0000
0001
0000
0010
1000
0100
0000
0000
0000
0000
0000
0000
0000
0000
0000
;
