#TITLE:ハードベース・フェスタ;
#SUBTITLE:;
#ARTIST:かめりあ feat. ななひら;
#TITLETRANSLIT:Hardbass Festa;
#SUBTITLETRANSLIT:;
#ARTISTTRANSLIT:Camellia feat. nanahira;
#GENRE:beatmania IIDX;
#CREDIT:Nanolite;
#BANNER:;
#BACKGROUND:;
#LYRICSPATH:;
#CDTITLE:;
#MUSIC:Hardbass Festa.ogg;
#OFFSET:0.870000;
#SAMPLESTART:59.843204;
#SAMPLELENGTH:15.000000;
#SELECTABLE:YES;
#DISPLAYBPM:158.000000;
#BPMS:0.000000=157.999985
;
#STOPS:
;
#BGCHANGES:2.750=Hardbass Festa.avi=1.000=0=0=0=StretchNoLoop====,
99999=-nosongbg-=1.000=0=0=0 // don't automatically add -songbackground-
;
#KEYSOUNDS:;
#ATTACKS:;

//---------------dance-single - ----------------
#NOTES:
     dance-single:
     :
     Beginner:
     4:
     0.171552,0.263203,0.263203,0.361905,0.000000,146.000000,114.000000,32.000000,44.000000,0.000000,0.000000,0.171552,0.263203,0.263203,0.361905,0.000000,146.000000,114.000000,32.000000,44.000000,0.000000,0.000000:
0000
0000
0000
0000
,
0000
0000
0000
0000
,
0000
0000
0000
0000
,
0000
0000
0000
0000
,
0000
0000
0000
0000
,
0000
0000
0000
0000
,
0001
0000
0001
0000
,
1000
0000
1000
0000
,
0100
0000
0100
0000
,
0010
0000
0010
0000
,
0200
0000
0000
0000
,
0320
0000
0000
0000
,
0230
0000
0300
0000
,
0020
0000
0030
0000
,
1001
0000
1001
0000
,
2002
0000
3003
0000
,
0100
0000
0100
0000
,
1000
0000
1000
0000
,
0100
0000
0100
0000
,
0001
0000
0001
0000
,
0010
0000
0010
0000
,
1000
0000
1000
0000
,
0010
0000
0010
0000
,
0001
0000
0001
0000
,
1000
0000
0100
0000
,
1000
0000
1000
0000
,
0100
0000
0001
0000
,
0100
0000
0100
0000
,
0001
0000
0010
0000
,
0001
0000
0001
0000
,
0010
0000
1000
0000
,
0010
0000
0010
0000
,
0220
0000
0330
0000
,
0001
0000
1000
0000
,
2002
0000
3003
0000
,
0100
0000
0010
0000
,
0220
0000
0330
0000
,
0220
0000
0330
0000
,
2002
0000
3003
0000
,
2002
0000
3003
0000
,
1001
0000
1001
0000
,
0220
0000
0330
0000
,
1000
0000
1000
0000
,
0010
0000
0100
0000
,
0001
0000
0001
0000
,
0100
0000
0010
0000
,
1000
0000
0100
0000
,
0010
0000
0100
0000
,
0001
0000
0010
0000
,
0100
0000
0010
0000
,
0220
0000
0330
0000
,
0220
0000
0330
0000
,
2002
0000
3003
0000
,
2002
0000
3003
0000
,
0220
0000
0330
0000
,
0220
0000
0330
0000
,
2002
0000
3003
0000
,
2002
0000
3003
0000
,
0220
0000
0000
0000
,
0330
0000
0000
0000
,
2002
0000
0000
0000
,
3003
0000
0000
0000
,
0110
0000
0010
0000
,
0100
0000
0010
0000
,
1001
0000
0001
0000
,
1000
0000
0001
0000
,
1001
0000
1001
0000
,
0220
0000
0330
0000
,
1000
0000
1000
0000
,
0010
0000
0010
0000
,
0001
0000
0001
0000
,
0100
0000
0100
0000
,
1001
0000
0010
0000
,
1001
0000
0100
0000
,
0110
0000
0001
0000
,
0110
0000
1000
0000
,
2002
0000
0000
0000
,
0000
0000
0000
0000
,
0000
0000
0000
0000
,
0000
0000
0000
0000
,
3003
0000
0000
0000
;

//---------------dance-single - ----------------
#NOTES:
     dance-single:
     :
     Easy:
     7:
     0.383055,0.526407,0.411255,0.197403,0.000000,326.000000,276.000000,50.000000,24.000000,0.000000,0.000000,0.383055,0.526407,0.411255,0.197403,0.000000,326.000000,276.000000,50.000000,24.000000,0.000000,0.000000:
0000
0000
0000
0000
,
0000
0000
0000
0000
,
0000
0000
0000
0000
,
0000
0000
0000
0000
,
0000
0000
0000
0000
,
0000
0000
0000
0000
,
0001
0001
0100
0010
,
1000
1000
0010
0100
,
1000
0100
0010
0001
,
0110
0110
2002
3003
,
0001
0100
1000
1000
,
0100
0010
0001
0001
,
0010
0100
0010
0100
,
0001
1000
0001
1000
,
2002
3003
2002
3003
,
0110
0110
1001
1001
,
1000
0100
0010
0010
,
0001
0100
0010
0010
,
1000
0100
0001
0001
,
0010
0100
1000
1000
,
0100
1000
0010
0010
,
0100
0001
0010
0010
,
0100
0001
1000
1000
,
0100
1000
0001
0001
,
0110
1001
0100
1000
,
0010
0010
0100
0000
,
1001
0100
0010
1000
,
0100
0100
0010
0000
,
1001
0010
0100
1000
,
0001
0001
1000
1000
,
0110
1000
0100
0010
,
0001
0001
2002
3003
,
0100
1000
0100
1000
,
0200
0010
0020
0330
,
0001
0110
0001
0010
,
0200
0010
0020
0330
,
0001
0100
1000
1000
,
0100
0010
0001
0001
,
1000
0001
1000
0001
,
0100
0010
0100
0010
,
0110
0000
0220
0330
,
1001
1001
0110
0110
,
1000
0100
0010
0011
,
0001
0100
0010
0001
,
0100
0010
1000
1100
,
1000
0010
0100
1001
,
0010
1000
0100
0011
,
0001
0100
0010
1000
,
0100
0001
0010
1100
,
1000
0010
0100
1001
,
0010
0010
0010
0010
,
0100
0010
0100
0110
,
1000
0100
0010
0001
,
0100
0010
0001
1001
,
0100
0100
0100
0100
,
0010
0100
0010
0110
,
0001
1000
0100
0010
,
0001
0001
2002
3003
,
0100
1000
0010
0100
,
0010
0010
0002
0003
,
0010
0100
0001
0010
,
0100
0100
2000
3000
,
0100
1000
0010
0110
,
0001
0100
0010
1001
,
0100
1100
0001
0101
,
0011
1010
1100
0101
,
0220
0330
2002
3003
,
1100
0011
0110
1001
,
0100
0000
1000
0000
0010
0010
0010
0000
,
0100
0000
0001
0000
0100
0100
0100
0000
,
1000
0000
0010
0000
0001
0001
0001
0000
,
0100
0000
0010
0000
1000
1000
1000
1000
,
0001
0000
0100
0010
0100
0000
1001
0000
,
0010
0000
0100
0010
0100
0000
1001
0000
,
0100
0000
0100
0010
0100
0000
1001
0000
,
0100
1000
0010
0000
0010
0100
0001
0000
,
0220
0000
0000
0000
,
0000
0000
0000
0000
,
0000
0000
0000
0000
,
0000
0000
0000
0000
,
0330
0000
0000
0000
;

//---------------dance-single - ----------------
#NOTES:
     dance-single:
     :
     Medium:
     11:
     0.522882,0.592208,0.477056,0.115151,0.041126,445.000000,387.000000,58.000000,14.000000,0.000000,0.000000,0.522882,0.592208,0.477056,0.115151,0.041126,445.000000,387.000000,58.000000,14.000000,0.000000,0.000000:
0000
0000
0000
0000
,
0000
0000
0000
0000
,
0000
0000
0000
0000
,
0000
0000
0000
0000
,
0000
0000
0000
0000
,
0000
0000
0000
0000
,
1000
0000
0100
0000
0010
0100
0010
0000
,
0001
0000
0010
0000
0100
0010
0100
0000
,
1000
0000
0100
0000
0001
1000
0001
0000
,
0010
0100
0010
0000
1000
0000
1001
0000
,
0100
0000
0000
1000
0000
0000
0100
0000
1000
0000
0000
0000
0100
0000
0000
0000
,
0010
0000
0000
0100
0000
0000
0010
0000
0100
0000
0000
0000
0010
0000
0000
0000
,
0001
0010
0001
0000
0100
0010
0100
0000
,
1000
0100
1000
0000
0001
1000
0001
0000
,
2002
3003
0220
0330
,
1100
0011
0101
1010
,
0001
1000
0100
0000
0001
0100
0010
0000
,
1000
0010
0100
0000
0100
1000
0001
0000
,
0100
1000
0010
0000
0100
0001
0010
0000
,
0100
0001
1000
0000
0010
1000
0001
0000
,
0100
1000
0010
0000
0100
0001
0010
0000
,
0100
1000
0001
0000
0001
0010
1000
0000
,
1000
0010
0100
0000
0001
0100
0010
0000
,
1000
0100
0010
0001
1000
0000
1001
0000
,
0100
1000
0010
0000
0001
0100
0010
0000
,
1000
0000
0000
0000
1000
0000
0000
0000
0010
0000
0000
0100
0000
0000
0010
0000
,
0001
0000
0100
0000
0010
1000
0001
0000
,
0010
0000
0000
0000
0010
0000
0000
0000
0100
0000
0000
0001
0000
0000
0100
0000
,
0010
0000
0001
1000
0010
0000
0100
0000
,
0001
0000
0000
0000
0001
0000
0000
0000
0100
0000
0000
0010
0000
0000
0100
0000
,
1000
0100
0010
0000
0001
0010
0100
0000
,
1000
0000
0001
0000
1000
0000
0001
0000
1000
0000
0000
0010
0000
0000
0100
0000
,
1001
0100
1000
0010
,
0001
0001
0100
0010
0000
1000
0010
0000
,
0100
0001
1000
0000
0010
0100
0001
0000
,
1000
1000
0001
0001
1001
0000
0110
0000
,
1000
0000
0000
0100
0000
0000
0010
0000
0001
0000
0000
0000
1001
0000
0000
0000
,
0001
0000
0000
0010
0000
0000
0100
0000
1000
0000
0000
0000
1001
0000
0000
0000
,
1000
0100
0010
0000
0001
0010
0100
0000
,
1000
0010
0100
0001
0100
0010
1000
0000
,
2002
3003
0220
0330
,
1100
0011
0101
1010
,
1000
0100
0010
0001
0010
0000
1001
0000
,
0001
0010
0100
1000
0100
0000
1001
0000
,
1000
0100
0010
0000
0001
0010
0100
0000
,
1000
0010
0100
0001
0010
0000
0011
0000
,
0001
0100
0010
0000
1000
0010
0100
0000
,
0001
0100
0010
1000
0010
0000
1001
0000
,
1000
0010
0100
0000
0001
0100
0010
0000
,
1000
0010
0100
0001
1000
0000
1001
0000
,
1100
1100
0101
0101
,
0011
0011
1010
1010
,
1000
0010
0100
0000
0001
0100
0010
0000
,
0001
0010
0100
1000
0010
0000
1001
0000
,
1100
1100
0101
0101
,
0011
0011
1010
1010
,
1000
0100
0010
0000
0001
0100
0010
0000
,
1000
0010
0100
0001
1000
0000
1001
0000
,
0100
1000
0010
0000
0010
0100
0001
0000
,
0100
0000
0000
0000
1000
0000
0000
0000
0010
0000
0000
0010
0000
0000
0100
0000
,
0001
0100
0010
0000
0010
1000
0100
0000
,
0001
0000
0000
0000
0100
0000
0000
0000
1000
0000
0000
1000
0000
0000
0010
0000
,
0100
1000
0010
0000
0001
0100
0110
0000
,
0010
0001
0100
0000
1000
0010
0110
0000
,
0001
0100
1100
0000
1000
0100
0101
0000
,
0001
0010
0100
1000
0100
0000
1001
0000
,
2200
3300
0202
0303
,
0011
1100
1001
0110
,
0001
0100
1000
0010
0100
0001
0100
0010
,
1000
0100
0010
0001
0010
0100
1000
0000
,
0001
0000
0001
0100
0000
0100
1000
0000
,
1000
0010
0100
0001
0000
0001
0100
0010
,
1001
0000
1000
0100
0010
0100
0001
0100
,
0110
0000
0001
0100
0010
1000
0100
1000
,
1001
0000
0100
1000
0010
0100
0001
0010
,
0011
0000
0001
0100
0010
0100
1000
0100
,
2200
0000
0000
0000
,
0000
0000
0000
0000
,
0000
0000
0000
0000
,
0000
0000
0000
0000
,
3300
0000
0000
0000
;

//---------------dance-single - ----------------
#NOTES:
     dance-single:
     :
     Hard:
     15:
     0.679159,0.855411,0.435931,0.049351,0.304329,578.000000,525.000000,53.000000,6.000000,0.000000,0.000000,0.679159,0.855411,0.435931,0.049351,0.304329,578.000000,525.000000,53.000000,6.000000,0.000000,0.000000:
// measure 0
0000
0000
0000
0000
,  // measure 1
0000
0000
0000
0000
,  // measure 2
0000
0000
0000
0000
,  // measure 3
0000
0000
0000
0000
,  // measure 4
0000
0000
0000
0000
,  // measure 5
0000
0000
0000
0000
,  // measure 6
1000
0100
0010
0000
0001
0100
0010
0000
,  // measure 7
1000
0100
0010
0100
0001
0010
0110
0000
,  // measure 8
0001
0100
0010
0000
1000
0010
0100
0000
,  // measure 9
0001
0100
0010
0100
1000
0100
1100
0000
,  // measure 10
1000
0000
0000
0100
0000
0000
0010
0000
0001
0000
0000
0010
0000
0000
0100
0000
,  // measure 11
0001
0000
0000
0100
0000
0000
1000
0000
0010
0000
0000
0100
0000
0000
0001
0000
,  // measure 12
1000
0001
1000
0001
0100
0010
0100
0010
,  // measure 13
1000
0001
1000
0001
1000
0001
1000
0001
0100
0010
0100
0010
0100
0010
0100
0010
,  // measure 14
0100
0100
0100
0000
0010
0010
0010
0000
,  // measure 15
0101
0011
1010
1001
,  // measure 16
0001
0000
1000
0000
0100
0000
0010
0000
0001
0000
0000
0100
0010
0000
1000
0000
,  // measure 17
0001
0000
0010
0000
1000
0000
0100
0000
0001
0000
0000
0100
1000
0000
0100
0000
,  // measure 18
0010
0000
0100
0000
0001
0000
1000
0000
0010
0000
0000
0001
0010
0000
0100
0000
,  // measure 19
0010
0000
1000
0000
0100
0000
0010
0000
0001
0000
0000
1000
0100
0000
0010
0000
,  // measure 20
0100
0000
0001
0000
0010
0000
1000
0000
0100
0000
0000
0001
1000
0000
0010
0000
,  // measure 21
1000
0000
0100
0000
0010
0000
0001
0000
0100
0000
0000
0010
0100
0000
0001
0000
,  // measure 22
1000
0000
0100
0000
0010
0000
0100
0000
0001
0000
0000
0001
0010
0000
0100
0000
,  // measure 23
0010
1000
0100
0010
0001
0000
1001
0000
,  // measure 24
0100
1000
0010
0100
0001
0100
0010
1000
,  // measure 25
0100
0000
0000
0000
0100
0000
0000
0000
0001
0000
0000
0010
0000
0000
1000
0000
,  // measure 26
0100
0010
0100
0001
0010
1000
0100
0001
,  // measure 27
0010
0000
0000
0000
0010
0000
0000
0000
1000
0000
0000
0100
0000
0000
0001
0000
,  // measure 28
0010
0100
1000
0010
0100
0001
1000
0000
,  // measure 29
0010
0000
0000
0000
0010
0000
0000
0000
0100
0000
0000
1000
0000
0000
0001
0000
,  // measure 30
0010
0100
1000
0010
0100
0001
0010
0000
,  // measure 31
0100
0000
0000
0000
0100
0000
0000
0000
0001
0000
0000
0010
0000
0000
1000
0000
,  // measure 32
0100
0010
0100
0001
1000
0010
0100
0000
,  // measure 33
0001
0010
0100
1000
0000
1000
1100
0000
,  // measure 34
1000
0100
0010
0001
0100
0010
1000
0000
,  // measure 35
0100
0000
0001
0010
0001
0000
1000
0100
1000
0000
0000
0000
1001
0000
0000
0000
,  // measure 36
1000
0000
0000
0100
0000
0000
1100
0000
0001
0000
0000
0100
0000
0000
0101
0000
,  // measure 37
0001
0000
0000
0010
0000
0000
0011
0000
0010
0000
0000
1000
0000
0000
1010
0000
,  // measure 38
0010
1000
0010
1000
0001
0100
0001
0100
,  // measure 39
0010
1000
0010
1000
0010
1000
0010
1000
0001
0100
0001
0100
0001
0100
0001
0100
,  // measure 40
0010
0010
0010
0010
0100
0100
0100
0100
,  // measure 41
1001
1100
1001
0101
,  // measure 42
0010
1000
0100
0010
0001
0010
0100
1000
,  // measure 43
0010
0100
0001
0100
0010
0010
0100
0100
,  // measure 44
0001
1000
0010
1000
0100
0010
0001
0100
,  // measure 45
0010
1000
0100
0010
0001
0001
1000
1000
,  // measure 46
0010
1000
0100
0001
0010
0100
1000
0010
,  // measure 47
1000
0100
0001
0010
0100
0100
1000
1000
,  // measure 48
0010
0100
0001
0100
1000
0100
0010
1000
,  // measure 49
0010
0010
0001
0001
0011
0000
0101
0000
,  // measure 50
1100
0101
0011
1010
,  // measure 51
1100
0101
0011
1010
,  // measure 52
0001
1000
0010
1000
0100
0010
0001
0010
,  // measure 53
1000
0001
0100
0010
1000
0001
1001
0000
,  // measure 54
1100
0101
0011
1010
,  // measure 55
1100
0101
0011
1010
,  // measure 56
0001
0100
0010
1000
0100
0010
0001
0010
,  // measure 57
0000
0010
0100
1000
1001
0000
1100
0000
,  // measure 58
0001
0000
0100
0001
0000
0000
0001
0000
0100
0000
0010
0100
0000
0000
0010
0000
,  // measure 59
1000
0000
0000
0000
1100
0000
0000
0000
0001
0000
0000
0101
0000
0000
0110
0000
,  // measure 60
1000
0000
0010
0100
0000
0000
0001
0000
0100
0000
0010
1000
0000
0000
0001
0000
,  // measure 61
0010
0000
0000
0000
0011
0000
0000
0000
0100
0000
0000
1100
0000
0000
1001
0000
,  // measure 62
0010
0000
1000
0010
0000
0000
0100
0000
0001
0000
1000
0010
0200
0000
0000
0000
,  // measure 63
0301
0000
1000
0100
0000
0000
0010
0000
0100
0000
0001
0100
0020
0000
0000
0000
,  // measure 64
0031
0010
1100
0000
1000
0100
0011
0000
,  // measure 65
0001
1000
0001
1000
0001
1000
0001
1000
0010
0100
0010
0100
0010
0100
0010
0100
,  // measure 66
0010
0000
0020
0000
0100
0000
0100
0030
1000
0000
2000
0000
0001
0000
0001
0000
,  // measure 67
3001
0011
0110
1100
,  // measure 68
1000
0000
0010
0100
0010
0000
0100
0000
0001
0000
1000
0000
0010
0000
0100
0000
,  // measure 69
0001
0000
1000
0001
1000
0000
0010
0000
1000
0000
0100
0000
0010
0000
0001
0000
,  // measure 70
0010
0000
0100
0010
0100
0000
0001
0000
0000
0010
0100
0000
1000
0000
0010
0000
,  // measure 71
0100
0010
0000
1000
0001
0000
0010
0100
0000
0001
1000
0000
0100
0000
0010
0000
,  // measure 72
1001
0000
0000
0000
1100
0000
1000
0100
0010
0000
0001
0000
0100
0000
0010
0000
,  // measure 73
0011
0000
0000
0000
0001
0000
0010
0100
1000
0000
0100
0000
1100
0000
0000
0000
,  // measure 74
0010
0000
0000
0000
1000
0000
0000
0000
0001
0000
0000
0000
0100
0000
0000
0000
0000
0000
0010
0000
0000
0001
0000
0000
1000
0000
0000
0000
0000
0000
0100
0000
0000
0000
0000
0000
0010
0000
0000
0000
0000
0000
0001
0000
0000
0000
0000
0000
,  // measure 75
0010
1000
0100
0000
0100
0001
0010
0000
0100
0010
0100
0010
0001
1000
0010
0100
,  // measure 76
0002
0000
0010
0000
,  // measure 77
0100
0000
0010
0000
,  // measure 78
0100
0000
0010
0000
,  // measure 79
2000
0000
0000
0000
,  // measure 80
3003
0000
0000
0000
;
