#TITLE:はじめまして地球人さん;
#SUBTITLE:;
#ARTIST:ピノキオP;
#TITLETRANSLIT:Hajimemashite Chikyuujin san;
#SUBTITLETRANSLIT:;
#ARTISTTRANSLIT:PinocchioP;
#GENRE:Anime/Game;
#CREDIT:;
#BANNER:;
#BACKGROUND:;
#LYRICSPATH:;
#CDTITLE:;
#MUSIC:Hajimemashite Chikyuujin san.ogg;
#OFFSET:-0.140000;
#SAMPLESTART:53.230984;
#SAMPLELENGTH:15.000000;
#SELECTABLE:YES;
#BPMS:0.000000=175.000000
;
#STOPS:
;
#BGCHANGES:;
#KEYSOUNDS:;
#ATTACKS:;

//---------------dance-single - ----------------
#NOTES:
     dance-single:
     :
     Beginner:
     4:
     0.169715,0.167358,0.066000,0.009429,0.000000,118.000000,7.000000,1.000000,0.000000,0.000000,0.000000,0.169715,0.167358,0.066000,0.009429,0.000000,118.000000,7.000000,1.000000,0.000000,0.000000,0.000000:
0000
0000
0000
0000
,
0000
0000
0000
0000
,
0000
0000
0000
0000
,
0000
0000
0000
0000
,
0000
0000
0000
0000
,
1000
0000
0100
0000
,
1000
0000
0100
0000
,
0001
0000
0010
0000
,
0001
0000
0010
0000
,
0000
1001
0000
0000
,
0000
1001
0000
0000
,
0100
0000
1000
0000
,
0010
0000
0001
0000
,
1000
0000
0000
0000
,
0001
0000
0000
0000
,
1000
0000
0000
0000
,
0001
0001
0001
0000
,
0100
0000
0000
0000
,
0010
0000
0000
0000
,
0100
0000
0000
0000
,
0010
0010
0010
0000
,
0000
1000
0000
0100
,
0000
1000
0000
0100
,
0000
0001
0000
0100
,
0000
0001
0000
0100
,
0000
1000
0000
0010
,
0000
1000
0000
0010
,
0000
0001
0000
0010
,
0000
0001
0000
0010
,
0100
0000
0100
0000
,
0010
0000
0010
0000
,
1000
0000
1000
0000
,
0001
0000
0001
0000
,
1000
0000
0100
0000
,
0001
0000
0010
0000
,
1000
0000
0100
0000
,
0001
0000
0010
0000
,
1000
0000
0000
0000
,
0000
0001
0001
0000
,
0100
0000
1000
0000
,
0010
0000
0100
0000
,
0001
0000
0010
0000
,
1001
0000
0000
0000
,
1000
0000
0100
0000
,
0010
0000
0001
0000
,
0100
0000
0010
0000
,
1000
0000
0110
0000
,
1000
0000
0100
0000
,
0010
0000
0001
0000
,
1000
0000
0100
0000
,
0020
0000
0000
0000
,
0030
0000
0000
0000
,
0100
0000
0001
0000
,
1000
0000
0010
0000
,
1001
0000
0000
0000
,
0100
0000
0000
0000
,
0001
0000
0100
0000
,
0010
0000
1000
0000
,
1001
0000
0000
0000
,
0010
0000
0000
0000
,
1000
0000
0100
0000
,
0010
0000
0100
0000
,
1000
0000
0100
0000
,
0010
0000
0100
0000
,
0001
0000
0010
0000
,
0100
0000
0010
0000
,
0001
0000
0010
0000
,
0100
0000
0010
0000
,
0001
0000
0100
0000
,
1000
0000
0010
0000
,
0001
0000
0100
0000
,
1001
0000
0000
0000
;

//---------------dance-single - ----------------
#NOTES:
     dance-single:
     :
     Easy:
     8:
     0.347512,0.412974,0.207430,0.179144,0.056572,217.000000,22.000000,19.000000,0.000000,0.000000,0.000000,0.347512,0.412974,0.207430,0.179144,0.056572,217.000000,22.000000,19.000000,0.000000,0.000000,0.000000:
0000
0000
0000
0000
,
0000
0000
0000
0000
,
0000
0000
0000
0000
,
0000
0000
0000
0000
,
0000
0000
0000
0000
,
1000
0100
1000
0100
,
0010
0001
0010
0001
,
0100
0010
0100
0010
,
0001
1000
0001
1000
,
0010
0100
0001
1000
,
0010
0100
0001
1000
,
0020
0000
0000
0230
0000
0000
0301
0000
,
1000
0010
0100
0001
,
2000
0000
0000
0000
,
3020
0000
0000
0000
,
0230
0000
0000
0000
0000
0000
0000
0001
,
0000
0001
0000
0002
0000
0000
0303
0000
,
0002
0000
0000
0000
,
0023
0000
0000
0000
,
0230
0000
0000
0000
0000
0000
0000
1000
,
0000
1000
0000
2000
0000
0000
3300
0000
,
0001
0000
0100
0000
0010
1000
0010
0000
,
1000
0100
0010
1000
,
0010
0000
0100
0000
0001
0010
0001
0000
,
0010
0100
0001
1000
,
0010
0000
0001
0000
0100
0010
0100
0000
,
0001
0010
1000
0100
,
0001
0000
0001
0000
0001
0010
0000
0010
,
0000
0010
0100
1000
0000
0000
0000
0000
,
1100
0000
0101
0010
,
1000
0000
0011
0000
,
1010
0001
1000
0010
,
0100
0000
0001
0100
,
0101
1000
0010
0100
,
1010
0000
1000
0010
,
1010
0010
0100
0001
,
0110
0000
0001
0000
,
0202
0000
0000
0000
,
0000
0000
0303
0000
,
1000
0010
0100
0001
,
0100
0010
1000
0001
,
0100
0010
1000
0010
,
0100
0000
1100
0101
,
0001
1000
1001
0000
,
0010
0100
0110
0000
,
0001
0100
0010
1000
,
0001
0100
0010
1000
,
0100
1000
0010
0100
,
0001
0010
0100
1000
,
0010
0010
0100
0100
,
0220
0000
0000
0000
,
0330
0000
0000
0000
0000
0000
1000
0010
,
0100
0000
0001
0100
,
0101
0000
0000
1100
0000
0000
0102
0000
,
0000
0000
0100
0100
,
0200
0000
0000
0303
0000
0000
0001
0000
,
0011
0000
0010
1000
,
1010
0000
0000
0011
0000
0000
1020
0000
,
0000
0000
1000
0000
,
0100
0000
0002
0033
,
1000
0001
0100
0010
,
1000
0010
0100
0001
,
1000
0010
0100
0001
,
0100
0010
1000
0000
,
0010
0100
0010
0000
1000
0000
0001
0000
,
0100
0010
0100
0000
0001
0000
1000
0000
,
0010
1000
0001
0100
,
0001
1000
1001
0000
,
1000
0000
1000
0000
1000
0000
0001
0000
0001
0000
0001
0000
,
0100
0000
0100
0000
0100
0000
0010
0000
0010
0000
0010
0000
,
1000
0000
0010
0000
0100
0000
0001
0000
0100
0000
0000
0020
,
0000
0000
0000
0000
,
0000
0000
0000
0000
,
0030
0000
0000
0000
;

//---------------dance-single - ----------------
#NOTES:
     dance-single:
     :
     Medium:
     11:
     0.476819,0.550632,0.330002,0.179144,0.122572,300.000000,35.000000,19.000000,0.000000,0.000000,0.000000,0.476819,0.550632,0.330002,0.179144,0.122572,300.000000,35.000000,19.000000,0.000000,0.000000,0.000000:
// measure 0
0000
0000
0000
0000
,  // measure 1
0000
0000
0000
0000
,  // measure 2
0000
0000
0000
0000
,  // measure 3
0000
0000
0000
0000
,  // measure 4
0000
0000
0000
0000
,  // measure 5
1000
0000
0010
0000
0100
0001
0100
0000
,  // measure 6
0010
0000
0100
0000
1000
0001
1000
0000
,  // measure 7
0010
0000
0100
0000
0001
0010
0001
0000
,  // measure 8
1000
0000
0010
0000
0100
1000
0100
0000
,  // measure 9
0010
1000
0001
0000
0100
0010
1000
0000
,  // measure 10
0001
0100
0010
0000
0010
1000
0001
0000
,  // measure 11
0100
1000
0001
0010
,  // measure 12
0100
0010
0100
0010
0100
0000
0001
0000
,  // measure 13
2000
0000
0000
0000
,  // measure 14
3020
0000
0000
0000
,  // measure 15
0230
0000
0000
0000
0000
0000
0000
0001
,  // measure 16
0000
0001
0000
0002
0000
0000
0303
0000
,  // measure 17
0002
0000
0000
0000
,  // measure 18
0023
0000
0000
0000
,  // measure 19
0230
0000
0000
0000
0302
0000
0000
2003
,  // measure 20
0000
3020
0000
0200
0000
0000
0330
0000
,  // measure 21
0001
1000
0010
1000
0001
1000
0010
0000
,  // measure 22
1000
0001
0100
0001
1000
0001
0100
0000
,  // measure 23
0100
1000
0100
0010
0100
1000
0100
0000
,  // measure 24
0010
0001
0010
0100
0010
0001
0010
0000
,  // measure 25
0001
0010
0100
1000
0100
0010
0001
0000
,  // measure 26
1000
0100
0010
0001
0010
0100
1000
0000
,  // measure 27
0010
0000
0010
0000
0100
0110
0000
0001
,  // measure 28
0000
1000
1001
0001
0000
0000
1000
0000
,  // measure 29
0200
0000
0310
0010
,  // measure 30
1000
0001
0100
0000
0020
0000
0130
0000
,  // measure 31
0001
0000
1000
0010
0100
0001
0000
1100
,  // measure 32
0000
0000
1001
1001
,  // measure 33
0010
0000
1001
0000
0001
0100
0010
0000
,  // measure 34
0100
0000
1001
0000
1000
0010
0100
0000
,  // measure 35
0001
0000
1000
0000
0010
1000
0001
0000
,  // measure 36
0010
1000
0100
0001
0000
0010
0000
0200
,  // measure 37
0000
0000
0000
0000
,  // measure 38
0000
0010
0010
0010
0020
0000
0330
0000
,  // measure 39
1001
0001
0011
0010
,  // measure 40
1010
1000
1001
0001
,  // measure 41
1000
0000
0000
1000
0100
0000
0000
0000
0001
0000
0000
0000
0100
0000
0000
0100
,  // measure 42
0001
0000
0010
1000
,  // measure 43
0001
0000
0000
0001
0010
0000
0000
0010
0100
0000
0000
0000
0000
0000
0000
0000
,  // measure 44
1000
0000
0000
1000
0100
0000
0000
0100
0010
0000
0000
0000
0000
0000
0001
0000
,  // measure 45
0000
1000
0000
0001
0000
1000
0000
0010
,  // measure 46
1000
0001
1000
0100
0000
0000
1000
0000
,  // measure 47
1100
0100
0101
0001
,  // measure 48
0011
0010
1010
1000
,  // measure 49
1001
0001
0101
0100
,  // measure 50
2200
0000
0000
0000
,  // measure 51
3300
0000
0000
0000
0000
0000
0001
0100
,  // measure 52
1000
0000
0000
0000
0000
0000
0000
0000
1100
0000
0000
1000
0100
0000
0000
0100
,  // measure 53
0001
0000
0000
0011
0000
0000
1010
0000
,  // measure 54
0001
0000
0000
0000
0010
1000
0001
1000
,  // measure 55
0010
1000
0001
1000
0000
0000
1000
0010
,  // measure 56
0001
0000
0000
0000
0000
0000
0000
0000
0011
0000
0000
0001
0010
0000
0000
0010
,  // measure 57
1000
0000
0000
1100
0000
0000
0101
0000
,  // measure 58
0000
0000
0000
0000
1001
0000
0000
0010
,  // measure 59
0100
0000
0000
1000
0001
0000
0000
0001
,  // measure 60
0010
1000
0100
0010
0001
0000
0010
0000
,  // measure 61
1000
0001
0100
0010
1000
0000
1100
0000
,  // measure 62
0001
1000
0010
0100
0001
0000
0011
0000
,  // measure 63
0001
0100
0010
1000
0001
0000
1001
0000
,  // measure 64
0001
1000
0001
1000
0001
0000
0000
0000
0010
0000
0000
0000
0010
0000
0000
0000
,  // measure 65
1000
0001
1000
0001
1000
0000
0000
0000
0100
0000
0000
0000
0100
0000
0000
0000
,  // measure 66
0001
1000
0010
0000
0010
1000
0001
0000
,  // measure 67
1000
0100
0010
0001
0010
0000
0011
0000
,  // measure 68
1000
0000
1000
0000
1100
0000
0001
0000
0001
0000
0011
0000
,  // measure 69
0001
0000
0001
0000
1001
0000
0010
0000
0010
0000
0110
0000
,  // measure 70
0010
0000
0001
0000
0011
0000
0100
0000
1000
0000
0000
2200
,  // measure 71
0000
0000
0000
0000
,  // measure 72
0000
0000
0000
0000
,  // measure 73
3300
0000
0000
0000
;

//---------------dance-single - ----------------
#NOTES:
     dance-single:
     :
     Hard:
     13:
     0.618248,0.825948,0.518574,0.292287,0.273430,373.000000,55.000000,31.000000,0.000000,0.000000,0.000000,0.618248,0.825948,0.518574,0.292287,0.273430,373.000000,55.000000,31.000000,0.000000,0.000000,0.000000:
// measure 0
0000
0000
0000
0000
,  // measure 1
0000
0000
0000
0000
,  // measure 2
0000
0000
0000
0000
,  // measure 3
0000
0000
0000
0000
,  // measure 4
0000
0000
0000
0000
,  // measure 5
1010
0000
0000
0000
0010
0000
1000
0000
0001
1000
0001
1000
0001
0000
0010
0000
,  // measure 6
0100
0000
0000
0000
0001
0000
1000
0000
0010
0100
0010
0100
0010
0000
0001
0000
,  // measure 7
1000
0000
0000
0000
0001
0000
1000
0000
0010
0000
0100
0000
0001
0100
0001
0000
,  // measure 8
0100
0000
0000
0000
0010
0000
1000
0000
0001
0000
1000
0010
1000
0000
0001
0000
,  // measure 9
1000
0000
0000
0000
1001
0000
0000
0000
0010
0100
0010
0100
0010
0000
0000
0000
,  // measure 10
0001
0000
0000
0000
1001
0000
0000
0000
0100
0010
0100
0010
0100
0000
0000
0000
,  // measure 11
0001
1000
0100
0010
0001
0010
0100
1000
,  // measure 12
0100
0100
0001
0001
0100
0100
0010
0010
,  // measure 13
2000
0000
0000
0000
,  // measure 14
3020
0000
0000
0000
,  // measure 15
0230
0000
0000
0000
0000
0000
0000
0302
,  // measure 16
0000
2003
0000
3020
0000
0000
0000
0000
,  // measure 17
0230
0000
0000
0000
,  // measure 18
0302
0000
0000
0000
,  // measure 19
2003
0000
0000
0000
3020
0000
0000
0230
,  // measure 20
0000
0302
0000
2003
0000
3020
0000
0130
,  // measure 21
0001
0100
0010
1000
0100
0010
0100
0001
,  // measure 22
0010
0100
1000
0010
1000
0100
0001
0000
,  // measure 23
0010
1000
0001
0100
0010
0100
1000
0100
,  // measure 24
0010
0001
0010
0100
1000
0010
1000
0000
,  // measure 25
1000
0010
0100
0001
0010
0100
0010
1000
,  // measure 26
0100
0010
0100
0001
0010
0100
1000
0000
,  // measure 27
1100
0000
1100
0000
1100
0101
0000
0101
,  // measure 28
0000
0101
1001
1010
0000
0000
1001
0000
,  // measure 29
2100
0000
3001
0001
,  // measure 30
0020
0000
0000
0100
0130
0000
1001
0000
,  // measure 31
0010
1000
0001
0100
0010
1000
0000
0012
,  // measure 32
0000
0000
0010
0013
,  // measure 33
0001
0010
1000
0100
0010
0100
0001
0000
,  // measure 34
1000
0010
0100
0001
0010
0100
1000
0000
,  // measure 35
0010
1000
0100
0010
0100
0001
0010
0100
,  // measure 36
1000
0010
1000
0001
0100
0010
0000
0200
,  // measure 37
0000
0000
0000
0000
,  // measure 38
0000
1000
1000
1000
1000
0000
0300
0000
,  // measure 39
0001
0000
0000
0000
1000
0000
0000
0010
1000
0000
0000
1000
0010
0000
0000
0000
,  // measure 40
0001
0000
0000
1000
0001
0000
0000
0001
1000
0000
0000
1000
0100
0000
0000
0000
,  // measure 41
0110
0000
0000
0010
0100
0000
0000
0100
0010
0000
0000
0000
0001
0000
0000
0001
,  // measure 42
0020
0000
0000
0000
0030
0000
0000
0000
1100
0000
0000
1100
0000
0000
0101
0000
,  // measure 43
0001
0000
0000
0001
1000
0000
0000
1000
0020
0000
0000
0000
0030
0000
1000
0000
,  // measure 44
0010
0000
0000
0010
1000
0000
0000
1000
0002
0000
0000
0000
0003
0000
1000
0000
,  // measure 45
0100
0101
0000
0001
0010
1010
0000
0010
,  // measure 46
1000
0100
0010
0001
0000
0000
1001
0000
,  // measure 47
0011
0000
0000
1000
0010
0000
0000
0010
1000
0000
0000
1000
0001
0000
0000
0001
,  // measure 48
0100
0000
0000
0100
0010
0000
0000
0010
1000
0000
0000
1000
0001
0000
0000
0001
,  // measure 49
0100
0000
0000
0100
0010
0000
0000
0010
1000
0000
0000
1000
0001
0000
0000
0000
,  // measure 50
0220
0000
0000
0000
,  // measure 51
0330
0000
0000
0000
0000
0000
0001
0001
,  // measure 52
2002
0000
0000
0000
3003
0000
0000
0000
1000
0000
0000
1000
0010
0000
0000
0010
,  // measure 53
0100
0000
0000
1100
0000
0000
0101
0000
,  // measure 54
0011
0000
0000
0000
1100
0100
0010
0001
,  // measure 55
0011
0010
0100
1000
0000
0000
1000
1000
,  // measure 56
2002
0000
0000
0000
3003
0000
0000
0000
0001
0000
0000
0001
0100
0000
0000
0100
,  // measure 57
0010
0000
0000
0011
0000
0000
2020
0000
,  // measure 58
3030
0000
0000
0000
0011
0000
0000
0010
,  // measure 59
0100
0000
0000
0100
1000
0000
0000
0001
,  // measure 60
0010
1000
0010
1000
0001
0100
0010
1000
,  // measure 61
0010
0100
0001
0010
0100
1000
0010
1000
,  // measure 62
0100
0010
0100
0001
0010
0100
1000
0010
,  // measure 63
1000
0100
0001
0100
0010
1000
1001
0000
,  // measure 64
0010
0100
0010
0100
0010
0000
0000
0000
0001
1000
0001
1000
0001
0000
0000
0000
,  // measure 65
1000
0100
1000
0100
1000
0000
0000
0000
0001
0010
0001
0010
0001
0000
0000
0000
,  // measure 66
0010
1000
0100
0010
0001
0010
0100
1000
,  // measure 67
1100
0100
0001
0100
0101
0001
0010
1000
,  // measure 68
1100
0000
1100
0000
1100
0000
0101
0000
0101
0000
0101
0000
,  // measure 69
0011
0000
0011
0000
0011
0000
1010
0000
1010
0000
1010
0000
,  // measure 70
0011
0000
0110
0000
1100
0000
0110
0000
0011
0000
0000
0202
,  // measure 71
0000
0000
0000
0000
,  // measure 72
0000
0000
0000
0000
,  // measure 73
0303
0000
0000
0000
;
